osu file format v14

[General]
AudioFilename: audio.mp3
AudioLeadIn: 0
PreviewTime: 55002
Countdown: 0
SampleSet: Soft
StackLeniency: 0.7
Mode: 0
LetterboxInBreaks: 0
WidescreenStoryboard: 1

[Editor]
Bookmarks: 410,11044,21362,35965,41679,55489,83425,86124,88505
DistanceSpacing: 1
BeatDivisor: 4
GridSize: 8
TimelineZoom: 2

[Metadata]
Title:FLY HIGH!! (TV Size)
TitleUnicode:FLY HIGH!! (TV Size)
Artist:BURNOUT SYNDROMES
ArtistUnicode:BURNOUT SYNDROMES
Creator:Enerugi
Version:Alex's Expert
Source:ハイキュー!! セカンドシーズン
Tags:japanese anime version haikyu haikyuu second season op opening alexsander ataraxia milar001 einess ujimatsu chiya karia lolia
BeatmapID:1829195
BeatmapSetID:875289

[Difficulty]
HPDrainRate:6
CircleSize:4
OverallDifficulty:8.5
ApproachRate:9.2
SliderMultiplier:1.8
SliderTickRate:1

[Events]
//Background and Video events
0,0,"haikyubgreduced.jpg",0,0
Video,-10,"Untitled.avi"
//Break Periods
//Storyboard Layer 0 (Background)
//Storyboard Layer 1 (Fail)
//Storyboard Layer 2 (Pass)
//Storyboard Layer 3 (Foreground)
//Storyboard Layer 4 (Overlay)
//Storyboard Sound Samples

[TimingPoints]
1153,317.460317460317,4,2,0,40,1,0
1153,-166.666666666667,4,2,0,40,0,0
9883,-166.666666666667,4,2,0,60,0,0
10676,-166.666666666667,4,2,1,60,0,0
11152,-100,4,2,1,70,0,0
21470,-125,4,2,2,60,0,0
26391,-125,4,2,0,90,0,0
26470,-125,4,2,2,60,0,0
29089,-125,4,2,2,40,0,0
29406,-125,4,2,2,50,0,0
29724,-125,4,2,2,60,0,0
30041,-125,4,2,2,70,0,0
30359,-125,4,2,2,75,0,0
30676,-125,4,2,2,80,0,0
31629,-125,4,2,2,60,0,0
36708,-125,4,2,2,66,0,0
39565,-125,4,2,2,72,0,0
41152,-125,4,2,2,55,0,0
41787,-111.111111111111,4,2,3,55,0,0
47184,-111.111111111111,4,2,3,65,0,0
51946,-111.111111111111,4,2,3,55,0,0
52343,-111.111111111111,4,2,3,55,0,0
52422,-111.111111111111,4,2,3,55,0,0
52819,-111.111111111111,4,2,3,55,0,0
52899,-111.111111111111,4,2,3,55,0,0
53295,-111.111111111111,4,2,3,55,0,0
53375,-111.111111111111,4,2,3,55,0,0
54803,-111.111111111111,4,2,1,60,0,0
55121,-111.111111111111,4,2,1,50,0,0
55597,-90.9090909090909,4,2,1,75,0,1
63375,-90.9090909090909,4,2,1,85,0,1
65756,-90.9090909090909,4,2,1,75,0,1
73533,-90.9090909090909,4,2,1,85,0,1
75914,-100,4,2,1,70,0,0

[Colours]
Combo1 : 170,134,60
Combo2 : 252,224,182
Combo3 : 255,163,70

[HitObjects]
161,278,1153,6,0,B|277:262,1,107.999996704102
67,210,1787,2,0,B|183:194,1,107.999996704102
251,135,2264,2,0,P|213:104|144:106,1,107.999996704102,2|0,0:0|0:0,0:0:0:0:
71,80,2740,2,0,P|62:52|59:21,1,53.9999983520508
11,158,3057,2,0,L|28:280,1,107.999996704102,2|0,0:0|0:0,0:0:0:0:
87,348,3533,6,0,P|125:318|188:324,1,107.999996704102,2|0,0:0|0:0,0:0:0:0:
270,285,4010,2,0,P|251:258|230:239,1,53.9999983520508
335,342,4327,2,0,P|348:312|354:284,1,53.9999983520508,2|0,0:0|0:0,0:0:0:0:
411,384,4645,1,0,0:0:0:0:
457,277,4803,2,0,P|470:227|469:157,1,107.999996704102,2|2,0:0|0:0,0:0:0:0:
359,67,5438,2,0,P|359:120|372:173,1,107.999996704102,2|0,0:0|0:0,0:0:0:0:
326,245,5914,1,2,0:0:0:0:
262,144,6073,1,0,0:0:0:0:
262,144,6549,6,0,P|274:111|273:87,1,53.9999983520508,2|0,0:0|0:0,0:0:0:0:
194,160,6867,2,0,P|218:149|245:148,1,53.9999983520508
170,226,7184,2,0,P|182:193|181:169,1,53.9999983520508,2|0,0:0|0:0,0:0:0:0:
226,289,7502,1,2,0:0:0:0:
276,231,7660,1,2,0:0:0:0:
332,288,7819,1,2,0:0:0:0:
385,194,7978,1,2,0:0:0:0:
366,358,8295,6,0,P|367:319|364:296,2,53.9999983520508,2|0|0,0:0|0:0|0:0,0:0:0:0:
258,323,8772,2,0,P|223:305|200:299,1,53.9999983520508,2|0,0:0|0:0,0:0:0:0:
125,324,9089,1,2,0:3:0:0:
208,222,9248,2,0,P|170:234|150:246,1,53.9999983520508,2|0,0:0|0:0,0:0:0:0:
114,316,9565,1,2,0:3:0:0:
40,294,9724,1,0,0:0:0:0:
131,332,9883,5,0,3:0:0:0:
43,112,10200,1,0,3:0:0:0:
87,224,10518,5,2,3:2:0:0:
43,112,10676,5,8,1:3:0:0:
125,321,10835,1,8,1:3:0:0:
132,334,11152,6,0,B|209:267|235:360|310:281,1,180,4|0,0:2|3:0,0:0:0:0:
144,178,11629,2,0,P|180:205|227:218,1,90,0|0,1:0|0:0,0:0:0:0:
25,216,11946,1,0,3:0:0:0:
132,334,12105,1,0,3:0:0:0:
131,154,12264,1,0,1:0:0:0:
52,370,12422,6,0,B|117:353|117:353|169:367|169:367|244:346,1,180,4|0,0:0|3:0,0:0:0:0:
228,175,12899,2,0,P|188:209|177:261,1,90,0|0,1:0|0:0,0:0:0:0:
266,87,13216,1,0,3:0:0:0:
301,234,13375,1,0,3:0:0:0:
388,42,13533,1,0,1:0:0:0:
337,145,13692,6,0,B|300:243|381:227|347:316,1,180,4|0,0:0|3:0,0:0:0:0:
189,356,14168,1,0,1:0:0:0:
275,281,14327,1,0,0:0:0:0:
115,209,14486,1,0,3:0:0:0:
197,277,14645,1,0,3:0:0:0:
255,59,14803,1,0,1:0:0:0:
189,151,14962,6,0,P|234:139|294:135,1,90,4|0,0:0|0:0,0:0:0:0:
198,253,15279,1,0,3:0:0:0:
107,96,15438,2,0,P|62:84|2:80,1,90,0|0,1:0|3:0,0:0:0:0:
57,233,15756,1,0,1:2:0:0:
189,151,15914,1,0,1:2:0:0:
232,141,15994,1,0,1:0:0:0:
274,156,16073,1,2,1:2:0:0:
302,190,16152,1,2,1:2:0:0:
313,240,16232,6,0,P|372:198|484:187,1,180,4|0,1:2|0:0,0:0:0:0:
232,141,16708,2,0,P|189:152|122:155,1,90,4|0,1:2|0:0,0:0:0:0:
40,308,17026,1,0,3:0:0:0:
58,213,17184,1,0,3:0:0:0:
91,384,17343,1,0,1:0:0:0:
283,230,17502,6,0,P|345:208|397:202,1,90,4|0,3:2|0:0,0:0:0:0:
204,118,17819,2,0,P|266:140|318:146,1,90,0|0,3:0|1:0,0:0:0:0:
136,201,18137,2,0,P|84:197|60:205,1,45,0|0,1:0|0:0,0:0:0:0:
213,283,18295,1,8,3:0:0:0:
243,249,18375,1,0,1:0:0:0:
283,230,18454,1,0,1:2:0:0:
327,227,18533,1,0,1:2:0:0:
370,240,18613,1,0,1:2:0:0:
404,269,18692,1,0,1:2:0:0:
420,312,18772,5,4,3:2:0:0:
95,153,20200,5,0,1:0:0:0:
186,195,20359,1,0,3:0:0:0:
45,71,20518,1,0,1:0:0:0:
95,153,20676,1,0,3:0:0:0:
250,60,20835,5,0,1:0:0:0:
282,44,20914,1,0,1:0:0:0:
317,40,20994,1,0,1:0:0:0:
352,48,21073,1,0,1:0:0:0:
382,67,21152,1,0,1:2:0:0:
226,172,21311,1,4,1:2:0:0:
226,172,21391,1,4,1:2:0:0:
226,172,21470,6,0,P|191:150|141:132,1,72,4|0,3:1|0:0,0:0:0:0:
90,253,21787,2,0,P|125:231|175:213,1,72,0|0,3:0|2:0,0:0:0:0:
102,337,22105,1,0,2:0:0:0:
12,262,22264,2,0,P|19:219|46:189,1,72,2|0,2:0|3:0,0:0:0:0:
153,219,22581,6,0,B|231:190|217:255|311:219,1,144,2|0,0:2|0:0,0:0:0:0:
374,177,23057,1,0,3:0:0:0:
394,285,23216,2,0,L|378:361,1,72,0|0,0:0|3:0,0:0:0:0:
493,280,23533,2,0,L|507:209,1,72,2|0,0:0|3:0,0:0:0:0:
497,130,23851,1,0,0:0:0:0:
398,78,24010,6,0,B|344:63|344:63|247:85,2,144,2|0|0,3:2|3:0|3:0,0:0:0:0:
418,160,24803,1,2,0:0:0:0:
497,130,24962,1,0,3:0:0:0:
434,241,25121,6,0,P|384:262|288:275,1,144,2|0,0:0|0:0,0:0:0:0:
148,319,25597,2,0,B|184:302|235:296,1,72,0|0,3:0|0:0,0:0:0:0:
296,195,25914,2,0,P|250:208|230:231,1,72,0|2,3:0|0:0,0:0:0:0:
355,139,26232,2,0,P|313:115|282:117,1,72,0|0,3:2|0:0,0:0:0:0:
211,133,26470,1,2,0:0:0:0:
211,133,26549,6,0,P|160:150|78:102,1,144,0|0,3:0|3:0,0:0:0:0:
24,59,27026,1,0,0:0:0:0:
43,189,27184,2,0,L|94:356,1,144,0|0,3:0|3:0,0:0:0:0:
176,149,27660,1,2,0:3:0:0:
217,244,27819,6,0,B|280:205|293:257|359:219,1,144,0|0,3:0|3:0,0:0:0:0:
414,284,28295,1,0,0:0:0:0:
442,134,28454,2,0,L|427:227,1,72,0|0,3:0|0:0,0:0:0:0:
486,345,28772,2,0,L|497:273,1,72,0|0,3:0|0:0,0:0:0:0:
395,352,29010,1,2,3:3:0:0:
395,352,29089,6,0,P|354:324|312:313,1,72,2|0,3:0|0:0,0:0:0:0:
216,330,29406,2,0,P|175:358|133:369,1,72,2|0,3:0|0:0,0:0:0:0:
311,231,29724,2,0,P|270:203|228:192,1,72,2|0,3:0|0:0,0:0:0:0:
132,209,30041,2,0,P|91:237|49:248,1,72,2|0,3:0|0:0,0:0:0:0:
200,256,30359,5,2,3:0:0:0:
220,127,30518,1,0,3:0:0:0:
310,247,30676,1,2,3:0:0:0:
333,90,30835,1,2,3:0:0:0:
333,90,30914,1,0,3:0:0:0:
333,90,30994,1,4,3:0:0:0:
280,175,31152,1,0,3:0:0:0:
209,240,31311,1,4,3:0:0:0:
127,278,31470,1,8,3:0:0:0:
297,267,31629,6,0,P|345:264|381:268,1,72,4|0,3:1|0:0,0:0:0:0:
455,357,31946,2,0,P|407:354|371:358,1,72,0|0,3:0|0:0,0:0:0:0:
297,267,32264,1,0,3:0:0:0:
443,275,32422,1,2,0:0:0:0:
330,185,32581,2,0,P|307:146|306:110,1,72,8|2,0:2|0:0,0:0:0:0:
434,64,32899,6,0,L|387:131,1,72
424,238,33216,1,0,3:0:0:0:
297,267,33375,2,0,P|259:260|215:258,1,72,2|0,0:0|0:0,0:0:0:0:
347,335,33692,1,2,0:0:0:0:
179,348,33851,2,0,P|214:345|250:338,1,72,8|0,0:0|0:0,0:0:0:0:
166,195,34168,6,0,B|81:181|112:245|11:224,1,144,0|0,3:0|3:0,0:0:0:0:
21,67,34645,2,0,P|40:110|39:155,1,72,2|0,0:0|0:0,0:0:0:0:
134,44,34962,1,0,0:0:0:0:
166,195,35121,2,0,P|202:167|242:151,1,72,10|2,0:0|0:0,0:0:0:0:
304,281,35438,6,0,P|268:253|228:237,1,72
376,194,35756,2,0,P|412:166|452:150,1,72,0|0,3:0|0:0,0:0:0:0:
401,273,36073,1,0,3:0:0:0:
322,133,36232,1,2,0:0:0:0:
306,289,36391,1,8,0:0:0:0:
364,203,36549,1,2,0:0:0:0:
327,384,36708,6,0,B|281:371|281:371|234:378|234:378|167:357,1,144,4|8,0:1|1:2,0:0:0:0:
90,218,37184,1,0,0:0:0:0:
176,272,37343,1,0,3:0:0:0:
175,154,37502,1,0,0:0:0:0:
104,297,37660,1,8,1:2:0:0:
247,251,37819,1,2,0:0:0:0:
90,218,37978,6,0,P|50:219|10:233,1,72,0|0,3:0|0:0,0:0:0:0:
137,368,38295,1,8,1:2:0:0:
210,321,38454,2,0,P|250:322|290:336,1,72,2|0,0:0|3:0,0:0:0:0:
369,375,38772,1,2,0:0:0:0:
369,203,38930,2,0,L|358:288,1,72,0|0,1:0|0:0,0:0:0:0:
468,115,39248,6,0,B|399:72|394:142|302:99,1,144,4|8,0:0|1:2,0:0:0:0:
184,66,39724,1,0,0:0:0:0:
209,234,39883,1,0,3:0:0:0:
242,146,40041,1,4,3:3:0:0:
103,113,40200,1,8,3:3:0:0:
302,212,40359,5,4,0:0:0:0:
43,313,40676,1,0,1:0:0:0:
44,323,40756,1,0,0:0:0:0:
46,334,40835,1,0,1:0:0:0:
80,313,40914,1,0,1:0:0:0:
119,309,40994,1,0,1:0:0:0:
157,320,41073,1,0,1:0:0:0:
188,345,41152,5,8,3:0:0:0:
200,323,41232,1,8,3:0:0:0:
212,301,41311,1,8,3:0:0:0:
217,276,41391,1,8,3:0:0:0:
211,252,41470,1,4,3:0:0:0:
195,231,41549,1,4,3:0:0:0:
174,218,41629,1,4,3:0:0:0:
148,206,41708,1,4,3:0:0:0:
125,221,41787,6,0,P|156:193|198:173,1,80.9999975280763,4|0,0:1|0:0,0:0:0:0:
351,233,42105,1,8,0:2:0:0:
211,252,42264,1,0,3:0:0:0:
305,114,42422,1,0,3:0:0:0:
284,205,42581,1,0,0:0:0:0:
145,109,42740,6,0,P|173:140|193:182,1,80.9999975280763,8|0,0:2|3:0,0:0:0:0:
242,19,43057,1,0,3:0:0:0:
305,114,43216,1,2,3:2:0:0:
407,0,43375,6,0,P|379:31|359:73,1,80.9999975280763,8|2,0:2|0:0,0:0:0:0:
410,225,43692,1,0,3:2:0:0:
452,126,43851,1,0,3:2:0:0:
364,318,44010,5,8,0:2:0:0:
144,319,44327,1,2,3:2:0:0:
259,335,44486,1,0,3:0:0:0:
140,162,44645,6,0,P|172:215|180:257,1,80.9999975280763,8|0,0:2|3:0,0:0:0:0:
215,77,44962,1,0,3:0:0:0:
266,176,45121,1,0,0:0:0:0:
90,229,45279,6,0,P|37:197|-5:189,1,80.9999975280763,8|2,0:2|3:2,0:0:0:0:
90,365,45597,1,0,3:0:0:0:
170,296,45756,1,2,3:2:0:0:
300,384,45914,6,0,P|353:352|395:344,1,80.9999975280763,8|2,0:2|0:0,0:0:0:0:
172,278,46232,2,0,P|225:310|267:318,1,80.9999975280763,0|2,3:2|3:2,0:0:0:0:
52,384,46549,2,0,P|105:352|147:344,1,80.9999975280763,8|2,0:2|0:0,0:0:0:0:
294,174,46867,6,0,P|265:123|185:44,1,161.999995056153,4|8,0:1|0:2,0:0:0:0:
212,192,47343,1,0,3:0:0:0:
355,108,47502,1,0,3:0:0:0:
299,206,47660,1,0,3:0:0:0:
327,32,47819,6,0,P|345:68|355:108,1,80.9999975280763,8|2,1:2|0:0,0:0:0:0:
439,271,48137,1,2,3:2:0:0:
462,164,48295,1,0,3:0:0:0:
341,290,48454,6,0,P|322:325|313:365,1,80.9999975280763,8|0,0:2|3:0,0:0:0:0:
251,180,48772,1,0,3:0:0:0:
222,285,48930,1,0,0:0:0:0:
116,171,49089,2,0,P|97:135|88:95,1,80.9999975280763,8|2,1:2|0:2,0:0:0:0:
22,256,49406,6,0,P|83:214|167:245,1,161.999995056153,4|2,0:1|0:3,0:0:0:0:
203,326,49883,1,8,0:2:0:0:
285,205,50041,2,0,P|308:163|342:122,1,80.9999975280763,8|4,3:3|3:0,0:0:0:0:
297,296,50359,1,0,3:3:0:0:
196,177,50518,1,0,3:0:0:0:
380,213,50676,5,8,1:2:0:0:
263,224,50835,1,0,0:0:0:0:
427,119,50994,1,8,1:2:0:0:
381,234,51152,1,0,0:0:0:0:
281,85,51311,1,0,1:0:0:0:
261,64,51391,1,0,1:0:0:0:
238,48,51470,1,0,1:0:0:0:
212,36,51549,1,0,1:0:0:0:
184,30,51629,1,0,1:0:0:0:
156,29,51708,1,0,1:0:0:0:
128,35,51787,1,0,1:0:0:0:
102,45,51867,1,0,1:0:0:0:
79,62,51946,6,0,P|120:98|73:244,1,202.499993820191,4|0,0:1|0:0,0:0:0:0:
69,257,52422,6,0,B|152:185|166:293|272:213,1,202.499993820191,4|0,0:1|0:0,0:0:0:0:
287,208,52899,6,0,P|249:297|305:376,1,202.499993820191,8|0,0:2|0:0,0:0:0:0:
323,381,53375,5,2,0:3:0:0:
131,317,53533,1,2,0:2:0:0:
433,201,53851,6,0,P|406:167|384:152,1,40.4999987640381,0|0,1:2|1:0,0:0:0:0:
305,190,54010,1,0,1:2:0:0:
274,216,54089,1,0,1:0:0:0:
234,222,54168,1,0,1:2:0:0:
197,205,54248,1,0,1:0:0:0:
175,171,54327,1,0,1:2:0:0:
175,130,54406,1,0,1:0:0:0:
196,96,54486,5,8,1:2:0:0:
213,133,54565,1,0,1:2:0:0:
207,173,54645,1,8,1:2:0:0:
180,204,54724,1,0,1:2:0:0:
141,215,54803,1,8,1:2:0:0:
102,202,54883,1,8,1:2:0:0:
80,170,54962,1,8,1:2:0:0:
138,298,55121,5,10,0:2:0:0:
196,96,55279,1,10,0:2:0:0:
213,83,55597,6,0,B|239:54|264:38|264:38|339:39|363:130,1,198.000006042481,4|0,0:2|3:0,0:0:0:0:
150,143,56073,2,0,P|128:90|140:43,1,99.0000030212403,8|0,1:2|0:0,0:0:0:0:
217,234,56391,1,0,3:0:0:0:
276,124,56549,1,0,3:0:0:0:
326,320,56708,1,8,1:2:0:0:
473,153,56867,6,0,P|373:147|338:250,1,198.000006042481,4|0,0:2|3:0,0:0:0:0:
469,309,57343,2,0,P|444:242|412:227,1,99.0000030212403,8|0,1:2|0:0,0:0:0:0:
381,378,57660,1,0,3:0:0:0:
327,234,57819,1,0,3:0:0:0:
230,384,57978,1,8,1:2:0:0:
203,178,58137,6,0,P|229:247|240:372,1,198.000006042481,4|0,0:0|3:0,0:0:0:0:
343,215,58613,2,0,P|369:170|408:134,1,99.0000030212403,8|0,1:2|0:0,0:0:0:0:
175,178,58930,2,0,P|125:178|78:165,1,99.0000030212403,0|0,3:0|3:0,0:0:0:0:
153,273,59248,1,8,1:2:0:0:
231,101,59406,6,0,B|345:90|301:182|430:160,1,198.000006042481,4|0,0:0|3:0,0:0:0:0:
250,193,59883,1,8,1:2:0:0:
389,47,60041,1,0,0:0:0:0:
418,251,60200,1,0,3:0:0:0:
295,110,60359,1,0,3:0:0:0:
233,276,60518,1,8,1:2:0:0:
96,99,60676,6,0,B|132:71|161:80|161:80|228:114|210:206,1,198.000006042481,4|0,0:0|3:0,0:0:0:0:
34,227,61152,2,0,P|78:191|125:187,1,99.0000030212403,8|0,1:2|0:0,0:0:0:0:
257,289,61470,2,0,P|301:325|348:329,1,99.0000030212403,0|0,3:0|3:0,0:0:0:0:
512,171,61787,2,0,P|463:179|427:211,1,99.0000030212403,8|0,1:2|0:0,0:0:0:0:
473,377,62105,5,0,3:0:0:0:
341,329,62264,1,0,3:0:0:0:
498,254,62422,1,8,1:2:0:0:
305,237,62581,2,0,P|334:299|342:340,1,99.0000030212403,0|0,3:0|0:0,0:0:0:0:
359,92,62899,1,0,3:0:0:0:
379,192,63057,2,0,P|317:163|276:155,1,99.0000030212403,8|0,1:2|0:0,0:0:0:0:
285,245,63375,5,0,1:0:0:0:
148,71,63533,1,0,1:0:0:0:
130,90,63851,2,0,P|154:133|165:201,1,99.0000030212403,0|0,1:0|0:0,0:0:0:0:
305,237,64168,2,0,P|281:280|269:348,1,99.0000030212403,0|4,1:0|3:3,0:0:0:0:
143,187,64486,6,0,P|102:101|-1:49,1,198.000006042481,0|0,1:0|1:0,0:0:0:0:
73,248,64962,1,8,1:2:0:0:
190,51,65121,1,8,1:2:0:0:
41,158,65279,1,0,1:2:0:0:
74,137,65359,1,0,1:2:0:0:
113,130,65438,1,0,1:2:0:0:
152,138,65518,1,8,1:2:0:0:
185,160,65597,1,8,1:2:0:0:
208,192,65676,1,8,0:2:0:0:
217,230,65756,6,0,B|285:204|285:204|344:208|344:208|427:182,1,198.000006042481,4|0,0:2|3:0,0:0:0:0:
309,313,66232,2,0,L|213:347,1,99.0000030212403,12|0,1:2|0:0,0:0:0:0:
53,232,66549,1,0,3:0:0:0:
101,337,66708,1,0,3:0:0:0:
139,164,66867,1,8,1:2:0:0:
217,230,67026,6,0,P|284:175|412:138,1,198.000006042481,4|0,0:0|3:0,0:0:0:0:
148,190,67502,2,0,P|97:213|36:222,1,99.0000030212403,8|0,1:2|0:0,0:0:0:0:
223,257,67819,1,0,3:0:0:0:
261,107,67978,1,0,3:0:0:0:
358,275,68137,1,8,1:2:0:0:
368,43,68295,6,0,B|251:27|292:112|173:97,1,198.000006042481,4|0,0:0|3:0,0:0:0:0:
349,163,68772,2,0,P|373:209|374:267,1,99.0000030212403,8|0,1:2|0:0,0:0:0:0:
187,262,69089,2,0,P|233:237|291:236,1,99.0000030212403,0|0,3:0|3:0,0:0:0:0:
199,369,69406,1,8,1:2:0:0:
59,264,69565,6,0,P|24:177|100:105,1,198.000006042481,4|0,0:0|3:0,0:0:0:0:
268,104,70041,2,0,P|212:81|154:90,1,99.0000030212403,8|0,1:2|3:0,0:0:0:0:
305,187,70359,1,0,3:2:0:0:
315,20,70518,1,0,3:2:0:0:
205,165,70676,1,8,1:2:0:0:
415,98,70835,6,0,P|472:163|422:262,1,198.000006042481,4|0,0:0|3:0,0:0:0:0:
239,326,71311,1,8,1:2:0:0:
377,370,71470,1,0,0:0:0:0:
328,200,71629,2,0,P|313:272|332:310,1,99.0000030212403,0|0,3:0|3:0,0:0:0:0:
221,115,71946,1,8,1:2:0:0:
196,231,72105,1,0,0:0:0:0:
100,36,72264,5,0,3:0:0:0:
154,163,72422,1,0,3:0:0:0:
272,0,72581,1,8,1:2:0:0:
169,81,72740,2,0,P|221:80|275:108,1,99.0000030212403,0|0,3:0|0:0,0:0:0:0:
73,157,73057,1,0,3:0:0:0:
246,200,73216,1,12,1:2:0:0:
66,276,73375,1,0,0:0:0:0:
286,339,73533,5,4,1:2:0:0:
156,244,73692,1,0,1:0:0:0:
58,359,73851,1,4,3:0:0:0:
244,273,74010,2,0,P|293:253|356:266,1,99.0000030212403,0|0,1:0|0:0,0:0:0:0:
493,199,74327,2,0,P|444:179|381:192,1,99.0000030212403,0|0,1:0|0:0,0:0:0:0:
107,204,74645,6,0,P|199:191|244:273,1,198.000006042481,0|4,1:0|3:0,0:0:0:0:
57,299,75121,1,8,1:2:0:0:
59,135,75279,1,8,1:2:0:0:
181,334,75438,1,0,1:2:0:0:
206,348,75518,1,0,1:0:0:0:
235,355,75597,1,0,1:2:0:0:
265,355,75676,1,8,1:2:0:0:
294,345,75756,1,12,1:2:0:0:
318,329,75835,1,8,1:2:0:0:
335,308,75914,6,0,P|354:231|365:116,1,180,6|0,0:1|3:0,0:0:0:0:
186,160,76391,2,0,P|231:175|286:174,1,90,12|0,1:2|0:0,0:0:0:0:
115,67,76708,1,0,3:0:0:0:
134,232,76867,1,0,3:0:0:0:
208,74,77026,1,8,1:2:0:0:
9,166,77184,6,0,P|93:157|134:232,1,180,4|0,0:1|3:0,0:0:0:0:
27,327,77660,2,0,L|57:227,1,90,8|0,1:2|0:0,0:0:0:0:
99,384,77978,1,0,3:0:0:0:
134,232,78137,1,0,3:0:0:0:
237,348,78295,1,8,1:2:0:0:
335,129,78454,6,0,P|297:152|278:202,1,90,4|0,0:1|0:0,0:0:0:0:
172,48,78772,2,0,P|210:71|229:121,1,90,4|0,3:0|0:0,0:0:0:0:
392,193,79089,2,0,P|354:170|335:120,1,90,4|0,3:0|0:0,0:0:0:0:
228,275,79406,2,0,P|266:252|285:202,1,90,4|0,3:0|0:0,0:0:0:0:
86,206,79724,6,0,P|118:277|147:379,1,180,4|0,0:1|3:0,0:0:0:0:
184,199,80200,1,8,1:2:0:0:
232,353,80359,1,0,0:0:0:0:
284,211,80518,1,8,1:2:0:0:
355,379,80676,1,8,1:2:0:0:
391,378,80756,1,8,1:2:0:0:
425,369,80835,1,8,1:2:0:0:
456,351,80914,1,8,1:2:0:0:
480,324,80994,6,0,P|473:240|451:135,1,180,6|0,1:1|0:0,0:0:0:0:
332,261,81470,2,0,P|290:284|225:306,1,90,12|0,1:2|0:0,0:0:0:0:
77,212,81787,1,0,3:0:0:0:
182,324,81946,1,0,3:0:0:0:
215,154,82105,1,8,1:2:0:0:
95,335,82264,6,0,P|161:321|197:329,1,90,0|0,1:2|0:0,0:0:0:0:
360,279,82581,2,0,P|294:293|258:285,1,90,0|8,3:0|1:2,0:0:0:0:
120,222,82899,2,0,P|156:207|182:206,1,45,8|0,3:0|0:0,0:0:0:0:
78,120,83057,1,4,3:3:0:0:
44,150,83137,1,4,3:3:0:0:
25,190,83216,1,4,3:3:0:0:
22,234,83295,1,4,3:3:0:0:
35,277,83375,1,4,3:3:0:0:
64,311,83454,1,4,3:3:0:0:
107,327,83533,5,12,1:2:0:0:
107,327,84962,5,4,3:2:0:0:
128,287,85041,1,0,3:0:0:0:
164,260,85121,1,0,3:0:0:0:
207,250,85200,1,0,3:0:0:0:
251,259,85279,2,0,P|288:261|323:256,1,45,0|0,3:0|3:0,0:0:0:0:
398,275,85438,5,4,3:2:0:0:
377,315,85518,1,0,3:0:0:0:
341,342,85597,1,0,3:0:0:0:
298,352,85676,1,0,3:0:0:0:
254,343,85756,2,0,P|217:341|182:346,1,45,0|0,3:0|3:0,0:0:0:0:
128,287,85914,2,0,P|118:240|125:193,1,90,4|0,3:2|0:0,0:0:0:0:
264,128,86232,6,0,P|190:119|156:135,1,90,8|0,3:2|0:0,0:0:0:0:
319,200,86549,1,8,1:2:0:0:
348,166,86629,1,0,1:0:0:0:
355,122,86708,1,8,1:2:0:0:
337,82,86787,1,0,1:0:0:0:
309,45,86867,5,8,1:3:0:0:
343,74,86946,1,0,1:0:0:0:
387,81,87026,1,8,1:2:0:0:
429,69,87105,1,0,1:0:0:0:
467,45,87184,6,0,P|473:21|475:-16,1,45,8|0,1:2|0:0,0:0:0:0:
512,184,87343,1,8,1:2:0:0:
505,228,87422,1,0,1:0:0:0:
499,273,87502,2,0,L|487:326,1,45,8|0,1:2|1:0,0:0:0:0:
368,211,87660,5,0,1:1:0:0:
361,167,87740,1,0,0:0:0:0:
355,122,87819,1,8,1:2:0:0:
305,280,87978,1,8,1:2:0:0:
247,27,88137,5,8,1:2:0:0:
202,223,88295,1,8,1:2:0:0:
355,122,88454,1,8,1:2:0:0:
116,91,88613,1,8,1:2:0:0:
