osu file format v14

[General]
AudioFilename: audio.mp3
AudioLeadIn: 0
PreviewTime: 340
Countdown: 0
SampleSet: Normal
StackLeniency: 0.7
Mode: 0
LetterboxInBreaks: 0
WidescreenStoryboard: 0

[Editor]
DistanceSpacing: 0.7
BeatDivisor: 4
GridSize: 8
TimelineZoom: 1.6

[Metadata]
Title:FLY HIGH!!
TitleUnicode:FLY HIGH!!
Artist:BURNOUT SYNDROMES
ArtistUnicode:BURNOUT SYNDROMES
Creator:Maffe
Version:Soaring
Source:Haikyuu!! Second Season
Tags:haikyuu hinata shoyo tobio kageyama daichi tanaka ryu karasuno volleyball anime kumagai kaazumi ishiwatari junji epic records
BeatmapID:1439933
BeatmapSetID:681065

[Difficulty]
HPDrainRate:6.2
CircleSize:4
OverallDifficulty:8.5
ApproachRate:9.6
SliderMultiplier:1.7
SliderTickRate:1

[Events]
//Background and Video events
//Break Periods
2,1820,11101
2,33475,39196
2,97283,103955
//Storyboard Layer 0 (Background)
//Storyboard Layer 1 (Fail)
//Storyboard Layer 2 (Pass)
//Storyboard Layer 3 (Foreground)
//Storyboard Sound Samples

[TimingPoints]
1620,317.460317460317,4,1,0,40,1,0
11610,317.460317460317,4,1,0,40,1,0
15339,-83.3333333333333,4,1,0,40,0,0
15815,-100,4,1,0,40,0,0
16291,-133.333333333333,4,1,0,40,0,0
16608,-100,4,1,0,40,0,0
19148,-200,4,1,0,40,0,0
20656,-133.333333333333,4,1,0,40,0,0
20657,317.460317460317,4,1,0,40,1,0
20657,-133.333333333333,4,1,0,40,0,0
20660,-133.333333333333,4,1,0,40,0,0
21846,-133.333333333333,4,1,0,40,0,0
22481,-117.647058823529,4,1,0,40,0,0
29782,-200,4,1,0,40,0,0
30100,-117.647058823529,4,1,0,40,0,0
30417,-200,4,1,0,40,0,0
30655,-117.647058823529,4,1,0,40,0,0
30735,-83.3333333333333,4,1,0,40,0,0
32005,-100,4,1,0,40,0,0
32326,-83.3333333333333,4,1,0,40,0,0
37084,-90.9090909090909,4,1,0,40,0,0
39624,-100,4,1,0,40,0,0
41846,-133.333333333333,4,1,0,40,0,0
42163,-100,4,1,0,40,0,0
43116,-133.333333333333,4,1,0,40,0,0
49782,-100,4,1,0,40,0,0
50100,-133.333333333333,4,1,0,40,0,0
51687,-100,4,1,0,40,0,0
55655,-100,4,1,0,40,0,0
56052,-83.3333333333333,4,1,0,40,0,0
60417,-100,4,1,0,40,0,0
64861,-133.333333333333,4,1,0,40,0,0
65575,-100,4,1,0,40,0,0
66131,-83.3333333333333,4,1,0,40,0,0
69147,-76.9230769230769,4,1,0,40,0,0
69464,-83.3333333333333,4,1,0,40,0,0
71686,-100,4,1,0,40,0,0
83909,-166.666666666667,4,1,0,40,0,0
85417,317.460317460317,4,1,0,40,1,0
86131,-200,4,1,0,40,0,0
86606,-133.333333333333,4,1,0,40,0,0
86686,-133.333333333333,4,1,0,40,0,0
86928,-133.333333333333,4,1,0,40,0,0
94543,-200,4,1,0,40,0,0
94860,-133.333333333333,4,1,0,40,0,0
95178,-200,4,1,0,40,0,0
95416,-133.333333333333,4,1,0,40,0,0
95812,-100,4,1,0,40,0,0
96051,-133.333333333333,4,1,0,40,0,0
97082,-100,4,1,0,40,0,0
104384,-133.333333333333,4,1,0,40,0,0
104701,-100,4,1,0,40,0,0
105495,-133.333333333333,4,1,0,40,0,0
105812,-100,4,1,0,40,0,0
106289,-133.333333333333,4,1,0,40,0,0
106924,-100,4,1,0,40,0,0
107876,-133.333333333333,4,1,0,40,0,0
114543,-100,4,1,0,40,0,0
114781,-133.333333333333,4,1,0,40,0,0
116447,-100,4,1,0,40,0,0
120020,-71.4285714285714,4,1,0,40,0,0
120178,317.460317460317,4,1,0,40,1,0
120178,-71.4285714285714,4,1,0,40,0,0
124543,-100,4,1,0,40,0,0
128035,-83.3333333333333,4,1,0,40,0,0
129781,-83.3333333333333,4,1,0,40,0,0

[HitObjects]
344,104,1620,5,0,0:0:0:0:
312,248,11610,6,0,B|448:264|448:264|424:232,1,170
400,144,12086,1,0,0:0:0:0:
424,344,12244,1,0,0:0:0:0:
152,176,12403,2,0,L|240:168,1,85
312,160,12721,1,0,0:0:0:0:
80,344,12879,6,0,B|40:280|80:208|80:208|104:240,1,170
104,104,13356,1,0,0:0:0:0:
152,296,13514,1,0,0:0:0:0:
208,64,13673,2,0,L|184:176,1,85
240,240,13990,1,0,0:0:0:0:
442,154,14149,6,0,B|404:141|384:96|384:96|348:138|280:136,1,170
312,48,14625,1,0,0:0:0:0:
368,208,14784,1,0,0:0:0:0:
136,112,14943,2,0,L|232:120,1,85
472,72,15260,1,0,0:0:0:0:
456,352,15419,6,0,B|463:263|463:263|445:228|445:228|451:152,1,203.999993774414
376,288,15895,2,0,L|240:304,1,127.5
224,312,16213,1,0,0:0:0:0:
256,40,16371,1,0,0:0:0:0:
267,69,16451,1,0,0:0:0:0:
273,100,16530,1,0,0:0:0:0:
272,132,16609,1,0,0:0:0:0:
264,160,16689,6,0,B|136:176|136:176|176:136,1,170
184,64,17165,1,0,0:0:0:0:
264,248,17324,1,0,0:0:0:0:
32,200,17483,1,0,0:0:0:0:
164,147,17641,1,0,0:0:0:0:
64,352,17800,1,0,0:0:0:0:
360,128,17959,2,0,L|352:232,1,85
136,280,18276,2,0,L|104:184,1,85
240,88,18594,2,0,B|216:144|240:200|248:200|256:200|304:264|232:360,1,255
128,336,19229,6,0,P|181:218|208:344,1,340
304,352,20657,6,0,L|392:344,1,63.7500024318696
424,248,20975,2,0,L|344:240,1,63.7500024318696
272,128,21292,1,0,0:0:0:0:
480,184,21451,1,0,0:0:0:0:
464,168,21530,1,0,0:0:0:0:
440,168,21609,1,0,0:0:0:0:
224,64,21768,5,0,0:0:0:0:
240,48,21848,1,0,0:0:0:0:
264,48,21927,2,0,P|272:80|280:120,1,63.7500024318696
336,16,22244,2,0,P|344:48|352:104,1,63.7500024318696
224,256,22562,2,0,P|245:231|272:200,1,72.2500013780594
156,215,22879,2,0,P|177:190|208:152,1,72.2500013780594
480,120,23197,6,0,P|447:125|392:128,1,72.2500013780594
472,200,23514,6,0,P|439:205|392:208,1,72.2500013780594
216,0,23832,2,0,P|232:28|248:64,1,72.2500013780594
144,48,24149,2,0,P|160:76|176:120,1,72.2500013780594
48,304,24467,6,0,L|144:280,1,72.2500013780594
104,376,24784,2,0,L|200:352,1,72.2500013780594
152,192,25102,2,0,L|248:168,1,72.2500013780594
216,272,25419,2,0,L|312:248,1,72.2500013780594
256,64,25736,6,0,L|352:40,1,72.2500013780594
328,152,26054,2,0,L|424:128,1,72.2500013780594
480,112,26371,1,0,0:0:0:0:
424,208,26530,1,0,0:0:0:0:
304,240,26689,1,0,0:0:0:0:
240,336,26848,1,0,0:0:0:0:
204,339,26927,1,0,0:0:0:0:
168,320,27006,6,0,L|56:329,1,108.375002067089
59,328,27324,2,0,L|80:256,1,72.2500013780594
24,192,27641,2,0,L|3:119,1,72.2500013780594
160,216,27959,1,0,0:0:0:0:
112,120,28117,6,0,L|133:47,1,72.2500013780594
232,32,28435,1,0,0:0:0:0:
224,64,28594,1,0,0:0:0:0:
304,64,28752,1,0,0:0:0:0:
312,96,28911,1,0,0:0:0:0:
400,16,29070,1,0,0:0:0:0:
392,48,29229,1,0,0:0:0:0:
400,80,29387,1,0,0:0:0:0:
432,208,29546,6,0,P|376:192|312:216,1,108.375002067089
324,216,29863,2,0,L|316:268,1,42.5
96,288,30181,2,0,P|150:267|216:285,1,108.375002067089
204,286,30498,2,0,L|208:336,1,42.5
216,88,30816,6,0,B|251:62|251:62|233:183,1,152.999995330811
233,183,31133,1,0,0:0:0:0:
24,232,31292,1,0,0:0:0:0:
40,208,31371,1,0,0:0:0:0:
64,200,31451,1,0,0:0:0:0:
96,288,31609,1,0,0:0:0:0:
157,106,31768,1,0,0:0:0:0:
224,216,31927,1,0,0:0:0:0:
288,32,32086,6,0,L|312:184,1,127.5
307,157,32403,2,0,L|371:165,1,50.9999984436036
464,96,32561,2,0,L|424:146,1,50.9999984436036
309,161,32720,2,0,L|372:175,1,50.9999984436036
471,114,32878,2,0,L|427:161,1,50.9999984436036
248,232,33037,2,0,L|240:288,3,50.9999984436036
240,24,39705,6,0,B|221:68|237:108|245:108|253:108|269:156|245:196,1,170
176,152,40181,1,0,0:0:0:0:
312,64,40340,1,0,0:0:0:0:
216,280,40498,1,0,0:0:0:0:
224,32,40657,1,0,0:0:0:0:
224,288,40816,6,0,B|272:232|224:160|224:160|192:200,1,170
216,208,41213,1,0,0:0:0:0:
248,224,41292,1,0,0:0:0:0:
408,48,41451,1,0,0:0:0:0:
369,69,41530,1,0,0:0:0:0:
356,109,41609,5,0,0:0:0:0:
364,150,41689,1,0,0:0:0:0:
391,183,41768,1,0,0:0:0:0:
430,197,41848,1,0,0:0:0:0:
451,233,41927,1,0,0:0:0:0:
458,263,42006,1,0,0:0:0:0:
449,293,42086,1,0,0:0:0:0:
427,315,42165,1,0,0:0:0:0:
396,323,42244,6,0,B|361:294|313:302|313:302|281:342|225:334,1,170
248,248,42721,1,0,0:0:0:0:
72,328,42879,1,0,0:0:0:0:
104,240,43038,1,0,0:0:0:0:
32,176,43197,2,0,P|32:136|40:104,1,63.7500024318696
136,40,43514,5,0,0:0:0:0:
136,40,43673,1,0,0:0:0:0:
208,144,43832,2,0,L|280:152,1,63.7500024318696
408,80,44149,1,0,0:0:0:0:
360,160,44308,1,0,0:0:0:0:
432,240,44467,2,0,P|432:280|424:320,1,63.7500024318696
208,280,44784,5,0,0:0:0:0:
208,280,44943,1,0,0:0:0:0:
312,312,45102,2,0,L|320:240,1,63.7500024318696
184,96,45419,1,0,0:0:0:0:
216,184,45578,1,0,0:0:0:0:
128,256,45736,2,0,P|128:296|136:328,1,63.7500024318696
80,384,46054,5,0,0:0:0:0:
8,344,46213,1,0,0:0:0:0:
48,224,46371,2,0,L|32:152,1,63.7500024318696
24,64,46689,1,0,0:0:0:0:
104,120,46848,1,0,0:0:0:0:
192,0,47006,2,0,L|208:112,1,95.6250036478044
205,94,47324,6,0,L|280:104,1,63.7500024318696
384,216,47641,2,0,L|309:206,1,63.7500024318696
176,200,47959,2,0,L|256:184,1,63.7500024318696
328,40,48276,2,0,L|248:24,1,63.7500024318696
328,40,48594,6,0,P|336:80|328:112,1,63.7500024318696
127,238,48911,2,0,P|155:208|185:196,1,63.7500024318696
360,304,49229,2,0,P|319:297|292:279,1,63.7500024318696
216,56,49546,2,0,P|234:92|234:125,1,63.7500024318696
120,256,49863,6,0,P|160:240|216:248,1,85
175,318,50102,1,0,0:0:0:0:
175,318,50181,2,0,P|175:350|183:382,1,63.7500024318696
272,184,50498,1,0,0:0:0:0:
288,272,50657,1,0,0:0:0:0:
160,144,50816,2,0,L|144:216,1,63.7500024318696
344,120,51133,6,0,L|360:192,1,63.7500024318696
104,32,51451,2,0,L|88:104,1,63.7500024318696
200,360,51768,5,0,0:0:0:0:
232,332,51848,1,0,0:0:0:0:
248,293,51927,1,0,0:0:0:0:
245,251,52006,1,0,0:0:0:0:
224,215,52086,1,0,0:0:0:0:
201,179,52165,1,0,0:0:0:0:
187,138,52244,1,0,0:0:0:0:
183,96,52324,1,0,0:0:0:0:
189,54,52403,5,0,0:0:0:0:
176,40,52721,5,0,0:0:0:0:
392,96,52879,1,0,0:0:0:0:
400,80,53197,5,0,0:0:0:0:
112,176,53356,1,0,0:0:0:0:
104,152,53673,5,0,0:0:0:0:
328,224,53832,1,0,0:0:0:0:
168,360,53990,1,0,0:0:0:0:
288,352,54308,5,0,0:0:0:0:
280,336,54387,1,0,0:0:0:0:
272,328,54467,2,0,P|248:312|224:304,1,31.8750012159348
40,320,54625,1,0,0:0:0:0:
57,322,54705,1,0,0:0:0:0:
68,320,54784,2,0,P|94:309|115:294,1,31.8750012159348
200,112,54943,5,0,0:0:0:0:
188,124,55022,1,0,0:0:0:0:
183,134,55102,2,0,P|176:162|176:187,1,31.8750012159348
368,336,55260,1,0,0:0:0:0:
376,312,55340,1,0,0:0:0:0:
376,288,55419,1,0,0:0:0:0:
328,32,55578,1,0,0:0:0:0:
288,136,55736,2,0,L|192:152,1,85
0,320,56054,6,0,B|130:246|130:246|50:235,1,203.999993774414
64,152,56530,1,0,0:0:0:0:
168,336,56689,1,0,0:0:0:0:
224,120,56848,1,0,0:0:0:0:
76,238,57006,1,0,0:0:0:0:
264,280,57165,1,0,0:0:0:0:
352,64,57324,6,0,B|312:136|368:216|368:216|416:144,1,203.999993774414
424,104,57800,1,0,0:0:0:0:
256,192,57959,1,0,0:0:0:0:
472,280,58117,1,0,0:0:0:0:
368,168,58276,1,0,0:0:0:0:
344,344,58435,1,0,0:0:0:0:
112,72,58594,6,0,B|160:88|184:136|184:136|232:96|288:104,1,203.999993774414
208,32,59070,1,0,0:0:0:0:
256,192,59229,1,0,0:0:0:0:
16,232,59387,1,0,0:0:0:0:
96,160,59546,1,0,0:0:0:0:
120,296,59705,1,0,0:0:0:0:
272,104,59863,6,0,P|216:112|176:160,1,101.999996887207
184,360,60181,2,0,P|209:309|193:249,1,101.999996887207
0,184,60498,2,0,P|32:216|160:200,1,170
184,142,60975,1,0,0:0:0:0:
336,320,61133,6,0,B|318:249|318:249|330:211|330:211|313:140,1,170
248,208,61609,2,0,L|144:232,1,85
408,256,61927,1,0,0:0:0:0:
248,336,62086,1,0,0:0:0:0:
328,120,62244,6,0,L|336:216,1,85
104,192,62562,1,0,0:0:0:0:
272,256,62721,1,0,0:0:0:0:
216,96,62879,1,0,0:0:0:0:
152,320,63038,2,0,L|184:216,1,85
177,164,63356,1,0,0:0:0:0:
232,320,63514,1,0,0:0:0:0:
328,120,63673,5,0,0:0:0:0:
368,360,63832,1,0,0:0:0:0:
384,48,63990,2,0,L|288:32,1,85
216,336,64308,2,0,L|312:320,1,85
224,48,64625,2,0,L|128:32,1,85
80,280,64943,6,0,P|120:248|176:240,1,95.6250036478044
176,248,65260,1,0,0:0:0:0:
288,384,65418,1,0,0:0:0:0:
312,184,65577,1,0,0:0:0:0:
176,384,65736,1,0,0:0:0:0:
191,344,65816,1,0,0:0:0:0:
220,313,65895,1,0,0:0:0:0:
257,294,65975,1,0,0:0:0:0:
299,290,66054,1,0,0:0:0:0:
340,300,66133,1,0,0:0:0:0:
368,328,66213,6,0,B|352:272|391:227|391:227|407:171|375:123,1,203.999993774414
304,112,66689,1,0,0:0:0:0:
448,296,66848,1,0,0:0:0:0:
384,80,67006,1,0,0:0:0:0:
288,288,67165,1,0,0:0:0:0:
512,240,67324,1,0,0:0:0:0:
152,232,67483,6,0,B|296:200|296:200|232:176,1,203.999993774414
216,96,67959,1,0,0:0:0:0:
296,288,68117,1,0,0:0:0:0:
328,128,68276,1,0,0:0:0:0:
176,216,68435,1,0,0:0:0:0:
376,336,68594,1,0,0:0:0:0:
48,384,68752,6,0,B|104:368|128:320|128:320|160:360|224:368,1,203.999993774414
160,144,69229,1,0,0:0:0:0:
128,152,69308,1,0,0:0:0:0:
96,160,69387,1,0,0:0:0:0:
248,88,69546,2,0,L|235:209,1,101.999996887207
224,272,69863,1,0,0:0:0:0:
440,112,70022,6,0,P|392:96|336:112,1,101.999996887207
248,352,70340,2,0,P|288:321|307:266,1,101.999996887207,0|0,0:0|0:0,2:0:0:0:
160,64,70657,2,0,L|176:168,1,101.999996887207
104,240,70975,2,0,L|88:136,1,101.999996887207
256,0,71292,6,0,B|240:40|240:40|264:192,1,203.999993774414
224,272,71768,2,0,L|144:312,1,85
336,120,72086,1,0,0:0:0:0:
184,200,72244,1,0,0:0:0:0:
320,304,72403,6,0,L|304:208,1,85
104,88,72721,1,0,0:0:0:0:
256,160,72879,1,0,0:0:0:0:
112,248,73038,1,0,0:0:0:0:
232,40,73197,2,0,L|176:136,1,85
192,216,73514,1,0,0:0:0:0:
296,88,73673,1,0,0:0:0:0:
344,248,73832,5,0,0:0:0:0:
384,32,73990,1,0,0:0:0:0:
400,328,74149,2,0,L|296:344,1,85
216,64,74467,2,0,L|320:80,1,85
224,336,74784,2,0,L|120:352,1,85
56,144,75102,6,0,B|104:152|104:152|128:176|128:176|186:188,1,127.5
184,184,75419,1,0,0:0:0:0:
56,232,75578,1,0,0:0:0:0:
176,96,75736,1,0,0:0:0:0:
208,264,75895,1,0,0:0:0:0:
248,250,75975,1,0,0:0:0:0:
290,251,76054,1,0,0:0:0:0:
330,264,76133,1,0,0:0:0:0:
369,282,76213,1,0,0:0:0:0:
410,287,76292,1,0,0:0:0:0:
452,280,76371,6,0,B|464:152|464:152|424:200,1,170
360,256,76848,2,0,L|256:280,1,85
192,296,77165,1,0,0:0:0:0:
256,184,77324,1,0,0:0:0:0:
288,368,77483,1,0,0:0:0:0:
112,232,77641,6,0,L|96:328,1,85
152,376,77959,1,0,0:0:0:0:
24,272,78117,1,0,0:0:0:0:
192,208,78276,1,0,0:0:0:0:
64,352,78435,1,0,0:0:0:0:
176,296,78594,1,0,0:0:0:0:
48,192,78752,1,0,0:0:0:0:
344,112,78911,6,0,L|256:128,1,85
192,208,79229,1,0,0:0:0:0:
232,32,79387,1,0,0:0:0:0:
328,200,79546,1,0,0:0:0:0:
144,80,79705,1,0,0:0:0:0:
264,248,79863,1,0,0:0:0:0:
312,32,80022,1,0,0:0:0:0:
344,280,80181,6,0,L|440:296,1,85
480,192,80498,1,0,0:0:0:0:
392,368,80657,1,0,0:0:0:0:
344,160,80816,1,0,0:0:0:0:
480,344,80975,5,0,0:0:0:0:
460,306,81054,1,0,0:0:0:0:
425,282,81133,1,0,0:0:0:0:
384,276,81213,1,0,0:0:0:0:
344,290,81292,1,0,0:0:0:0:
315,321,81371,1,0,0:0:0:0:
304,361,81451,6,0,B|256:232|256:232|288:248,1,170
248,120,81927,1,0,0:0:0:0:
184,304,82086,1,0,0:0:0:0:
128,104,82244,1,0,0:0:0:0:
256,232,82403,1,0,0:0:0:0:
64,280,82562,1,0,0:0:0:0:
352,96,82721,6,0,L|368:192,1,85
88,256,83038,2,0,L|104:160,1,85
240,24,83356,2,0,B|248:72|240:112|240:112|248:152|248:152|240:192|240:192|248:240|240:288,1,255
72,312,83990,6,0,P|48:288|176:304,1,407.999987548829
272,328,85417,5,0,0:0:0:0:
294,316,85496,1,0,0:0:0:0:
318,306,85575,1,0,0:0:0:0:
342,300,85655,1,0,0:0:0:0:
368,296,85734,1,0,0:0:0:0:
512,160,85893,5,0,0:0:0:0:
491,174,85972,1,0,0:0:0:0:
466,180,86051,1,0,0:0:0:0:
441,177,86131,1,0,0:0:0:0:
416,168,86210,1,0,0:0:0:0:
400,153,86290,1,0,0:0:0:0:
382,143,86369,5,0,0:0:0:0:
361,138,86448,1,0,0:0:0:0:
340,138,86528,1,0,0:0:0:0:
319,144,86607,1,0,0:0:0:0:
304,160,86686,6,0,L|296:224,1,63.7500024318696
224,168,87004,2,0,L|216:232,1,63.7500024318696
440,320,87321,2,0,L|382:289,1,63.7500024318696
388,381,87639,2,0,L|330:350,1,63.7500024318696
40,232,87956,6,0,L|97:202,1,63.7500024318696
56,320,88274,2,0,L|113:290,1,63.7500024318696
352,64,88591,2,0,L|343:127,1,63.7500024318696
270,26,88909,2,0,L|261:89,1,63.7500024318696
64,168,89226,6,0,L|121:197,1,63.7500024318696
136,88,89543,2,0,L|193:117,1,63.7500024318696
208,200,89861,2,0,L|265:229,1,63.7500024318696
280,112,90178,2,0,P|312:128|352:128,1,63.7500024318696
360,304,90496,6,0,L|379:242,1,63.7500024318696
288,384,90813,2,0,L|268:322,1,63.7500024318696
136,328,91131,2,0,L|155:266,1,63.7500024318696
72,256,91448,2,0,L|52:194,1,63.7500024318696
160,56,91766,6,0,L|168:160,1,95.6250036478044
167,151,92083,2,0,L|248:168,1,63.7500024318696
288,96,92401,2,0,L|368:79,1,63.7500024318696
272,240,92718,1,0,0:0:0:0:
376,176,92877,6,0,L|456:192,1,63.7500024318696
416,344,93194,1,0,0:0:0:0:
424,312,93353,1,0,0:0:0:0:
320,368,93512,1,0,0:0:0:0:
312,336,93670,1,0,0:0:0:0:
200,376,93829,1,0,0:0:0:0:
216,328,93988,1,0,0:0:0:0:
208,280,94147,1,0,0:0:0:0:
304,128,94305,6,0,P|256:120|200:144,1,95.6250036478044
208,144,94623,2,0,L|203:201,1,42.5
8,224,94940,2,0,P|56:216|112:240,1,95.6250036478044
104,240,95258,2,0,L|108:297,1,42.5
240,328,95575,6,0,P|304:336|344:320,1,95.6250036478044
344,312,95893,1,0,0:0:0:0:
368,56,96210,1,0,0:0:0:0:
304,136,96369,1,0,0:0:0:0:
272,139,96448,1,0,0:0:0:0:
240,142,96528,1,0,0:0:0:0:
248,152,96845,6,0,L|224:272,1,95.6250036478044
248,80,104464,6,0,P|240:120|264:184,1,95.6250036478044
272,184,104782,2,0,L|328:192,3,42.5
360,120,105099,1,0,0:0:0:0:
158,262,105258,1,0,0:0:0:0:
182,246,105337,1,0,0:0:0:0:
214,246,105416,1,0,0:0:0:0:
432,368,105575,6,0,P|416:320|416:256,1,95.6250036478044
424,248,105893,1,0,0:0:0:0:
439,208,105972,1,0,0:0:0:0:
438,166,106051,1,0,0:0:0:0:
419,129,106131,1,0,0:0:0:0:
386,102,106210,1,0,0:0:0:0:
345,92,106290,1,0,0:0:0:0:
303,99,106369,5,0,0:0:0:0:
278,119,106448,1,0,0:0:0:0:
250,133,106528,1,0,0:0:0:0:
219,140,106607,1,0,0:0:0:0:
187,139,106686,1,0,0:0:0:0:
156,130,106766,1,0,0:0:0:0:
129,115,106845,1,0,0:0:0:0:
106,93,106924,1,0,0:0:0:0:
89,66,107004,6,0,B|64:104|72:144|72:144|112:184|96:240,1,170
16,208,107480,1,0,0:0:0:0:
200,184,107639,1,0,0:0:0:0:
168,272,107797,1,0,0:0:0:0:
256,320,107956,2,0,P|264:360|256:400,1,63.7500024318696
328,240,108274,5,0,0:0:0:0:
328,240,108432,1,0,0:0:0:0:
376,336,108591,2,0,L|448:344,1,63.7500024318696
496,176,108909,1,0,0:0:0:0:
416,216,109067,1,0,0:0:0:0:
344,136,109226,2,0,P|312:128|280:132,1,63.7500024318696
240,240,109543,5,0,0:0:0:0:
240,240,109702,1,0,0:0:0:0:
152,160,109861,2,0,L|80:152,1,63.7500024318696
32,264,110178,1,0,0:0:0:0:
128,248,110337,1,0,0:0:0:0:
120,352,110496,2,0,L|184:368,1,63.7500024318696
304,336,110813,5,0,0:0:0:0:
256,248,110972,1,0,0:0:0:0:
336,176,111131,2,0,P|344:136|344:112,1,63.7500024318696
160,40,111448,1,0,0:0:0:0:
208,128,111607,1,0,0:0:0:0:
112,192,111766,2,0,P|104:232|112:288,1,95.6250036478044
120,296,112083,6,0,L|192:304,1,63.7500024318696
344,192,112401,2,0,L|272:200,1,63.7500024318696
160,120,112718,2,0,L|216:165,1,63.7500024318696
352,328,113036,2,0,L|280:320,1,63.7500024318696
352,328,113353,6,0,P|370:296|376:256,1,63.7500024318696
240,104,113670,2,0,P|255:137|285:164,1,63.7500024318696
488,128,113988,2,0,P|451:122|412:130,1,63.7500024318696
240,304,114305,2,0,P|265:277|281:240,1,63.7500024318696
88,144,114623,6,0,P|136:160|184:144,1,85
136,83,114861,1,0,0:0:0:0:
136,83,114940,2,0,P|144:51|144:19,1,63.7500024318696
344,192,115258,1,0,0:0:0:0:
328,104,115416,1,0,0:0:0:0:
156,215,115575,2,0,L|172:135,1,63.7500024318696
424,224,115893,5,0,0:0:0:0:
408,136,116051,1,0,0:0:0:0:
224,272,116210,1,0,0:0:0:0:
240,184,116369,1,0,0:0:0:0:
392,368,116528,5,0,0:0:0:0:
355,348,116607,1,0,0:0:0:0:
334,312,116686,1,0,0:0:0:0:
331,269,116766,1,0,0:0:0:0:
344,229,116845,1,0,0:0:0:0:
359,189,116924,1,0,0:0:0:0:
366,148,117004,1,0,0:0:0:0:
361,106,117083,1,0,0:0:0:0:
345,66,117163,5,0,0:0:0:0:
360,48,117480,5,0,0:0:0:0:
168,136,117639,1,0,0:0:0:0:
152,120,117956,5,0,0:0:0:0:
440,208,118115,1,0,0:0:0:0:
464,200,118432,5,0,0:0:0:0:
224,272,118591,1,0,0:0:0:0:
368,336,118750,1,0,0:0:0:0:
352,352,119702,1,0,0:0:0:0:
416,256,119861,2,0,L|392:168,1,85
128,64,120178,2,0,B|152:0|152:0|216:200,1,237.999992736817
184,264,120654,1,0,0:0:0:0:
272,32,120812,1,0,0:0:0:0:
32,40,120971,1,0,0:0:0:0:
304,120,121130,1,0,0:0:0:0:
168,272,121289,1,0,0:0:0:0:
408,128,121447,2,0,B|352:208|416:296|416:296|448:240,1,237.999992736817
488,176,121924,1,0,0:0:0:0:
344,344,122082,1,0,0:0:0:0:
320,96,122241,1,0,0:0:0:0:
444,246,122400,1,0,0:0:0:0:
216,304,122558,1,0,0:0:0:0:
288,8,122717,2,0,B|232:24|224:96|224:96|168:48|80:80,1,237.999992736817
32,8,123193,1,0,0:0:0:0:
144,168,123352,1,0,0:0:0:0:
0,160,123511,1,0,0:0:0:0:
224,96,123670,1,0,0:0:0:0:
144,288,123828,1,0,0:0:0:0:
336,64,123987,2,0,L|320:200,1,118.999996368408
512,320,124304,2,0,L|404:235,1,118.999996368408
168,376,124622,2,0,L|320:288,1,170
400,168,125098,1,0,0:0:0:0:
216,248,125257,2,0,B|221:184|221:184|248:146|248:146|258:76,1,170
168,112,125733,2,0,L|72:120,1,85
304,216,126051,1,0,0:0:0:0:
128,280,126209,1,0,0:0:0:0:
328,128,126368,2,0,L|336:32,1,85
56,208,126685,1,0,0:0:0:0:
240,160,126844,1,0,0:0:0:0:
48,32,127003,1,0,0:0:0:0:
144,120,127162,2,0,L|152:224,1,85
152,288,127479,1,0,0:0:0:0:
240,160,127638,1,0,0:0:0:0:
296,320,127797,1,0,0:0:0:0:
328,80,127955,1,0,0:0:0:0:
416,344,128114,2,0,L|312:352,1,101.999996887207
136,64,128431,2,0,L|240:72,1,101.999996887207
224,368,128749,2,0,L|120:376,1,101.999996887207
22,195,129066,2,0,B|70:199|70:199|103:186|103:186|134:205|134:205|198:211,1,152.999995330811
184,208,129384,1,0,0:0:0:0:
136,72,129543,1,0,0:0:0:0:
48,280,129701,1,0,0:0:0:0:
