osu file format v14

[General]
AudioFilename: manhow2getquality.mp3
AudioLeadIn: 0
PreviewTime: 54660
Countdown: 0
SampleSet: Soft
StackLeniency: 0.7
Mode: 0
LetterboxInBreaks: 0
WidescreenStoryboard: 0

[Editor]
Bookmarks: 18787,75454,75533,85295
DistanceSpacing: 0.6
BeatDivisor: 4
GridSize: 4
TimelineZoom: 2.2

[Metadata]
Title:FLY HIGH!! (Anime Version)
TitleUnicode:FLY HIGH!! (アニメバージョン)
Artist:BURNOUT SYNDROMES
ArtistUnicode:BURNOUT SYNDROMES
Creator:Aerous
Version:Extra
Source:ハイキュー!! セカンドシーズン
Tags:tv size haikyu haikyuu opening second season haikyuu!! haikyu!!
BeatmapID:877378
BeatmapSetID:403466

[Difficulty]
HPDrainRate:7
CircleSize:4
OverallDifficulty:8
ApproachRate:9.3
SliderMultiplier:1.9
SliderTickRate:1

[Events]
//Background and Video events
0,0,"BGTHACH2.png",0,0
//Break Periods
//Storyboard Layer 0 (Background)
//Storyboard Layer 1 (Fail)
//Storyboard Layer 2 (Pass)
//Storyboard Layer 3 (Foreground)
//Storyboard Sound Samples

[TimingPoints]
1010,317.460317460317,4,2,3,60,1,0
1010,-133.333333333333,4,2,3,60,0,0
11009,-100,4,2,1,75,0,1
18629,-133.333333333333,4,2,3,70,0,0
20692,-100,4,2,1,70,0,0
21327,-100,4,2,1,60,0,0
51803,-83.3333333333333,4,2,1,70,0,0
55454,-100,4,2,1,80,0,1
73390,-83.3333333333333,4,2,1,70,0,0
74502,-100,4,2,1,70,0,0
75771,-100,4,2,1,80,0,1
83390,-133.333333333333,4,2,1,65,0,0
85295,-100,4,2,1,60,0,0
85771,-83.3333333333333,4,2,1,60,0,0

[HitObjects]
368,224,1010,6,0,P|380:164|392:56,2,142.500005435944
296,288,1803,2,0,P|232:276|200:276,1,71.2500027179719,0|2,2:0|0:0,0:0:0:0:
36,200,2121,6,0,P|108:184|196:200,1,142.500005435944,0|0,2:0|2:0,0:0:0:0:
288,184,2597,2,0,P|300:120|300:88,1,71.2500027179719,0|0,0:0|2:0,0:0:0:0:
220,44,2914,2,0,P|208:108|208:140,1,71.2500027179719,0|0,0:0|2:0,0:0:0:0:
226,275,3232,1,0,0:0:0:0:
429,199,3390,6,0,P|344:187|269:183,1,142.500005435944,0|0,2:0|2:0,0:0:0:0:
226,275,3867,2,0,P|261:273|296:269,1,71.2500027179719,0|0,0:0|2:0,0:0:0:0:
408,116,4184,2,0,P|372:110|337:106,1,71.2500027179719,0|0,0:0|2:0,0:0:0:0:
220,64,4502,1,0,0:0:0:0:
193,201,4660,6,0,B|193:161|193:161|217:105|217:105|221:41,1,142.500005435944,0|0,2:0|2:0,0:0:0:0:
219,63,5136,1,0,0:0:0:0:
56,235,5295,2,0,P|116:211|227:203,1,142.500005435944,0|0,2:0|2:0,0:0:0:0:
356,176,5772,1,0,0:0:0:0:
284,264,5930,1,0,2:0:0:0:
182,130,6089,6,0,P|186:165|191:200,1,71.2500027179719,0|0,0:0|2:0,0:0:0:0:
268,280,6406,2,0,P|316:280|372:276,1,71.2500027179719,0|0,0:0|2:0,0:0:0:0:
136,352,6724,2,0,P|184:352|240:348,1,71.2500027179719,0|0,0:0|2:0,0:0:0:0:
339,278,7041,2,0,P|340:242|340:206,1,71.2500027179719,0|0,0:0|2:0,0:0:0:0:
216,128,7359,5,0,0:0:0:0:
256,244,7517,1,0,2:0:0:0:
136,208,7676,1,0,0:0:0:0:
232,108,7835,2,0,P|280:112|336:120,1,71.2500027179719,0|0,2:0|0:0,0:0:0:0:
488,248,8152,2,0,P|416:249|346:240,1,142.500005435944,0|0,2:0|2:0,0:0:0:0:
136,208,8629,6,0,P|138:251|143:289,1,71.2500027179719,0|0,0:0|2:0,0:0:0:0:
292,320,8946,1,0,0:0:0:0:
256,208,9105,2,0,P|259:172|261:137,1,71.2500027179719,0|0,2:0|0:0,0:0:0:0:
152,48,9422,2,0,P|154:83|157:118,1,71.2500027179719,0|0,2:0|0:0,0:0:0:0:
276,224,9740,1,2,0:0:0:0:
280,268,10533,5,8,0:0:0:0:
424,156,10691,1,8,0:0:0:0:
436,328,10851,1,8,0:0:0:0:
212,188,11009,6,0,P|121:220|72:130,1,190,4|0,0:0|0:0,0:0:0:0:
148,47,11486,2,0,P|144:95|145:142,1,95,8|0,0:0|0:0,0:0:0:0:
296,272,11803,2,0,P|342:263|390:260,1,95,2|0,0:0|0:0,0:0:0:0:
212,348,12121,1,8,0:0:0:0:
464,192,12279,6,0,B|416:176|416:176|324:188|324:188|276:180,1,190
120,272,12756,2,0,P|114:224|119:177,1,95,8|0,0:0|0:0,0:0:0:0:
328,104,13073,1,2,0:0:0:0:
164,52,13232,1,0,0:0:0:0:
252,300,13390,1,8,0:0:0:0:
252,300,13470,1,0,0:0:0:0:
252,300,13549,6,0,P|308:284|452:288,1,190,2|0,0:0|0:0,0:0:0:0:
180,236,14025,2,0,P|244:216|300:204,1,95,8|0,0:0|0:0,0:0:0:0:
436,136,14343,2,0,P|372:116|316:104,1,95,2|0,0:0|0:0,0:0:0:0:
200,124,14660,1,8,0:0:0:0:
476,44,14819,6,0,L|452:252,1,190,2|0,0:0|0:0,0:0:0:0:
240,352,15295,1,8,0:0:0:0:
360,184,15454,1,0,0:0:0:0:
368,300,15613,1,8,0:0:0:0:
332,268,15692,1,0,0:0:0:0:
290,246,15771,1,2,0:0:0:0:
244,236,15851,1,0,0:0:0:0:
196,239,15930,2,0,L|188:168,1,47.5,8|0,0:0|0:0,0:0:0:0:
356,80,16089,6,0,P|308:112|176:72,1,190,4|0,0:0|0:0,0:0:0:0:
16,176,16565,2,0,P|76:156|132:148,1,95,8|0,0:0|0:0,0:0:0:0:
264,216,16883,1,2,0:0:0:0:
164,324,17041,1,0,0:0:0:0:
92,228,17200,1,8,0:0:0:0:
284,296,17359,6,0,P|328:264|288:140,1,190,2|0,0:0|0:0,0:0:0:0:
184,120,17835,1,8,0:0:0:0:
168,96,17914,1,0,0:0:0:0:
152,72,17994,1,0,0:0:0:0:
51,253,18152,6,0,L|95:225,1,47.5,8|0,0:0|0:0,0:0:0:0:
224,328,18311,2,0,L|180:300,1,47.5,2|0,0:0|0:0,0:0:0:0:
240,152,18470,2,0,L|196:180,1,47.5,2|0,0:0|0:0,0:0:0:0:
324,236,18629,6,0,P|372:228|496:240,1,142.500005435944,4|0,0:0|0:0,0:0:0:0:
356,120,19105,2,0,P|352:68|340:24,1,71.2500027179719
240,152,19422,2,0,P|233:187|231:222,1,71.2500027179719
128,60,19740,2,0,P|163:61|198:68,1,71.2500027179719
324,256,20057,5,6,3:0:0:0:
152,172,20216,1,2,0:0:0:0:
204,348,20375,1,8,0:0:0:0:
384,164,20533,1,8,0:0:0:0:
108,72,20692,1,8,0:0:0:0:
111,125,20771,1,0,0:0:0:0:
115,178,20850,1,2,0:0:0:0:
119,231,20930,1,0,0:0:0:0:
122,285,21009,6,0,L|180:260,1,47.5,2|0,0:0|0:0,0:0:0:0:
292,316,21168,2,0,L|350:291,1,47.5,2|0,0:0|0:0,0:0:0:0:
464,120,21327,6,0,P|419:104|372:98,1,95,4|0,0:0|0:0,0:0:0:0:
216,192,21644,2,0,P|261:208|308:214,1,95,8|0,0:0|0:0,0:0:0:0:
448,316,21962,1,2,0:0:0:0:
400,176,22121,1,0,0:0:0:0:
292,316,22279,2,0,P|247:300|200:294,1,95,8|0,0:0|0:0,0:0:0:0:
32,256,22597,6,0,P|43:210|60:166,1,95,2|0,0:0|0:0,3:0:0:0:
224,44,22914,2,0,P|241:88|252:134,1,95,8|0,0:0|0:0,3:0:0:0:
120,232,23232,1,2,0:0:0:0:
244,164,23390,1,0,0:0:0:0:
248,328,23549,1,8,0:0:0:0:
128,244,23708,1,0,0:0:0:0:
320,248,23867,6,0,P|372:240|444:216,1,95,2|0,0:0|0:0,0:0:0:0:
216,364,24184,2,0,P|268:356|340:332,1,95,8|0,0:0|0:0,0:0:0:0:
412,228,24502,2,0,P|414:180|410:133,1,95,2|0,0:0|0:0,0:0:0:0:
248,52,24819,1,8,0:0:0:0:
336,176,24978,1,0,0:0:0:0:
196,200,25136,6,0,P|149:188|102:182,1,95,2|0,0:0|0:0,0:0:0:0:
300,328,25454,2,0,P|346:316|393:310,1,95,8|0,0:0|0:0,0:0:0:0:
188,352,25771,1,2,0:0:0:0:
280,232,25930,1,0,0:0:0:0:
116,152,26089,2,0,P|120:199|129:245,1,95,8|0,0:0|0:0,0:0:0:0:
300,328,26406,5,2,0:0:0:0:
204,192,26565,1,0,0:0:0:0:
356,200,26724,2,0,P|404:176|448:144,1,95,8|0,0:0|0:0,0:0:0:0:
200,100,27041,2,0,P|152:76|108:44,1,95,2|0,0:0|0:0,0:0:0:0:
328,24,27359,1,8,0:0:0:0:
200,120,27517,1,0,0:0:0:0:
300,232,27676,6,0,P|303:184|312:138,1,95,2|0,0:0|0:0,0:0:0:0:
456,36,27994,2,0,P|464:82|468:129,1,95,8|0,0:0|0:0,0:0:0:0:
300,232,28311,2,0,P|246:220|196:216,1,95,2|0,0:0|0:0,0:0:0:0:
80,324,28629,2,0,P|133:336|184:340,1,95,8|0,0:0|0:0,0:0:0:0:
260,48,28946,5,2,0:0:0:0:
288,168,29105,1,0,0:0:0:0:
168,132,29263,1,8,0:0:0:0:
228,260,29422,1,0,0:0:0:0:
356,168,29581,5,2,0:0:0:0:
144,108,29740,1,0,0:0:0:0:
204,288,29898,1,8,0:0:0:0:
292,128,30057,1,0,0:0:0:0:
184,312,30216,6,0,P|124:308|52:288,1,95,2|0,0:0|0:0,0:0:0:0:
308,120,30533,1,8,0:0:0:0:
308,340,30692,1,0,0:0:0:0:
308,340,30771,1,0,0:0:0:0:
308,340,30851,1,2,0:0:0:0:
148,176,31009,1,0,0:0:0:0:
376,96,31168,1,8,0:0:0:0:
96,68,31327,1,0,0:0:0:0:
352,232,31486,6,0,P|416:224|452:88,1,190,2|8,0:0|0:0,0:0:0:0:
288,56,31962,1,0,0:0:0:0:
384,148,32121,1,2,0:0:0:0:
232,176,32279,1,0,0:0:0:0:
308,28,32438,1,8,0:0:0:0:
316,236,32597,1,0,0:0:0:0:
292,264,32676,1,0,0:0:0:0:
268,292,32756,6,0,P|212:272|156:256,1,95,2|0,0:0|0:0,0:0:0:0:
36,324,33073,2,0,P|92:344|148:360,1,95,8|0,0:0|0:0,0:0:0:0:
408,232,33390,2,0,P|352:212|296:196,1,95,2|0,0:0|0:0,0:0:0:0:
192,160,33708,2,0,L|188:88,1,47.5,8|0,0:0|0:0,0:0:0:0:
76,40,33867,2,0,L|84:104,1,47.5
200,256,34025,5,2,0:0:0:0:
348,216,34184,1,0,0:0:0:0:
288,360,34343,1,8,0:0:0:0:
368,184,34502,1,0,0:0:0:0:
368,184,34581,1,0,0:0:0:0:
368,184,34660,2,0,P|376:132|380:64,1,95,2|0,0:0|0:0,0:0:0:0:
200,324,34978,2,0,P|192:272|188:204,1,95,8|0,0:0|0:0,0:0:0:0:
84,88,35295,6,0,P|144:92|196:92,1,95,2|0,0:0|0:0,0:0:0:0:
392,228,35613,2,0,P|344:225|297:224,1,95,8|0,0:0|0:0,0:0:0:0:
176,228,35930,1,2,0:0:0:0:
336,176,36089,1,0,0:0:0:0:
296,324,36248,1,8,0:0:0:0:
156,220,36406,1,0,0:0:0:0:
372,248,36565,6,0,P|408:204|320:96,1,190,2|8,0:0|0:0,0:0:0:0:
188,136,37041,1,0,0:0:0:0:
336,176,37200,1,2,0:0:0:0:
160,248,37359,1,0,0:0:0:0:
352,172,37517,1,8,0:0:0:0:
232,44,37676,1,0,0:0:0:0:
280,288,37835,6,0,P|184:252|52:256,1,190,2|8,0:0|0:0,0:0:0:0:
200,356,38311,1,0,0:0:0:0:
156,208,38470,2,0,P|197:184|241:166,1,95,2|0,0:0|0:0,0:0:0:0:
424,144,38787,1,8,0:0:0:0:
360,256,38946,1,0,0:0:0:0:
312,92,39105,6,0,B|256:64|256:64|188:80|188:80|108:68,1,190,2|8,0:0|0:0,0:0:0:0:
131,71,39581,1,0,0:0:0:0:
272,196,39740,1,2,0:0:0:0:
140,320,39898,1,0,0:0:0:0:
64,176,40057,1,8,0:0:0:0:
288,208,40216,1,4,0:0:0:0:
288,208,40533,5,8,0:0:0:0:
332,218,40612,1,2,0:0:0:0:
368,189,40691,1,8,0:0:0:0:
369,143,40771,1,2,0:0:0:0:
334,114,40850,1,2,0:0:0:0:
289,123,40929,1,2,0:0:0:0:
252,156,41009,5,8,0:0:0:0:
200,176,41088,1,0,0:0:0:0:
148,196,41168,1,2,0:0:0:0:
96,176,41247,1,0,0:0:0:0:
40,188,41327,6,0,L|36:128,1,47.5,8|0,0:0|0:0,0:0:0:0:
144,36,41486,2,0,L|171:74,1,47.5
149,279,41644,6,0,P|196:260|363:232,1,190,4|2,0:0|1:0,0:0:0:0:
436,304,42121,1,0,0:0:0:0:
388,112,42279,2,0,P|327:116|272:124,1,95,2|0,0:0|0:0,0:0:0:0:
196,228,42597,1,2,1:0:0:0:
104,116,42756,1,0,0:0:0:0:
32,280,42914,6,0,P|21:219|14:151,1,95,2|0,0:0|0:0,0:0:0:0:
212,40,43232,2,0,P|205:87|196:133,1,95,2|0,1:0|0:0,0:0:0:0:
232,308,43549,1,2,0:0:0:0:
108,216,43708,1,0,0:0:0:0:
328,140,43867,1,2,1:0:0:0:
428,332,44184,5,2,0:0:0:0:
300,260,44343,1,0,0:0:0:0:
436,168,44502,1,2,1:0:0:0:
280,276,44660,1,0,0:0:0:0:
312,120,44819,2,0,P|320:60|324:8,1,95,2|0,0:0|0:0,0:0:0:0:
124,120,45136,2,0,P|128:167|134:214,1,95,2|0,1:0|0:0,0:0:0:0:
232,336,45454,5,2,0:0:0:0:
344,248,45613,1,0,0:0:0:0:
208,156,45772,1,2,1:0:0:0:
364,264,45930,1,0,0:0:0:0:
160,260,46089,2,0,P|96:248|52:232,1,95,2|0,0:0|0:0,0:0:0:0:
304,144,46406,2,0,P|368:132|412:116,1,95,2|0,1:0|0:0,0:0:0:0:
200,36,46724,5,2,0:0:0:0:
132,188,46883,1,0,0:0:0:0:
336,260,47041,2,0,P|336:204|324:144,1,95,2|0,1:0|0:0,0:0:0:0:
116,84,47359,1,2,0:0:0:0:
256,212,47517,1,0,0:0:0:0:
104,344,47676,2,0,P|160:332|216:332,1,95,2|0,1:0|0:0,0:0:0:0:
432,208,47994,5,2,0:0:0:0:
328,320,48152,1,0,0:0:0:0:
240,208,48311,1,2,1:0:0:0:
316,344,48470,1,0,0:0:0:0:
356,136,48629,2,0,P|328:88|292:40,1,95,2|0,0:0|0:0,0:0:0:0:
104,244,48946,2,0,P|159:237|219:237,1,95,2|0,1:0|0:0,0:0:0:0:
372,276,49263,5,4,0:0:0:0:
236,360,49422,1,0,0:0:0:0:
156,192,49581,2,0,P|152:132|160:64,1,95,2|0,2:0|1:0,0:0:0:0:
348,40,49898,1,2,0:0:0:0:
228,140,50057,1,0,0:0:0:0:
396,184,50216,2,0,P|468:172|512:172,1,95,2|0,1:0|0:0,0:0:0:0:
272,312,50533,5,2,0:0:0:0:
256,156,50692,1,0,0:0:0:0:
388,268,50851,1,2,1:0:0:0:
172,236,51009,1,0,0:0:0:0:
304,340,51168,1,0,1:0:0:0:
297,293,51247,1,0,1:0:0:0:
292,244,51327,1,0,1:2:0:0:
283,199,51406,1,0,1:0:0:0:
276,152,51486,6,0,L|212:144,1,47.5,0|0,1:0|0:0,0:0:0:0:
100,256,51644,2,0,L|164:248,1,47.5,0|0,1:2|2:1,2:1:0:0:
396,356,51803,6,0,L|376:208,1,113.999996520996,4|0,0:0|0:0,0:0:0:0:
268,64,52121,1,2,1:0:0:0:
220,220,52279,6,0,B|280:240|304:200|304:200|296:168,1,113.999996520996,4|0,0:0|0:0,0:0:0:0:
124,84,52597,1,2,1:0:0:0:
203,317,52756,6,0,B|143:337|119:297|119:297|127:265,1,113.999996520996,4|0,3:0|0:0,0:0:0:0:
299,181,53074,1,2,1:0:0:0:
384,264,53232,5,2,0:0:0:0:
420,68,53390,1,4,1:0:0:0:
208,212,53708,5,8,0:0:0:0:
179,175,53787,1,2,0:0:0:0:
132,166,53867,1,2,0:0:0:0:
90,186,53946,1,2,0:0:0:0:
72,230,54025,1,8,0:0:0:0:
90,274,54105,1,2,0:0:0:0:
127,304,54184,1,2,0:0:0:0:
173,315,54263,1,2,0:0:0:0:
221,306,54343,5,8,0:0:0:0:
260,278,54422,1,8,0:0:0:0:
307,266,54502,1,8,0:0:0:0:
356,268,54581,1,8,0:0:0:0:
400,287,54660,2,0,P|409:243|412:220,1,56.9999982604981,8|2,0:0|0:0,0:0:0:0:
320,144,54819,2,2,P|326:100|332:77,1,56.9999982604981
216,32,54978,5,2,0:0:0:0:
148,240,55136,1,0,0:0:0:0:
212,292,55454,6,0,P|135:319|64:208,1,190,4|0,0:0|0:0,0:0:0:0:
124,68,55930,1,8,0:0:0:0:
124,68,56089,1,0,0:0:0:0:
148,240,56248,1,2,0:0:0:0:
260,104,56406,1,0,0:0:0:0:
52,144,56565,1,8,0:0:0:0:
228,200,56724,6,0,P|312:180|432:176,1,190
512,312,57200,2,0,P|455:309|372:297,1,95,8|0,0:0|0:0,0:0:0:0:
292,144,57517,2,0,P|294:87|306:4,1,95,2|0,0:0|0:0,0:0:0:0:
415,174,57835,1,8,0:0:0:0:
208,324,57994,6,0,P|206:209|200:128,1,190
96,40,58470,1,8,0:0:0:0:
124,208,58629,1,0,0:0:0:0:
300,139,58787,1,2,0:0:0:0:
92,188,58946,1,0,0:0:0:0:
260,320,59105,1,8,0:0:0:0:
392,164,59263,6,0,P|340:148|276:136,1,95,0|2,0:0|0:0,0:0:0:0:
168,88,59581,1,0,0:0:0:0:
200,268,59740,2,0,P|252:252|316:240,1,95,8|0,0:0|0:0,0:0:0:0:
444,144,60057,1,2,0:0:0:0:
424,276,60216,1,0,0:0:0:0:
228,168,60375,1,8,0:0:0:0:
372,88,60533,6,0,P|364:144|340:288,1,190,4|0,0:0|0:0,0:0:0:0:
100,72,61009,2,0,P|91:118|86:165,1,95,8|0,0:0|0:0,0:0:0:0:
260,24,61327,2,0,P|269:70|275:117,1,95,2|0,0:0|0:0,0:0:0:0:
112,312,61644,2,0,P|158:300|204:291,1,95,8|0,0:0|0:0,0:0:0:0:
408,220,61962,5,2,0:0:0:0:
312,360,62121,1,0,0:0:0:0:
152,240,62279,2,0,P|161:193|172:147,1,95,8|0,0:0|0:0,0:0:0:0:
356,64,62597,1,2,0:0:0:0:
248,200,62756,1,0,0:0:0:0:
380,252,62914,2,0,P|426:242|472:230,1,95,8|0,0:0|0:0,0:0:0:0:
256,104,63232,5,2,0:0:0:0:
80,176,63390,1,2,0:0:0:0:
252,272,63549,1,8,0:0:0:0:
276,72,63708,1,0,0:0:0:0:
168,176,63867,5,2,0:0:0:0:
364,120,64025,1,0,0:0:0:0:
260,328,64184,1,8,0:0:0:0:
392,228,64343,6,0,P|392:152|384:100,1,95,4|0,0:0|0:0,0:0:0:0:
108,100,64660,1,8,0:0:0:0:
308,180,64819,1,8,0:0:0:0:
120,336,64978,1,8,0:0:0:0:
64,216,65136,1,0,1:0:0:0:
108,196,65215,1,0,1:0:0:0:
156,208,65294,1,0,1:2:0:0:
200,232,65374,1,0,1:0:0:0:
244,248,65453,1,0,1:0:0:0:
292,240,65532,1,0,1:0:0:0:
336,224,65613,6,0,P|356:156|368:96,1,95,4|0,0:0|0:0,0:0:0:0:
188,56,65930,1,0,0:0:0:0:
300,336,66089,2,0,P|252:330|205:328,1,95,8|0,0:0|0:0,0:0:0:0:
32,140,66406,2,0,P|79:134|126:132,1,95,2|0,0:0|0:0,0:0:0:0:
344,232,66724,1,8,0:0:0:0:
344,232,66803,1,0,0:0:0:0:
344,232,66883,6,0,P|367:185|258:96,1,190
144,228,67359,1,8,0:0:0:0:
148,80,67517,1,0,0:0:0:0:
292,172,67676,1,2,0:0:0:0:
80,148,67835,1,0,0:0:0:0:
276,292,67994,1,8,0:0:0:0:
276,292,68073,1,0,0:0:0:0:
276,292,68152,6,0,B|309:291|332:308|332:308|360:280|360:280|420:308|476:288,1,190,4|0,0:0|0:0,0:0:0:0:
412,100,68629,2,0,P|363:105|318:114,1,95,8|0,0:0|0:0,0:0:0:0:
124,360,68946,2,0,P|172:354|217:345,1,95,2|0,0:0|0:0,0:0:0:0:
384,208,69263,1,8,0:0:0:0:
356,212,69343,1,0,0:0:0:0:
328,216,69422,6,0,B|271:201|271:201|203:221|203:221|147:201,1,190,0|0,2:3|0:0,0:0:0:0:
328,36,69898,2,0,P|329:83|325:130,1,95,8|0,0:0|0:0,0:0:0:0:
188,264,70216,1,2,0:0:0:0:
356,228,70375,1,0,0:0:0:0:
192,104,70533,1,8,0:0:0:0:
344,340,70692,6,0,P|334:268|308:112,1,190,4|0,0:0|0:0,0:0:0:0:
164,88,71168,1,8,0:0:0:0:
204,272,71327,1,0,0:0:0:0:
368,200,71486,1,2,0:0:0:0:
196,288,71644,1,0,0:0:0:0:
56,164,71803,1,8,0:0:0:0:
188,304,71962,1,0,0:0:0:0:
188,304,72041,1,0,0:0:0:0:
188,304,72121,6,0,P|252:300|312:288,1,95,2|0,0:0|0:0,0:0:0:0:
432,76,72438,2,0,P|368:80|308:92,1,95,8|0,0:0|0:0,0:0:0:0:
228,224,72756,1,2,0:0:0:0:
124,100,72914,1,0,0:0:0:0:
336,192,73073,2,0,P|400:188|460:176,1,95,8|0,0:0|0:0,0:0:0:0:
204,48,73390,5,2,0:0:0:0:
228,224,73549,1,2,0:0:0:0:
376,112,73708,1,2,0:0:0:0:
216,248,73867,1,4,1:0:0:0:
96,116,74025,1,2,0:0:0:0:
280,136,74184,1,2,0:0:0:0:
124,296,74343,1,2,0:0:0:0:
328,212,74502,6,0,P|366:169|280:64,1,190,4|0,0:0|0:0,0:0:0:0:
164,216,74978,1,8,0:0:0:0:
96,108,75136,1,0,0:0:0:0:
272,252,75295,1,8,0:0:0:0:
324,244,75374,1,8,0:0:0:0:
376,236,75453,1,8,0:0:0:0:
428,228,75533,1,8,0:0:0:0:
480,224,75613,2,0,L|464:288,1,47.5,8|0,0:0|0:0,0:0:0:0:
216,320,75771,6,0,B|140:288|76:328|76:328|152:336,1,190,4|0,0:0|0:0,0:0:0:0:
324,244,76248,2,0,P|336:292|339:337,1,95,8|0,0:0|0:0,0:0:0:0:
128,364,76565,1,2,0:0:0:0:
128,180,76724,1,0,0:0:0:0:
308,264,76883,1,8,0:0:0:0:
156,328,77041,6,0,P|152:261|144:96,1,190,4|0,0:0|0:0,0:0:0:0:
288,92,77517,1,8,0:0:0:0:
260,292,77675,1,0,0:0:0:0:
416,240,77834,1,2,0:0:0:0:
248,312,77993,1,0,0:0:0:0:
384,136,78152,1,8,0:0:0:0:
384,136,78232,1,0,0:0:0:0:
384,136,78311,6,0,B|456:144|508:112|508:112|428:56,1,190,4|0,0:0|0:0,0:0:0:0:
252,52,78787,1,8,0:0:0:0:
152,208,78946,2,0,P|92:184|44:168,1,95,0|2,0:0|0:0,0:0:0:0:
240,76,79263,1,0,0:0:0:0:
320,296,79422,1,8,0:0:0:0:
320,296,79502,1,0,0:0:0:0:
320,296,79581,6,0,B|374:293|374:293|441:268|441:268|530:266,1,190
352,212,80057,1,10,0:0:0:0:
444,92,80216,1,0,0:0:0:0:
168,24,80375,1,8,0:0:0:0:
171,71,80454,1,0,1:0:0:0:
175,118,80533,1,0,1:0:0:0:
179,166,80613,1,0,1:0:0:0:
183,213,80692,2,0,L|255:195,1,47.5,2|0,1:0|0:0,0:0:0:0:
388,120,80851,6,0,P|320:104|256:100,1,95,4|0,0:0|0:0,0:0:0:0:
96,176,81168,1,0,0:0:0:0:
192,296,81327,2,0,P|260:280|324:276,1,95,8|0,0:0|0:0,0:0:0:0:
436,152,81644,1,2,0:0:0:0:
416,244,81803,1,0,0:0:0:0:
392,336,81962,1,8,0:0:0:0:
168,296,82121,6,0,P|174:248|186:203,1,95,4|0,0:0|0:0,0:0:0:0:
436,152,82438,2,0,P|390:138|343:129,1,95,0|8,0:0|0:0,0:0:0:0:
232,28,82756,1,0,0:0:0:0:
368,232,82914,1,2,0:0:0:0:
364,256,82993,1,0,1:0:0:0:
360,280,83072,1,0,1:2:0:0:
356,304,83152,1,2,1:0:0:0:
352,328,83232,2,0,L|280:312,1,47.5,2|0,1:0|0:0,0:0:0:0:
104,252,83390,6,0,P|180:256|240:196,1,142.500005435944,4|0,0:0|0:0,0:0:0:0:
136,96,83867,2,0,P|142:143|147:190,1,71.2500027179719
312,228,84184,2,0,P|307:192|303:157,1,71.2500027179719
104,88,84502,2,0,P|110:135|115:182,1,71.2500027179719
136,332,84819,5,8,0:0:0:0:
175,328,84898,1,2,0:0:0:0:
214,325,84977,1,2,0:0:0:0:
254,322,85057,1,2,0:0:0:0:
293,319,85136,1,2,0:0:0:0:
333,316,85215,1,2,0:0:0:0:
372,312,85295,6,0,P|375:255|228:256,1,237.5,4|0,0:0|0:0,0:0:0:0:
304,284,85771,6,0,B|280:204|280:204|356:152|340:88,1,170.999994781494,4|0,3:0|0:0,0:0:0:0:
240,104,86089,6,0,P|176:104|104:96,1,113.999996520996,6|0,0:0|0:0,0:0:0:0:
64,168,86406,2,0,P|31:157|-4:148,3,56.9999982604981,8|0|2|0,0:0|0:0|0:0|0:0,0:0:0:0:
88,260,86724,2,0,P|55:249|20:240,3,56.9999982604981,8|0|2|0,0:0|0:0|0:0|0:0,0:0:0:0:
96,356,87041,2,0,P|63:345|28:336,3,56.9999982604981,8|0|2|0,0:0|0:0|0:0|0:0,0:0:0:0:
224,340,87359,6,0,L|288:332,1,56.9999982604981,8|0,0:0|0:0,0:0:0:0:
440,248,87517,2,0,L|372:224,1,56.9999982604981,2|0,0:0|0:0,0:0:0:0:
232,176,87676,1,8,0:0:0:0:
240,148,87755,1,0,1:0:0:0:
248,121,87834,1,0,1:0:0:0:
257,94,87914,1,0,1:0:0:0:
265,67,87993,1,4,1:0:0:0:
456,124,88152,5,2,0:0:0:0:
372,252,88311,1,2,0:0:0:0:
272,40,88470,1,4,0:0:0:0:
