osu file format v14

[General]
AudioFilename: audio.mp3
AudioLeadIn: 0
PreviewTime: 49631
Countdown: 0
SampleSet: Soft
StackLeniency: 0.5
Mode: 0
LetterboxInBreaks: 0
WidescreenStoryboard: 1

[Editor]
Bookmarks: 56506,60256
DistanceSpacing: 1.6
BeatDivisor: 4
GridSize: 32
TimelineZoom: 2

[Metadata]
Title:Dream On!!
TitleUnicode:Dream On!!
Artist:BURNOUT SYNDROMES
ArtistUnicode:BURNOUT SYNDROMES
Creator:NexusQI
Version:Hard
Source:
Tags:HAIKYU!! TO THE TOP ハイキュー!! Haikyuu!! japanese anime rock jrock nexus syndromez tribute cut short version
BeatmapID:2437954
BeatmapSetID:1168449

[Difficulty]
HPDrainRate:4
CircleSize:3.6
OverallDifficulty:6.5
ApproachRate:8
SliderMultiplier:1.3
SliderTickRate:1

[Events]
//Background and Video events
0,0,"741752.png",0,0
//Break Periods
//Storyboard Layer 0 (Background)
//Storyboard Layer 1 (Fail)
//Storyboard Layer 2 (Pass)
//Storyboard Layer 3 (Foreground)
//Storyboard Layer 4 (Overlay)
//Storyboard Sound Samples

[TimingPoints]
406,312.5,4,2,1,60,1,0
2749,-111.111111111111,4,2,1,70,0,0
9312,-111.111111111111,4,2,1,70,0,0
10249,-133.333333333333,4,2,1,50,0,0
20249,-125,4,2,1,60,0,0
30406,-142.857142857143,4,2,3,55,0,0
35406,-142.857142857143,4,2,1,55,0,0
40406,-117.64705882353,4,2,1,65,0,0
50249,-99.9999999999999,4,2,1,80,0,1
69156,-99.9999999999999,4,2,1,80,0,0
75249,-95.2380952380952,4,2,1,80,0,1
82749,-95.2380952380952,4,2,1,80,0,0
87906,-294.117647058824,4,2,1,80,0,0
88218,-294.117647058824,4,2,1,75,0,0
88843,-294.117647058824,4,2,1,65,0,0
89468,-294.117647058824,4,2,1,55,0,0
90093,-294.117647058824,4,2,1,45,0,0
90718,-294.117647058824,4,2,1,35,0,0
91343,-294.117647058824,4,2,1,25,0,0
91968,-294.117647058824,4,2,1,15,0,0
92593,-294.117647058824,4,2,1,10,0,0
93218,-294.117647058824,4,2,1,5,0,0

[Colours]
Combo1 : 245,237,137
Combo2 : 255,160,66

[HitObjects]
256,192,406,12,4,1812,3:2:0:0:
246,318,2281,5,0,1:0:0:0:
246,318,2359,1,0,1:0:0:0:
246,318,2437,2,0,P|265:308|299:313,3,32.5,0|0|0|0,1:0|1:0|1:0|1:0,0:0:0:0:
313,337,2749,6,0,B|364:332|364:332|385:343|385:343|446:339,1,116.999996429443,6|2,3:2|3:2,0:0:0:0:
486,275,3218,2,0,P|498:235|485:199,1,58.4999982147217,2|0,1:2|0:0,0:0:0:0:
429,160,3531,2,0,P|417:120|430:80,1,58.4999982147217,2|0,3:2|3:0,0:0:0:0:
456,24,3843,1,2,1:2:0:0:
356,45,3999,6,0,B|226:49,1,116.999996429443,2|2,3:2|3:2,0:0:0:0:
167,3,4468,2,0,P|153:48|162:82,1,58.4999982147217,2|0,1:2|0:0,0:0:0:0:
209,126,4781,2,0,P|223:171|213:208,1,58.4999982147217,2|0,3:2|0:0,0:0:0:0:
185,275,5093,1,2,1:2:0:0:
289,248,5249,6,0,B|330:227|358:236|344:250|378:260|422:248,1,116.999996429443,2|2,3:2|3:2,0:0:0:0:
460,192,5718,2,0,P|481:224|479:263,1,58.4999982147217,2|0,1:2|0:0,0:0:0:0:
474,328,6031,2,0,L|393:335,1,58.4999982147217,2|0,3:2|3:0,0:0:0:0:
328,326,6343,1,2,1:2:0:0:
232,369,6499,6,0,B|97:357,1,116.999996429443,2|2,3:2|3:2,0:0:0:0:
50,298,6968,1,0,1:0:0:0:
104,229,7124,1,2,0:2:0:0:
45,162,7281,2,0,L|37:99,1,58.4999982147217,2|0,3:2|0:0,0:0:0:0:
3,27,7593,1,2,1:2:0:0:
107,44,7749,6,0,B|145:21|176:40|176:40|243:37,1,116.999996429443,2|0,3:2|1:0,0:0:0:0:
270,53,8140,1,0,1:0:0:0:
270,53,8218,1,2,1:2:0:0:
332,114,8374,1,8,3:0:0:0:
277,183,8531,2,0,L|285:255,2,58.4999982147217,8|0|0,3:0|0:0|0:0,0:0:0:0:
357,216,8999,6,0,P|399:196|452:208,1,87.7499973220826,0|0,1:0|0:0,0:0:0:0:
478,180,9312,2,0,L|482:104,1,58.4999982147217,2|0,0:0|3:0,0:0:0:0:
464,35,9624,2,0,P|432:25|399:31,1,58.4999982147217,2|2,0:2|1:2,0:0:0:0:
323,35,9937,1,2,3:2:0:0:
323,35,10249,6,0,B|203:42,1,97.50000371933,4|0,3:2|3:0,0:0:0:0:
156,82,10718,1,0,1:0:0:0:
278,162,11031,2,0,P|294:199|288:226,2,48.750001859665,2|2|0,3:2|3:2|1:0,0:0:0:0:
217,207,11499,2,0,B|170:192|170:192|105:206,1,97.50000371933,2|0,3:2|3:0,0:0:0:0:
80,270,11968,1,0,1:0:0:0:
66,121,12281,2,0,P|55:91|61:65,2,48.750001859665,2|2|0,3:2|3:2|1:0,0:0:0:0:
136,83,12749,6,0,B|176:77|176:77|202:87|202:87|252:80,1,97.50000371933,2|0,3:2|3:2,0:0:0:0:
288,27,13218,1,2,1:2:0:0:
288,27,13374,2,0,P|309:78|289:135,1,97.50000371933,2|0,0:0|3:0,0:0:0:0:
256,185,13843,1,2,1:2:0:0:
256,185,13999,2,0,P|235:236|254:281,1,97.50000371933,2|2,3:2|3:2,0:0:0:0:
306,335,14468,1,0,1:0:0:0:
427,225,14781,2,0,P|437:193|433:165,2,48.750001859665,2|2|0,3:2|3:2|1:0,0:0:0:0:
353,186,15249,6,0,B|243:184,1,97.50000371933,2|0,3:2|3:0,0:0:0:0:
194,136,15718,1,0,1:0:0:0:
79,63,16031,2,0,P|48:56|22:63,2,48.750001859665,2|2|0,3:2|3:2|1:0,0:0:0:0:
49,136,16499,2,0,B|67:165|67:165|50:250,1,97.50000371933,2|0,3:2|3:0,0:0:0:0:
27,303,16968,1,0,1:0:0:0:
179,332,17281,2,0,P|208:340|246:331,2,48.750001859665,2|2|0,3:2|3:2|1:0,0:0:0:0:
209,259,17749,6,0,L|195:142,1,97.50000371933,2|0,3:2|3:2,0:0:0:0:
223,85,18218,1,2,1:2:0:0:
223,85,18374,2,0,P|282:67|329:91,1,97.50000371933,2|0,0:0|3:0,0:0:0:0:
378,26,18843,1,2,1:2:0:0:
378,26,18999,2,0,P|397:64|395:89,1,48.750001859665,2|2,0:2|1:2,0:0:0:0:
364,140,19312,1,0,3:0:0:0:
432,176,19468,2,0,L|430:240,1,48.750001859665,0|0,1:0|3:0,0:0:0:0:
477,293,19781,1,2,1:2:0:0:
477,293,19937,1,2,1:2:0:0:
326,364,20249,6,0,B|205:360,1,104,4|0,3:2|3:0,0:0:0:0:
175,291,20718,2,0,P|148:281|108:287,1,52,2|0,1:3|0:0,0:0:0:0:
46,271,21031,1,2,3:2:0:0:
46,271,21187,2,0,L|39:195,1,52,2|2,3:2|1:3,0:0:0:0:
68,127,21499,6,0,B|110:121|110:121|136:133|136:133|186:129,1,104,2|0,3:2|3:0,0:0:0:0:
244,99,21968,2,0,P|252:136|244:171,1,52,2|0,1:3|0:0,0:0:0:0:
230,233,22281,1,2,3:2:0:0:
230,233,22437,2,0,L|297:227,1,52,2|2,3:2|1:3,0:0:0:0:
365,178,22749,6,0,B|386:214|386:214|370:299,1,104,2|0,3:2|3:2,0:0:0:0:
371,362,23218,1,2,1:2:0:0:
371,362,23374,2,0,B|327:358|327:358|305:371|305:371|254:370,1,104,2|0,0:0|3:0,0:0:0:0:
226,306,23843,1,2,1:2:0:0:
226,306,23999,2,0,B|171:286|171:286|109:298,1,104,2|2,3:2|3:2,0:0:0:0:
51,335,24468,1,2,1:3:0:0:
53,184,24781,1,2,3:2:0:0:
53,184,24937,2,0,L|45:119,1,52,2|2,3:2|1:3,0:0:0:0:
60,45,25249,6,0,P|107:32|170:74,1,104,2|0,3:2|3:0,0:0:0:0:
231,119,25718,1,2,1:2:0:0:
231,119,25874,2,0,B|262:100|293:107|278:121|306:127|348:118,1,104,2|0,0:2|3:0,0:0:0:0:
408,67,26343,1,2,1:2:0:0:
408,67,26499,2,0,B|428:105|428:105|413:187,1,104,2|0,3:2|3:0,0:0:0:0:
367,225,26968,1,2,1:3:0:0:
213,240,27281,1,2,3:2:0:0:
213,240,27437,2,0,P|205:271|216:311,1,52,2|2,3:2|1:3,0:0:0:0:
267,347,27749,6,0,B|319:325|319:325|385:336,1,104,2|0,3:2|3:0,0:0:0:0:
453,332,28218,1,2,1:2:0:0:
453,332,28374,2,0,L|451:205,1,104,2|0,0:2|3:0,0:0:0:0:
461,148,28843,1,2,1:2:0:0:
461,148,28999,2,0,P|405:123|355:144,1,104,2|0,3:2|3:0,0:0:0:0:
288,156,29468,1,0,1:0:0:0:
288,156,29624,1,0,3:0:0:0:
326,230,29781,2,0,L|324:322,2,78,8|8|8,3:0|3:0|3:0,0:0:0:0:
224,279,30406,6,0,B|178:297|178:297|120:287,1,90.9999972229005,6|0,3:2|0:0,0:0:0:0:
137,289,31031,2,0,B|119:243|119:243|129:185,1,90.9999972229005,2|0,3:2|0:0,0:0:0:0:
126,202,31656,2,0,B|172:184|172:184|230:194,1,90.9999972229005,2|0,3:2|0:0,0:0:0:0:
212,191,32281,2,0,B|230:237|230:237|220:295,1,90.9999972229005,2|0,3:2|0:0,0:0:0:0:
337,332,32906,6,0,L|444:324,1,90.9999972229005,2|2,3:2|0:0,0:0:0:0:
483,268,33374,1,2,3:0:0:0:
425,205,33531,2,0,P|414:176|416:142,1,45.4999986114502,2|0,3:2|0:0,0:0:0:0:
469,108,33843,2,0,P|475:77|467:48,1,45.4999986114502,2|0,0:0|0:0,0:0:0:0:
408,10,34156,5,2,3:2:0:0:
408,10,34312,1,2,3:0:0:0:
345,65,34468,2,0,L|285:66,1,45.4999986114502,2|0,0:0|0:0,0:0:0:0:
237,12,34781,2,0,L|178:27,1,45.4999986114502,2|2,3:2|3:0,0:0:0:0:
110,11,35093,2,0,L|65:45,1,45.4999986114502,2|0,3:0|0:0,0:0:0:0:
102,122,35406,6,0,B|109:229,1,90.9999972229005,2|2,3:2|3:0,0:0:0:0:
107,212,36031,2,0,B|214:205,1,90.9999972229005,2|2,3:2|3:0,0:0:0:0:
197,206,36656,2,0,B|190:99,1,90.9999972229005,2|2,3:2|3:0,0:0:0:0:
191,115,37281,2,0,B|84:122,1,90.9999972229005,2|2,3:2|3:0,0:0:0:0:
28,164,37749,1,8,3:0:0:0:
102,206,37906,6,0,B|114:311,1,90.9999972229005,2|2,3:2|3:0,0:0:0:0:
136,377,38374,1,8,3:0:0:0:
188,317,38531,2,0,P|238:292|289:299,1,90.9999972229005,2|2,3:2|3:0,0:0:0:0:
338,342,38999,1,8,3:0:0:0:
358,259,39156,6,0,L|367:196,1,45.4999986114502,2|0,3:2|0:0,0:0:0:0:
296,171,39468,2,0,L|288:107,1,45.4999986114502,2|0,3:0|0:0,0:0:0:0:
246,54,39781,2,0,P|281:39|303:39,1,45.4999986114502,2|8,3:2|3:0,0:0:0:0:
369,83,40093,1,2,1:2:0:0:
454,46,40249,1,0,1:0:0:0:
454,46,40327,1,0,1:0:0:0:
454,46,40406,6,0,L|463:127,1,55.2500010538101,4|0,3:2|0:0,0:0:0:0:
502,177,40718,2,0,L|496:304,1,110.50000210762,2|2,3:0|3:2,0:0:0:0:
445,364,41187,1,2,0:3:0:0:
386,296,41343,2,0,L|310:295,1,55.2500010538101,2|0,3:0|0:0,0:0:0:0:
236,265,41656,6,0,B|220:217|220:217|240:140,1,110.50000210762,2|2,3:2|3:0,0:0:0:0:
291,89,42124,1,0,0:0:0:0:
224,33,42281,2,0,P|190:14|109:34,1,110.50000210762,2|2,3:2|3:0,0:0:0:0:
62,89,42749,1,0,0:0:0:0:
129,146,42906,6,0,L|122:275,1,110.50000210762,2|2,3:2|3:2,0:0:0:0:
139,343,43374,1,0,1:0:0:0:
212,300,43531,2,0,L|285:295,1,55.2500010538101,2|0,3:2|0:0,0:0:0:0:
355,324,43843,2,0,L|359:258,1,55.2500010538101,2|0,3:2|1:0,0:0:0:0:
330,233,44077,1,0,1:0:0:0:
330,233,44156,6,0,L|327:106,1,110.50000210762,2|0,3:2|1:0,0:0:0:0:
320,38,44624,1,2,0:2:0:0:
320,38,44781,1,2,3:2:0:0:
247,88,44937,2,0,L|250:153,2,55.2500010538101,2|0|2,0:2|1:0|0:0,0:0:0:0:
155,18,45406,5,2,3:2:0:0:
91,78,45562,2,0,L|92:151,1,55.2500010538101,2|0,1:2|1:0,0:0:0:0:
116,222,45874,2,0,P|147:208|233:239,1,110.50000210762,2|2,3:2|1:2,0:0:0:0:
271,307,46343,1,2,3:2:0:0:
361,276,46499,6,0,L|400:275,3,27.6250005269051,0|0|0|0,1:2|1:0|1:0|1:0,0:0:0:0:
429,247,46812,1,0,3:2:0:0:
484,173,46968,2,0,L|488:133,3,27.6250005269051,2|0|0|0,1:2|1:0|1:0|1:0,0:0:0:0:
458,105,47281,2,0,L|454:65,3,27.6250005269051,2|0|0|0,1:2|1:0|3:0|3:0,0:0:0:0:
420,43,47593,2,0,B|380:29|380:29|317:46,1,82.8750015807152,0|0,1:0|0:0,0:0:0:0:
295,71,47906,5,2,3:2:0:0:
354,141,48062,2,0,L|344:271,1,110.50000210762,2|2,1:2|1:2,0:0:0:0:
223,363,48687,1,2,1:2:0:0:
177,219,48999,1,2,1:2:0:0:
94,176,49156,2,0,P|61:168|27:182,1,55.2500010538101,2|2,0:2|1:2,0:0:0:0:
8,264,49468,5,2,1:2:0:0:
8,264,49781,2,0,L|-1:133,1,110.50000210762,2|0,0:0|0:0,0:0:0:0:
15,57,50249,6,0,B|65:34|65:34|156:60,1,130,6|0,3:2|3:0,0:0:0:0:
204,100,50718,2,0,L|286:93,1,65,0|0,1:0|0:0,0:0:0:0:
326,25,51031,2,0,P|388:6|460:42,1,130,2|0,3:2|1:0,0:0:0:0:
454,135,51499,6,0,B|447:184|447:184|461:211|461:211|454:276,1,130,6|0,3:2|3:2,0:0:0:0:
362,229,51968,2,0,L|287:218,1,65,2|0,1:2|0:0,0:0:0:0:
232,280,52281,2,0,L|154:292,1,65,2|0,3:2|3:0,0:0:0:0:
102,358,52593,1,2,1:2:0:0:
49,269,52749,6,0,B|32:220|32:220|57:126,1,130,4|0,3:2|3:0,0:0:0:0:
94,56,53218,2,0,P|128:43|222:89,1,130,2|0,1:2|3:2,0:0:0:0:
160,148,53687,1,0,3:0:0:0:
219,218,53843,2,0,L|225:312,1,65,2|0,1:2|3:2,0:0:0:0:
207,370,54156,6,0,B|241:371|241:371|278:347|317:368,1,97.5,2|0,0:0|0:0,0:0:0:0:
342,384,54468,1,0,1:0:0:0:
341,278,54624,2,0,L|342:133,1,130,2|0,0:0|3:0,0:0:0:0:
273,95,55093,1,0,1:0:0:0:
352,21,55249,6,0,P|409:10|480:58,1,130,6|2,3:2|3:2,0:0:0:0:
481,129,55718,1,2,1:2:0:0:
481,129,55874,1,2,0:2:0:0:
431,207,56031,2,0,L|446:293,1,65,2|0,3:2|3:2,0:0:0:0:
491,353,56343,1,2,1:2:0:0:
370,363,56499,6,0,B|319:360|319:360|291:374|291:374|229:372,1,130,6|2,3:2|3:2,0:0:0:0:
154,339,56968,1,0,1:0:0:0:
219,268,57124,2,0,L|214:129,1,130,2|2,0:0|3:2,0:0:0:0:
163,62,57593,2,0,P|205:46|240:51,1,65,0|0,1:0|0:0,0:0:0:0:
330,69,57906,6,0,L|323:151,1,65,6|0,3:2|1:0,0:0:0:0:
332,183,58140,1,0,1:0:0:0:
332,183,58218,1,0,1:0:0:0:
380,252,58374,2,0,P|430:274|508:230,1,130,2|0,3:2|1:0,0:0:0:0:
504,154,58843,2,0,B|513:68|513:68|489:21,1,130,0|2,1:0|0:2,0:0:0:0:
414,86,59312,1,2,3:2:0:0:
319,57,59468,1,2,0:0:0:0:
319,57,59624,1,2,3:2:0:0:
280,155,59781,5,0,1:0:0:0:
280,155,59859,1,0,1:0:0:0:
280,155,59937,2,0,L|282:193,3,32.5,0|0|0|0,1:0|1:0|1:0|1:0,0:0:0:0:
271,229,60249,6,0,B|211:213|211:213|134:233,1,130,6|0,3:2|3:0,0:0:0:0:
62,290,60718,2,0,P|49:255|52:216,1,65,0|0,1:0|0:0,0:0:0:0:
50,139,61031,2,0,B|29:47|29:47|44:-7,1,130,2|0,3:2|1:0,0:0:0:0:
140,50,61499,6,0,B|287:41,1,130,6|0,3:2|3:2,0:0:0:0:
340,89,61968,2,0,L|335:173,1,65,2|0,1:2|0:0,0:0:0:0:
258,197,62281,2,0,L|253:276,1,65,2|0,3:2|3:0,0:0:0:0:
201,339,62593,1,2,1:2:0:0:
317,327,62749,6,0,L|454:314,1,130,4|0,3:2|3:0,0:0:0:0:
506,241,63218,2,0,B|478:191|478:191|492:114,1,130,2|0,1:2|3:2,0:0:0:0:
505,31,63687,1,0,3:0:0:0:
407,79,63843,2,0,B|325:78,1,65,2|0,1:2|3:2,0:0:0:0:
256,36,64156,6,0,B|237:76|237:76|264:162,1,130,2|0,0:0|1:0,0:0:0:0:
353,225,64624,2,0,B|374:299|374:299|345:369,1,130,2|0,0:0|3:0,0:0:0:0:
259,317,65093,1,0,1:0:0:0:
159,367,65249,6,0,B|94:382|94:382|28:349,1,130,6|2,3:2|3:2,0:0:0:0:
16,262,65718,1,2,1:2:0:0:
16,262,65874,1,2,0:0:0:0:
72,181,66031,2,0,P|82:145|66:99,1,65,2|0,3:2|3:2,0:0:0:0:
28,36,66343,1,2,1:2:0:0:
155,60,66499,6,0,B|204:55|204:55|232:71|232:71|296:69,1,130,6|2,3:2|3:2,0:0:0:0:
355,4,66968,1,0,1:0:0:0:
410,87,67124,2,0,B|427:124|427:124|405:228,1,130,2|2,0:0|3:2,0:0:0:0:
334,267,67593,2,0,L|230:258,1,97.5,0|0,1:0|0:0,0:0:0:0:
205,225,67906,6,0,P|155:229|126:257,1,65,6|0,3:2|1:0,0:0:0:0:
132,277,68140,1,0,1:0:0:0:
132,277,68218,1,0,1:0:0:0:
184,359,68374,2,0,L|331:352,1,130,2|0,3:2|1:0,0:0:0:0:
402,371,68843,2,0,P|443:376|486:362,1,65,0|0,1:0|0:0,0:0:0:0:
468,281,69156,1,2,0:2:0:0:
468,281,69312,1,2,3:2:0:0:
404,201,69468,2,0,L|400:129,1,65,2|2,0:2|3:2,0:0:0:0:
334,81,69781,5,0,1:0:0:0:
334,81,69859,1,0,1:0:0:0:
334,81,69937,2,0,P|317:73|287:84,3,32.5,0|0|0|0,1:0|1:0|1:0|1:0,0:0:0:0:
278,110,70249,6,0,L|277:244,1,130,6|2,3:2|3:2,0:0:0:0:
271,328,70718,2,0,P|224:341|186:335,1,65,2|0,1:2|0:0,0:0:0:0:
163,263,71031,2,0,P|122:255|85:274,1,65,2|0,3:2|3:0,0:0:0:0:
44,335,71343,1,2,1:2:0:0:
34,216,71499,6,0,L|24:78,1,130,2|2,3:2|3:2,0:0:0:0:
65,11,71968,2,0,P|96:-1|148:7,1,65,2|2,1:2|0:0,0:0:0:0:
201,49,72281,2,0,L|196:134,1,65,2|2,3:2|3:2,0:0:0:0:
151,187,72593,1,2,1:2:0:0:
262,164,72749,6,0,B|411:150,1,130,6|2,3:2|3:2,0:0:0:0:
457,95,73218,2,0,P|475:125|468:183,1,65,2|0,1:2|0:0,0:0:0:0:
428,246,73531,1,2,3:2:0:0:
428,246,73687,1,2,3:2:0:0:
481,319,73843,1,2,1:2:0:0:
374,371,73999,6,0,B|236:366,1,130,2|0,3:2|3:0,0:0:0:0:
172,311,74468,2,0,L|162:223,1,65,2|0,1:2|0:0,0:0:0:0:
203,166,74781,1,2,1:2:0:0:
126,111,74937,2,0,L|118:61,3,32.5,0|0|0|0,1:0|1:0|1:0|1:0,0:0:0:0:
94,39,75249,6,0,B|143:17|143:17|237:39,1,136.499995834351,6|0,3:2|3:0,0:0:0:0:
285,99,75718,2,0,L|369:89,1,68.2499979171754,2|0,1:2|3:0,0:0:0:0:
414,22,76031,2,0,L|503:34,1,68.2499979171754,2|0,1:2|3:0,0:0:0:0:
511,120,76343,1,2,1:2:0:0:
511,120,76499,1,0,3:0:0:0:
452,196,76656,6,0,P|441:232|458:279,1,68.2499979171754,2|0,1:2|3:0,0:0:0:0:
482,349,76968,2,0,L|390:344,1,68.2499979171754,2|0,1:2|0:0,0:0:0:0:
335,303,77281,1,2,1:2:0:0:
335,303,77437,1,0,3:0:0:0:
253,357,77593,2,0,L|164:352,1,68.2499979171754,2|0,1:2|3:0,0:0:0:0:
140,267,77906,6,0,P|128:230|136:192,1,68.2499979171754,4|0,1:2|0:0,0:0:0:0:
222,184,78218,2,0,L|301:177,1,68.2499979171754,2|0,1:2|0:0,0:0:0:0:
358,130,78531,2,0,L|449:121,1,68.2499979171754,2|0,1:2|3:0,0:0:0:0:
488,58,78843,1,2,1:2:0:0:
488,58,78999,1,0,3:0:0:0:
392,31,79156,6,0,L|303:28,1,68.2499979171754,2|0,1:2|3:0,0:0:0:0:
240,74,79468,2,0,L|141:70,1,68.2499979171754,2|0,1:2|0:0,0:0:0:0:
86,32,79781,2,0,P|73:68|102:139,1,102.374996875763,2|0,1:2|0:0,0:0:0:0:
112,160,80093,2,0,L|105:254,1,68.2499979171754,2|0,1:2|3:0,0:0:0:0:
76,342,80406,6,0,P|106:316|202:333,1,136.499995834351,4|2,1:2|1:2,0:0:0:0:
263,382,80874,1,0,0:0:0:0:
320,301,81031,2,0,L|308:213,1,68.2499979171754,2|0,1:2|3:0,0:0:0:0:
261,171,81343,1,2,1:2:0:0:
261,171,81499,1,0,3:0:0:0:
366,133,81656,6,0,L|457:132,1,68.2499979171754,2|0,1:2|0:0,0:0:0:0:
500,200,81968,2,0,P|510:240|498:289,1,68.2499979171754,2|0,1:2|0:0,0:0:0:0:
438,333,82281,1,2,1:2:0:0:
334,302,82437,5,0,1:0:0:0:
366,133,82749,5,6,3:2:0:0:
252,207,83062,1,0,3:0:0:0:
252,207,83218,2,0,L|165:213,1,68.2499979171754,2|0,3:2|0:0,0:0:0:0:
98,183,83531,6,0,P|81:142|99:92,1,68.2499979171754,2|0,1:2|1:0,0:0:0:0:
99,76,83765,1,0,1:0:0:0:
99,76,83843,1,0,1:0:0:0:
185,87,83999,5,2,3:2:0:0:
327,32,84312,1,0,3:0:0:0:
327,32,84468,2,0,L|313:128,1,68.2499979171754,2|0,3:2|0:0,0:0:0:0:
243,161,84781,2,0,L|259:242,2,68.2499979171754,2|0|0,1:2|1:0|1:0,0:0:0:0:
185,87,85249,5,2,3:2:0:0:
175,251,85562,1,0,3:0:0:0:
175,251,85718,2,0,L|184:324,1,68.2499979171754,2|0,3:2|0:0,0:0:0:0:
270,363,86031,2,0,L|322:362,3,34.1249989585877,2|0|0|0,1:2|1:0|1:0|1:0,0:0:0:0:
337,328,86343,1,2,1:2:0:0:
303,235,86499,5,0,3:2:0:0:
405,113,86812,1,0,3:2:0:0:
405,113,86968,2,0,P|361:98|322:102,1,68.2499979171754,2|0,3:2|0:0,0:0:0:0:
243,122,87281,2,0,L|247:170,3,34.1249989585877,2|0|0|0,1:2|1:0|1:0|1:0,0:0:0:0:
215,196,87593,2,0,L|220:249,3,34.1249989585877,0|0|0|0,1:0|1:0|1:0|1:0,0:0:0:0:
202,269,87906,1,6,3:2:0:0:
256,192,87984,12,0,94468,0:0:0:0:
