osu file format v14

[General]
AudioFilename: audio.mp3
AudioLeadIn: 0
PreviewTime: 37630
Countdown: 0
SampleSet: Normal
StackLeniency: 0.7
Mode: 0
LetterboxInBreaks: 0
WidescreenStoryboard: 1

[Editor]
DistanceSpacing: 2
BeatDivisor: 2
GridSize: 8
TimelineZoom: 1

[Metadata]
Title:Young Hearts (BUNT. Remix)
TitleUnicode:Young Hearts (BUNT. Remix)
Artist:BUNT. ft. BEGINNERS
ArtistUnicode:BUNT. ft. BEGINNERS
Creator:Hakito007
Version:Normal
Source:
Tags:remix bunt young hearts beginners electronic electro dance trumpet piano proximity synth
BeatmapID:1413112
BeatmapSetID:667004

[Difficulty]
HPDrainRate:4
CircleSize:3
OverallDifficulty:4
ApproachRate:4
SliderMultiplier:0.999999999999999
SliderTickRate:2

[Events]
//Background and Video events
0,0,"Young Hearts background.png",0,0
//Break Periods
//Storyboard Layer 0 (Background)
//Storyboard Layer 1 (Fail)
//Storyboard Layer 2 (Pass)
//Storyboard Layer 3 (Foreground)
//Storyboard Sound Samples

[TimingPoints]
1429,476.190476190476,4,1,0,90,1,0
45238,-100,4,1,0,90,0,1
73809,-100,4,1,0,90,0,0

[Colours]
Combo1 : 196,230,255
Combo2 : 242,196,247
Combo3 : 210,219,255
Combo4 : 255,196,197

[HitObjects]
256,192,12858,12,4,14286,0:0:0:0:
160,160,14763,6,0,B|160:96|224:96,1,99.9999999999999
288,96,15715,2,0,B|352:96|352:160,1,99.9999999999999
352,224,16667,2,0,B|352:288|288:288,1,99.9999999999999
224,288,17620,2,0,B|160:288|160:224,1,99.9999999999999
160,160,18572,6,0,P|160:112|192:64,1,99.9999999999999
231,37,19524,1,0,0:0:0:0:
289,30,20001,1,0,0:0:0:0:
308,104,20477,6,0,P|245:121|237:162,1,99.9999999999999
238,205,21429,1,0,0:0:0:0:
262,256,21905,1,0,0:0:0:0:
295,303,22382,6,4,B|325:288|378:203|306:147|177:152|131:171,1,300
102,233,24167,2,0,B|70:220|19:132|85:62|176:83|272:96,1,325
320,128,26190,5,8,0:0:0:0:
256,160,26667,1,8,0:0:0:0:
336,192,27144,1,8,0:0:0:0:
240,224,27620,1,8,0:0:0:0:
352,256,28096,1,8,0:0:0:0:
224,288,28572,1,8,0:0:0:0:
368,320,29048,1,8,0:0:0:0:
304,336,29286,1,8,0:0:0:0:
240,352,29524,1,8,0:0:0:0:
32,288,30001,6,4,B|176:-64|176:224|256:456|336:224|336:-64|480:288,1,699.999999999999,4|4,3:1|3:2,3:1:0:0:
448,304,33810,6,4,B|256:336|22:192|256:-32|490:192|256:336|64:304,1,699.999999999999,4|4,3:1|3:2,3:1:0:0:
61,159,37620,6,4,B|62:212|92:255|91:255,1,99.9999999999999,4|4,3:1|3:2,3:1:0:0:
146,179,38572,2,4,P|189:242|247:274,1,99.9999999999999,4|4,3:1|3:2,3:1:0:0:
223,156,39524,2,4,P|279:199|338:212,1,99.9999999999999,4|4,3:1|3:2,3:1:0:0:
283,103,40477,2,4,P|361:128|413:109,1,99.9999999999999,4|4,3:1|3:2,3:1:0:0:
452,81,41429,6,4,L|493:50,7,50,4|4|4|4|4|4|4|4,3:2|3:2|3:2|3:2|3:2|3:2|3:2|3:2,3:2:0:0:
256,192,43334,12,4,44763,0:0:0:0:
385,45,45239,6,0,P|337:61|321:93,1,83.3333333333333
389,115,45874,2,0,P|367:151|334:158,1,66.6666666666666
285,178,46429,2,0,P|250:201|241:228,1,50
248,251,46905,2,0,P|263:270|286:280,1,50
372,280,47382,5,0,0:0:0:0:
405,266,47501,1,0,0:0:0:0:
434,192,47739,2,0,B|427:169|362:168,1,74.9999999999999
292,145,48334,2,0,P|271:121|267:82,1,50
222,45,48810,2,0,P|189:30|167:41,1,50
83,95,49405,5,0,0:0:0:0:
71,142,49644,1,0,0:0:0:0:
112,214,50001,2,0,L|145:277,1,50
208,259,50477,2,0,L|231:214,1,50
279,113,50953,5,4,3:2:0:0:
87,40,51429,1,4,3:2:0:0:
146,223,51905,1,4,3:2:0:0:
203,36,52382,1,4,3:2:0:0:
143,101,52858,6,0,P|159:149|191:165,1,83.3333333333333
213,97,53493,2,0,P|249:119|256:152,1,66.6666666666666
276,201,54048,2,0,P|299:236|326:245,1,50
349,238,54524,2,0,P|368:223|378:200,1,50
378,114,55001,5,0,0:0:0:0:
364,81,55120,1,0,0:0:0:0:
290,52,55358,2,0,B|267:59|266:124,1,74.9999999999999
243,194,55953,2,0,P|219:215|180:219,1,50
136,237,56429,1,0,0:0:0:0:
49,204,56667,5,0,0:0:0:0:
117,112,57024,1,0,0:0:0:0:
148,76,57263,1,0,0:0:0:0:
256,79,57620,5,0,0:0:0:0:
189,166,57977,1,0,0:0:0:0:
158,202,58215,1,0,0:0:0:0:
126,307,58572,5,4,3:2:0:0:
126,307,59048,1,4,3:2:0:0:
126,307,59524,1,4,3:2:0:0:
231,308,60001,5,4,3:2:0:0:
247,301,60120,1,4,3:2:0:0:
262,293,60239,1,4,3:2:0:0:
277,284,60358,1,4,3:2:0:0:
292,276,60477,1,4,3:2:0:0:
373,187,60953,6,0,L|350:156,3,25
349,151,61429,5,4,3:2:0:0:
349,151,61667,1,4,3:2:0:0:
251,154,61905,6,0,L|236:174,3,25
227,190,62381,5,4,3:2:0:0:
227,190,62619,1,4,3:2:0:0:
125,188,62858,6,0,L|102:157,3,25
101,152,63334,5,4,3:2:0:0:
101,152,63572,1,4,3:2:0:0:
51,68,63810,6,0,L|77:41,3,25
112,26,64286,6,0,L|139:23,3,25,4|0|0|0,3:2|0:0|0:0|0:0,0:0:0:0:
186,32,64763,6,0,L|225:46,3,25,4|0|0|0,3:2|0:0|0:0|0:0,0:0:0:0:
253,64,65239,6,0,L|280:94,3,25,4|0|0|0,3:2|0:0|0:0|0:0,0:0:0:0:
296,124,65715,6,0,L|311:163,3,25,4|0|0|0,3:2|0:0|0:0|0:0,0:0:0:0:
315,196,66191,6,0,L|309:227,3,25
296,268,66667,6,0,L|274:301,3,25
242,319,67144,6,0,L|207:333,3,25
169,332,67620,6,0,L|137:320,3,25
106,302,68096,5,0,0:0:0:0:
51,225,68334,6,0,L|41:196,3,16.6666666666667
67,111,68810,2,0,L|77:86,3,16.6666666666667
155,39,69286,2,0,L|171:33,3,16.6666666666667
268,53,69763,2,0,L|294:65,3,16.6666666666667
360,123,70239,2,0,L|368:140,3,16.6666666666667
385,236,70715,2,0,L|383:260,8,16.6666666666667
383,269,71429,5,0,0:0:0:0:
112,192,71905,5,0,0:0:0:0:
256,48,72382,1,0,0:0:0:0:
400,192,72858,1,0,0:0:0:0:
256,336,73334,1,0,0:0:0:0:
256,192,73810,12,4,75655,2:0:0:0:
