osu file format v14

[General]
AudioFilename: audio.mp3
AudioLeadIn: 0
PreviewTime: 144579
Countdown: 0
SampleSet: Soft
StackLeniency: 0.4
Mode: 0
LetterboxInBreaks: 0
WidescreenStoryboard: 1

[Editor]
Bookmarks: 8232,14124,25908,37692,49476,55368,61261,67153,73045,78937,96613,108397,114289,120182,145223,157007,162899,180576,186468,192360,198252,204144,210036,215928
DistanceSpacing: 1
BeatDivisor: 4
GridSize: 4
TimelineZoom: 1.4

[Metadata]
Title:Shinsekai
TitleUnicode:新世界
Artist:BUMP OF CHICKEN
ArtistUnicode:BUMP OF CHICKEN
Creator:Ascended
Version:Normal
Source:ベイビーアイラブユーだぜ
Tags:Baby I Love You Daze Aurora Arc japanese pop jpop j-pop advertisement commercial chocolate LOTTE ロッテ Ghana 藤原基央 motoo fujiwara バンプ・オブ・チキン MOR New World male vocalist vocals Mononymous
BeatmapID:3729096
BeatmapSetID:1817020

[Difficulty]
HPDrainRate:4
CircleSize:3.5
OverallDifficulty:4
ApproachRate:5.5
SliderMultiplier:1.1
SliderTickRate:1

[Events]
//Background and Video events
0,0,"3 am mapping be like.jpg",0,0
Video,-250,"the speedmapping method.mp4"
//Break Periods
2,73245,77812
//Storyboard Layer 0 (Background)
//Storyboard Layer 1 (Fail)
//Storyboard Layer 2 (Pass)
//Storyboard Layer 3 (Foreground)
//Storyboard Layer 4 (Overlay)
//Storyboard Sound Samples

[TimingPoints]
-606,368.256306389247,4,2,1,75,1,0
8232,-111.111111111111,4,2,1,65,0,0
25908,-100,4,2,1,70,0,0
37692,-100,4,2,1,75,0,0
38060,-90.9090909090909,4,2,1,75,0,0
49845,-100,4,2,1,75,0,0
55368,-90.9090909090909,4,2,1,75,0,0
61261,-100,4,2,1,75,0,0
72677,-111.111111111111,4,2,1,75,0,0
73045,-111.111111111111,4,2,1,60,0,0
78937,-100,4,2,1,65,0,0
96613,-100,4,2,1,70,0,0
96981,-90.9090909090908,4,2,1,70,0,0
108766,-100,4,2,1,70,0,0
114289,-90.9090909090909,4,2,1,70,0,0
120182,-111.111111111111,4,2,1,60,0,0
131966,-111.111111111111,4,2,1,65,0,0
133255,-100,4,2,1,65,0,0
143750,-100,4,2,1,35,0,0
144118,-100,4,2,1,45,0,0
144486,-100,4,2,1,55,0,0
144855,-100,4,2,1,65,0,0
145223,-90.9090909090908,4,2,1,75,0,0
157375,-100,4,2,1,75,0,0
162899,-90.9090909090908,4,2,1,75,0,0
180576,-90.9090909090908,4,2,1,70,0,0
180944,-100,4,2,1,70,0,0
186468,-90.9090909090909,4,2,1,70,0,0
192360,-100,4,2,1,65,0,0
204144,-100,4,2,1,60,0,0
215928,-100,4,2,1,30,0,0

[Colours]
Combo1 : 240,140,140
Combo2 : 200,180,220
Combo3 : 240,200,155
Combo4 : 150,185,220

[HitObjects]
217,378,867,6,0,P|136:356|55:342,1,165,6|0,2:2|0:0,0:0:0:0:
1,329,1603,2,0,P|21:248|35:167,1,165,6|0,2:2|0:0,0:0:0:0:
44,113,2340,1,6,2:2:0:0:
295,16,3813,6,0,P|374:36|455:50,1,165,6|0,2:2|0:0,0:0:0:0:
510,64,4549,2,0,P|488:143|474:224,1,165,6|0,2:2|0:0,0:0:0:0:
467,280,5286,1,6,2:2:0:0:
256,192,5378,12,0,7495,0:0:0:0:
326,56,8232,6,0,P|350:61|375:66,2,49.4999984893799,6|2|8,3:2|2:2|2:2,0:0:0:0:
297,16,8784,2,0,P|252:25|232:75,1,98.9999969787599,2|2,3:2|2:2,0:0:0:0:
204,111,9336,1,8,2:2:0:0:
204,111,9521,2,0,P|156:98|107:90,1,98.9999969787599,2|2,3:2|3:2,0:0:0:0:
26,143,10257,1,0,3:3:0:0:
26,143,10441,2,0,P|29:167|36:191,1,49.4999984893799,2|0,2:2|3:3,0:0:0:0:
46,239,10809,1,8,2:2:0:0:
96,325,11178,6,0,P|89:348|85:372,2,49.4999984893799,2|2|8,3:2|2:2|2:2,0:0:0:0:
130,289,11730,2,0,P|174:298|195:348,1,98.9999969787599,2|2,3:2|2:2,0:0:0:0:
238,377,12282,1,8,2:2:0:0:
238,377,12467,2,0,P|285:364|334:355,1,98.9999969787599,2|2,3:2|3:2,0:0:0:0:
424,315,13203,2,0,P|427:290|434:266,1,49.4999984893799,0|2,3:3|2:2,0:0:0:0:
468,225,13571,5,8,3:1:0:0:
459,177,13755,1,8,2:1:0:0:
362,199,14124,6,0,P|313:186|264:177,1,98.9999969787599,6|8,3:2|2:2,0:0:0:0:
233,216,14676,1,2,3:2:0:0:
233,216,14860,2,0,P|184:203|135:194,1,98.9999969787599,2|8,3:2|2:2,0:0:0:0:
52,141,15597,1,2,2:2:0:0:
110,61,15965,2,0,P|105:36|99:12,2,49.4999984893799,10|2|2,2:2|3:2|2:2,0:0:0:0:
198,105,16702,1,10,2:2:0:0:
283,55,17070,6,0,P|332:76|345:124,1,98.9999969787599,2|8,3:2|2:2,0:0:0:0:
391,157,17622,1,2,3:2:0:0:
391,157,17806,2,0,P|419:149|449:144,2,49.4999984893799,2|2|10,3:2|2:2|2:2,0:0:0:0:
323,229,18543,2,0,P|330:257|335:287,1,49.4999984893799,2|0,2:2|3:3,0:0:0:0:
345,324,18911,1,10,2:2:0:0:
247,315,19279,2,0,B|215:276|215:276|232:215,1,98.9999969787599,2|10,2:2|2:2,0:0:0:0:
280,144,20016,6,0,P|327:131|376:122,1,98.9999969787599,2|8,3:2|2:2,0:0:0:0:
404,84,20568,1,2,3:2:0:0:
404,84,20752,2,0,P|451:71|500:62,1,98.9999969787599,2|8,3:2|2:2,0:0:0:0:
480,159,21489,1,2,2:2:0:0:
455,254,21857,2,0,P|448:277|444:301,2,49.4999984893799,10|2|2,2:2|3:2|2:2,0:0:0:0:
360,283,22594,1,10,2:2:0:0:
266,251,22962,6,0,P|216:272|203:320,2,98.9999969787599,2|8|2,3:2|2:2|3:2,0:0:0:0:
342,187,24067,1,10,2:2:0:0:
342,187,24251,2,0,P|332:137|320:89,1,98.9999969787599,2|0,3:2|3:3,0:0:0:0:
304,44,24803,1,10,2:2:0:0:
209,73,25171,2,0,P|184:66|160:62,2,49.4999984893799,2|0|10,2:2|3:3|2:2,0:0:0:0:
165,174,25908,6,0,P|115:183|51:198,1,110,6|8,3:2|2:2,0:0:0:0:
31,246,26460,1,2,3:2:0:0:
31,246,26644,2,0,P|35:270|42:303,1,55,2|2,3:2|2:2,0:0:0:0:
52,354,27013,1,8,2:2:0:0:
152,310,27381,1,2,2:2:0:0:
251,356,27749,2,0,P|275:360|306:367,2,55,10|2|2,2:2|3:2|2:2,0:0:0:0:
276,248,28486,2,0,P|281:224|287:191,1,55,10|2,2:2|3:2,0:0:0:0:
312,145,28854,6,0,P|375:187|382:222,1,110,2|8,3:2|2:2,0:0:0:0:
385,275,29406,1,2,3:2:0:0:
385,275,29591,2,0,P|379:298|374:328,2,55,2|2|10,3:2|2:2|2:2,0:0:0:0:
488,236,30327,1,2,2:2:0:0:
475,126,30695,1,10,2:2:0:0:
458,21,31064,1,2,2:2:0:0:
458,21,31248,2,0,P|426:27|403:32,1,55,0|10,3:3|2:2,0:0:0:0:
305,80,31800,6,0,P|363:108|368:152,1,110,2|8,3:2|2:2,0:0:0:0:
404,197,32352,1,2,3:2:0:0:
404,197,32537,2,0,P|393:224|368:230,1,55,2|2,3:2|2:2,0:0:0:0:
315,228,32905,1,8,2:2:0:0:
239,308,33273,1,2,2:2:0:0:
129,297,33641,2,0,P|133:321|140:352,2,55,10|2|2,2:2|3:2|2:2,0:0:0:0:
41,229,34378,2,0,P|46:205|52:172,1,55,10|2,2:2|3:2,0:0:0:0:
59,120,34746,5,2,3:2:0:0:
154,175,35114,1,8,2:2:0:0:
234,100,35483,2,0,P|228:76|223:46,2,55,2|2|10,3:2|2:2|2:2,0:0:0:0:
285,119,36035,2,0,P|350:130|373:184,1,110,2|0,3:2|3:3,0:0:0:0:
417,195,36587,2,0,P|412:222|405:248,1,55,10|2,2:2|3:2,0:0:0:0:
419,302,36956,1,2,2:2:0:0:
321,353,37324,2,0,P|293:348|267:341,1,55,10|2,2:2|3:2,0:0:0:0:
207,332,37692,5,6,3:2:0:0:
280,236,38060,2,0,P|272:207|267:177,1,60.5000018463135,10|2,2:2|3:2,0:0:0:0:
255,117,38429,2,0,P|196:131|136:141,1,121.000003692627,2|10,3:2|2:2,0:0:0:0:
77,151,38981,1,2,3:2:0:0:
77,151,39165,5,2,2:2:0:0:
8,250,39533,2,0,P|15:278|20:308,1,60.5000018463135,10|2,2:2|3:2,0:0:0:0:
33,369,39902,2,0,P|91:354|151:344,1,121.000003692627,2|10,2:2|2:2,0:0:0:0:
211,335,40454,1,2,3:2:0:0:
211,335,40638,5,2,3:2:0:0:
329,357,41006,2,0,P|333:327|341:297,1,60.5000018463135,10|2,2:2|3:2,0:0:0:0:
354,238,41375,1,2,3:2:0:0:
262,158,41743,1,10,2:2:0:0:
345,70,42111,6,0,B|405:70|405:70|458:31,2,121.000003692627,2|10|2,2:2|2:2|2:2,0:0:0:0:
298,30,43032,1,8,3:1:0:0:
237,33,43216,1,8,2:1:0:0:
150,117,43584,6,0,P|210:136|227:193,1,121.000003692627,2|10,3:2|2:2,0:0:0:0:
218,250,44137,1,2,3:2:0:0:
218,250,44321,2,0,P|277:259|336:274,1,121.000003692627,2|8,3:2|2:2,0:0:0:0:
354,336,44873,1,2,3:2:0:0:
354,336,45057,5,2,2:2:0:0:
467,294,45426,2,0,P|459:264|454:234,1,60.5000018463135,10|2,2:2|3:2,0:0:0:0:
445,177,45794,2,0,P|452:147|457:117,2,60.5000018463135,2|0|10,2:2|3:3|2:2,0:0:0:0:
324,184,46530,6,0,P|256:163|252:112,1,121.000003692627,2|10,3:2|2:2,0:0:0:0:
282,70,47083,1,2,3:2:0:0:
282,70,47267,1,2,3:2:0:0:
176,11,47635,1,10,2:2:0:0:
122,119,48003,6,0,B|62:119|62:119|9:80,2,121.000003692627,2|8|2,2:2|2:2|2:2,0:0:0:0:
158,167,48924,1,8,3:1:0:0:
134,222,49108,1,8,2:1:0:0:
163,327,49476,5,4,3:2:0:0:
66,380,49845,2,0,P|14:352|9:302,2,110,10|2|10,2:2|3:2|2:2,0:0:0:0:
163,327,50949,5,2,2:2:0:0:
269,300,51318,1,10,2:2:0:0:
374,268,51686,2,0,L|426:289,1,55,2|0,2:2|3:3,0:0:0:0:
477,304,52054,1,10,2:2:0:0:
511,199,52422,5,0,3:3:0:0:
433,120,52791,2,0,P|461:68|511:63,2,110,10|2|10,2:2|3:2|2:2,0:0:0:0:
367,208,53895,5,2,2:2:0:0:
258,228,54264,1,10,2:2:0:0:
150,249,54632,2,0,L|97:232,1,55,2|0,2:2|3:3,0:0:0:0:
43,220,55000,1,10,2:2:0:0:
8,104,55368,6,0,P|17:52|85:33,1,121.000003692627,6|10,3:2|2:2,0:0:0:0:
124,75,55921,1,2,3:2:0:0:
124,75,56105,1,2,3:2:0:0:
227,11,56473,2,0,P|256:18|286:23,1,60.5000018463135,10|2,2:2|3:2,0:0:0:0:
320,72,56841,6,0,P|312:101|307:131,1,60.5000018463135,2|2,2:2|3:2,0:0:0:0:
263,170,57210,2,0,P|270:199|275:229,2,60.5000018463135,10|2|2,2:2|3:2|2:2,0:0:0:0:
381,196,57946,2,0,P|410:203|440:208,1,60.5000018463135,10|2,2:2|3:2,0:0:0:0:
495,183,58315,6,0,P|510:133|464:89,1,121.000003692627,2|10,3:2|2:2,0:0:0:0:
404,95,58867,1,2,3:2:0:0:
404,95,59051,1,2,3:2:0:0:
300,32,59419,2,0,P|270:39|240:44,1,60.5000018463135,10|2,2:2|3:2,0:0:0:0:
195,85,59788,6,0,B|176:144|176:144|210:196,2,121.000003692627,2|8|2,2:2|2:2|2:2,0:0:0:0:
154,39,60708,1,8,2:1:0:0:
94,51,60892,1,8,2:1:0:0:
12,125,61261,6,0,P|24:189|32:239,1,110,4|8,3:2|2:2,0:0:0:0:
44,291,61813,1,0,3:3:0:0:
44,291,61997,2,0,P|98:299|152:310,1,110,0|8,3:3|2:2,0:0:0:0:
257,275,62734,2,0,P|246:329|237:383,2,110,2|8|2,2:2|2:2|2:2,0:0:0:0:
251,224,63654,1,0,3:3:0:0:
251,224,63838,1,8,2:2:0:0:
230,115,64207,6,0,P|294:127|344:135,1,110,0|8,3:3|2:2,0:0:0:0:
396,147,64759,1,0,3:3:0:0:
396,147,64943,2,0,P|404:201|415:255,1,110,0|8,3:3|2:2,0:0:0:0:
395,363,65680,2,0,P|449:352|503:343,2,110,2|8|2,2:2|2:2|2:2,0:0:0:0:
351,338,66600,1,8,3:1:0:0:
296,347,66784,1,8,2:1:0:0:
225,269,67153,5,2,3:2:0:0:
225,269,67337,2,0,B|224:252|224:252|243:218,2,55,2|10|2,2:2|2:2|3:2,0:0:0:0:
172,285,67889,2,0,B|144:297|144:297|137:326,2,55,2|2|10,3:2|2:2|2:2,0:0:0:0:
112,192,68626,2,0,B|100:164|100:164|71:157,2,55,2|2|10,2:2|3:2|2:2,0:0:0:0:
163,172,69178,2,0,B|203:139|203:139|198:79,1,110,2|2,3:2|3:2,0:0:0:0:
172,32,69730,1,10,2:2:0:0:
285,50,70099,5,2,3:2:0:0:
285,50,70283,2,0,B|308:26|308:26|338:22,2,55,2|10|2,2:2|2:2|3:2,0:0:0:0:
303,101,70835,2,0,B|331:115|331:115|341:145,1,55,2|2,3:2|2:2,0:0:0:0:
347,191,71203,1,10,2:2:0:0:
327,299,71572,6,0,B|323:333|323:333|346:346,1,55,2|2,2:2|3:2,0:0:0:0:
385,375,71940,1,10,2:2:0:0:
385,375,72124,1,2,3:2:0:0:
473,331,72492,1,8,3:1:0:0:
458,283,72677,2,0,B|472:231|472:231|461:225|461:225|472:187,1,98.9999969787599,8|2,2:1|2:2,0:0:0:0:
372,355,78937,6,0,P|423:340|437:289,1,110,6|8,3:2|2:2,0:0:0:0:
417,243,79489,1,2,3:2:0:0:
417,243,79673,2,0,P|354:233|307:221,1,110,2|8,3:2|2:2,0:0:0:0:
213,276,80410,1,2,2:2:0:0:
114,323,80778,2,0,P|87:316|60:312,2,55,10|2|2,2:2|3:2|2:2,0:0:0:0:
116,213,81515,2,0,P|112:186|105:159,1,55,10|2,2:2|3:2,0:0:0:0:
56,132,81883,6,0,P|28:116|19:87,1,55,2|2,3:2|2:2,0:0:0:0:
28,41,82251,1,8,2:2:0:0:
137,55,82619,2,0,P|164:59|191:66,1,55,2|2,3:2|2:2,0:0:0:0:
249,77,82988,1,10,2:2:0:0:
249,77,83172,2,0,P|242:50|238:23,2,55,2|2|2,3:2|2:2|3:2,0:0:0:0:
259,130,83724,1,10,2:2:0:0:
281,242,84092,5,2,2:2:0:0:
281,242,84277,2,0,B|273:274|273:274|294:295,2,55,8|8|8,3:1|2:1|2:1,0:0:0:0:
332,222,84829,6,0,P|386:230|439:243,1,110,2|8,3:2|2:2,0:0:0:0:
487,214,85381,1,2,3:2:0:0:
487,214,85565,2,0,P|487:164|440:130,1,110,2|8,3:2|2:2,0:0:0:0:
380,39,86302,1,2,2:2:0:0:
271,56,86670,2,0,P|266:28|260:2,2,55,10|2|2,2:2|3:2|2:2,0:0:0:0:
172,105,87407,2,0,P|145:98|118:94,1,55,10|0,2:2|3:3,0:0:0:0:
69,69,87775,6,0,P|25:99|24:152,1,110,2|8,3:2|2:2,0:0:0:0:
51,206,88327,1,2,3:2:0:0:
51,206,88512,2,0,P|44:232|40:259,2,55,2|2|10,3:2|2:2|2:2,0:0:0:0:
158,230,89248,1,2,2:2:0:0:
203,330,89616,1,10,2:2:0:0:
304,281,89985,5,2,2:2:0:0:
304,281,90169,2,0,B|338:286|338:286|355:263,2,55,8|8|8,3:1|2:1|2:1,0:0:0:0:
281,230,90721,6,0,P|272:175|259:122,1,110,2|8,3:2|2:2,0:0:0:0:
270,71,91273,1,2,3:2:0:0:
270,71,91457,2,0,P|320:71|354:118,1,110,2|8,3:2|2:2,0:0:0:0:
396,217,92194,2,0,P|434:222|471:232,1,55,2|2,2:2|3:2,0:0:0:0:
502,210,92562,2,0,P|496:171|486:134,2,55,10|2|2,2:2|3:2|2:2,0:0:0:0:
490,319,93299,2,0,P|451:324|414:334,1,55,10|2,2:2|3:2,0:0:0:0:
393,363,93667,6,0,P|366:357|338:353,1,55,2|2,3:2|2:2,0:0:0:0:
285,366,94035,2,0,P|239:323|257:274,1,110,10|2,2:2|3:2,0:0:0:0:
285,180,94772,5,10,2:2:0:0:
285,180,94956,2,0,B|243:140|243:140|190:152,1,110,2|2,3:2|3:2,0:0:0:0:
152,188,95508,2,0,P|124:191|97:197,1,55,10|2,2:2|3:2,0:0:0:0:
43,205,95877,1,2,2:2:0:0:
218,371,96613,5,6,3:2:0:0:
332,333,96981,2,0,P|360:326|372:299,1,60.5000018463135,10|2,2:2|3:2,0:0:0:0:
412,253,97350,2,0,P|388:198|329:189,1,121.000003692627,2|10,3:2|2:2,0:0:0:0:
285,225,97902,1,0,3:3:0:0:
285,225,98086,5,2,2:2:0:0:
171,187,98454,2,0,P|142:180|130:153,1,60.5000018463135,10|2,2:2|3:2,0:0:0:0:
91,107,98823,2,0,P|115:52|174:43,1,121.000003692627,2|10,2:2|2:2,0:0:0:0:
218,79,99375,1,2,3:2:0:0:
218,79,99559,5,2,3:2:0:0:
321,16,99927,2,0,P|325:46|333:76,1,60.5000018463135,10|2,2:2|3:2,0:0:0:0:
346,135,100296,1,2,3:2:0:0:
448,199,100664,2,0,P|440:228|436:258,1,60.5000018463135,10|2,2:2|3:2,0:0:0:0:
378,276,101032,6,0,B|328:239|328:239|268:239,2,121.000003692627,2|10|2,2:2|2:2|2:2,0:0:0:0:
394,334,101953,1,8,3:1:0:0:
356,381,102137,1,8,2:1:0:0:
238,351,102505,6,0,P|179:336|119:326,1,121.000003692627,2|10,3:2|2:2,0:0:0:0:
76,284,103058,1,2,3:2:0:0:
76,284,103242,2,0,P|95:224|152:207,1,121.000003692627,2|10,3:2|2:2,0:0:0:0:
198,245,103794,1,2,3:2:0:0:
198,245,103978,5,2,2:2:0:0:
319,245,104347,2,0,P|349:237|379:232,1,60.5000018463135,10|2,2:2|3:2,0:0:0:0:
437,221,104715,2,0,P|447:161|462:102,1,121.000003692627,2|10,2:2|2:2,0:0:0:0:
474,43,105267,1,2,3:2:0:0:
474,43,105451,5,2,3:2:0:0:
356,71,105820,2,0,P|326:76|296:83,1,60.5000018463135,10|2,2:2|3:2,0:0:0:0:
239,102,106188,1,2,3:2:0:0:
166,198,106556,1,10,2:2:0:0:
69,125,106924,6,0,B|58:65|58:65|94:16,2,121.000003692627,2|10|2,2:2|2:2|2:2,0:0:0:0:
16,155,107845,1,8,3:1:0:0:
39,210,108029,1,8,2:1:0:0:
6,315,108397,5,4,3:2:0:0:
108,354,108766,2,0,P|161:340|217:333,1,110,10|2,2:2|3:2,0:0:0:0:
319,368,109502,1,10,2:2:0:0:
304,259,109870,5,2,2:2:0:0:
330,151,110239,1,10,2:2:0:0:
359,44,110607,2,0,L|412:56,1,55,2|0,2:2|3:3,0:0:0:0:
467,63,110975,1,10,2:2:0:0:
485,171,111343,5,2,3:2:0:0:
435,269,111712,2,0,P|381:282|326:290,1,110,10|2,2:2|3:2,0:0:0:0:
261,377,112448,1,10,2:2:0:0:
168,317,112816,5,2,2:2:0:0:
142,209,113185,1,10,2:2:0:0:
118,101,113553,2,0,L|61:89,1,55,2|0,2:2|3:3,0:0:0:0:
11,75,113921,1,10,2:2:0:0:
108,3,114289,6,0,P|166:17|234:29,1,121.000003692627,4|10,3:2|2:2,0:0:0:0:
287,46,114842,1,0,3:3:0:0:
287,46,115026,1,2,3:2:0:0:
328,159,115394,2,0,P|299:166|269:171,1,60.5000018463135,10|0,2:2|3:3,0:0:0:0:
211,189,115762,5,2,2:2:0:0:
119,268,116131,2,0,P|126:297|131:327,1,60.5000018463135,10|0,2:2|3:3,0:0:0:0:
181,360,116499,2,0,P|240:369|299:384,1,121.000003692627,2|10,2:2|2:2,0:0:0:0:
355,356,117051,1,2,3:2:0:0:
355,356,117236,6,0,P|404:347|431:277,1,121.000003692627,2|10,3:2|2:2,0:0:0:0:
398,244,117788,1,2,3:2:0:0:
398,244,117972,1,2,3:2:0:0:
282,207,118340,2,0,P|276:177|270:147,1,60.5000018463135,10|2,2:2|3:2,0:0:0:0:
253,89,118709,6,0,B|193:80|193:80|151:137,2,121.000003692627,2|10|2,2:2|2:2|2:2,0:0:0:0:
311,72,119629,1,8,2:1:0:0:
292,14,119813,1,8,2:1:0:0:
390,20,120182,6,0,P|439:37|452:85,1,98.9999969787599,6|8,3:2|2:2,0:0:0:0:
511,157,120918,2,0,P|494:206|446:219,1,98.9999969787599,0|8,3:3|2:2,0:0:0:0:
411,203,121470,2,0,P|358:211|306:224,1,98.9999969787599,2|2,2:2|2:2,0:0:0:0:
267,203,122023,1,10,2:2:0:0:
178,248,122391,1,2,3:2:0:0:
79,235,122759,2,0,P|54:240|30:244,1,49.4999984893799,8|2,2:2|2:2,0:0:0:0:
9,289,123128,6,0,P|26:333|71:347,1,98.9999969787599,2|8,3:2|2:2,0:0:0:0:
163,384,123864,2,0,P|207:366|221:321,1,98.9999969787599,0|8,3:3|2:2,0:0:0:0:
199,282,124417,2,0,P|206:233|217:184,1,98.9999969787599,2|2,2:2|2:2,0:0:0:0:
188,145,124969,2,0,P|184:120|178:96,2,49.4999984893799,10|2|2,2:2|2:2|3:2,0:0:0:0:
276,100,125705,1,10,2:2:0:0:
326,185,126074,6,0,P|315:240|272:258,1,98.9999969787599,2|8,3:2|2:2,0:0:0:0:
219,336,126810,2,0,P|164:325|146:282,1,98.9999969787599,0|8,3:3|2:2,0:0:0:0:
127,244,127363,2,0,P|79:233|30:225,1,98.9999969787599,2|2,2:2|2:2,0:0:0:0:
13,178,127915,1,10,2:2:0:0:
53,87,128283,2,0,P|59:63|62:38,1,49.4999984893799,2|2,3:2|2:2,0:0:0:0:
159,75,128836,5,2,2:2:0:0:
159,75,129020,2,0,P|207:64|256:56,2,98.9999969787599,2|10|2,3:2|2:2|3:2,0:0:0:0:
144,175,130124,1,8,2:2:0:0:
144,175,130309,2,0,P|199:186|217:229,1,98.9999969787599,2|2,2:2|2:2,0:0:0:0:
199,267,130861,2,0,P|205:291|208:316,1,49.4999984893799,10|2,2:2|2:2,0:0:0:0:
240,353,131229,2,0,P|288:342|337:334,1,98.9999969787599,2|10,3:2|2:2,0:0:0:0:
381,233,131966,5,6,3:2:0:0:
482,191,132334,1,8,2:2:0:0:
437,90,132702,1,0,3:3:0:0:
336,132,133070,1,8,2:2:0:0:
336,132,133255,2,0,P|288:121|229:111,1,110,2|2,2:2|2:2,0:0:0:0:
174,101,133807,2,0,P|180:77|185:47,2,55,10|2|2,2:2|2:2|3:2,0:0:0:0:
156,209,134544,2,0,P|160:236|167:263,1,55,8|2,2:2|2:2,0:0:0:0:
207,300,134912,5,2,3:2:0:0:
309,339,135280,1,8,2:2:0:0:
348,236,135648,1,0,3:3:0:0:
246,200,136016,1,8,2:2:0:0:
246,200,136201,2,0,P|257:142|307:125,1,110,2|2,2:2|2:2,0:0:0:0:
351,105,136753,2,0,P|345:81|340:51,2,55,10|2|2,2:2|2:2|3:2,0:0:0:0:
454,144,137490,1,10,2:2:0:0:
408,244,137858,5,2,3:2:0:0:
443,349,138226,1,8,2:2:0:0:
340,381,138594,1,0,3:3:0:0:
304,277,138962,1,8,2:2:0:0:
304,277,139147,2,0,P|256:266|197:256,1,110,2|2,2:2|2:2,0:0:0:0:
150,286,139699,2,0,P|154:313|161:340,2,55,10|2|2,2:2|2:2|3:2,0:0:0:0:
54,231,140436,2,0,P|58:204|65:177,1,55,10|2,2:2|2:2,0:0:0:0:
74,122,140804,5,2,3:2:0:0:
180,93,141172,2,0,B|159:39|124:60|109:4,2,110,10|2|10,2:2|3:2|2:2,0:0:0:0:
259,168,142277,2,0,P|313:177|366:189,1,110,2|10,3:2|2:2,0:0:0:0:
394,82,143013,2,0,P|339:72|286:60,1,110,2|10,3:2|2:2,0:0:0:0:
180,92,143750,5,2,2:2:0:0:
180,92,145223,6,0,P|194:150|204:210,1,121.000003692627,6|10,3:2|2:2,0:0:0:0:
220,273,145776,1,2,3:2:0:0:
220,273,145960,1,2,3:2:0:0:
145,368,146328,2,0,P|116:361|86:356,1,60.5000018463135,10|2,2:2|3:2,0:0:0:0:
44,312,146696,6,0,P|30:254|20:194,1,121.000003692627,2|10,2:2|2:2,0:0:0:0:
7,138,147249,1,2,3:2:0:0:
7,138,147433,1,2,2:2:0:0:
74,37,147801,2,0,P|103:44|133:49,1,60.5000018463135,10|2,2:2|3:2,0:0:0:0:
163,101,148169,6,0,P|222:110|281:125,1,121.000003692627,2|10,3:2|2:2,0:0:0:0:
314,181,148721,1,2,3:2:0:0:
314,181,148906,1,2,3:2:0:0:
426,143,149274,2,0,P|421:113|413:83,1,60.5000018463135,10|2,2:2|3:2,0:0:0:0:
398,25,149643,6,0,B|457:6|457:6|509:40,2,121.000003692627,2|8|2,2:2|2:2|2:2,0:0:0:0:
339,38,150563,1,8,3:1:0:0:
287,5,150747,1,8,2:1:0:0:
200,89,151115,6,0,P|253:109|271:180,1,121.000003692627,2|10,3:2|2:2,0:0:0:0:
321,203,151667,1,2,3:2:0:0:
321,203,151852,2,0,P|268:223|250:294,1,121.000003692627,2|10,3:2|2:2,0:0:0:0:
265,337,152404,1,2,3:2:0:0:
265,337,152588,5,2,2:2:0:0:
149,373,152956,2,0,P|141:336|134:310,1,60.5000018463135,10|2,2:2|3:2,0:0:0:0:
115,256,153325,1,2,2:2:0:0:
93,137,153693,2,0,P|56:129|30:122,1,60.5000018463135,10|2,2:2|3:2,0:0:0:0:
0,73,154061,6,0,P|21:21|93:18,1,121.000003692627,2|10,3:2|2:2,0:0:0:0:
131,52,154614,1,2,3:2:0:0:
131,52,154798,2,0,P|190:61|249:76,1,121.000003692627,2|10,3:2|2:2,0:0:0:0:
366,107,155534,6,0,B|385:48|385:48|351:-4,2,121.000003692627,2|8|2,2:2|2:2|2:2,0:0:0:0:
416,140,156454,1,8,3:1:0:0:
400,198,156638,1,8,2:1:0:0:
476,261,157007,5,4,3:2:0:0:
394,334,157375,2,0,P|333:302|283:290,1,110,10|2,2:2|3:2,0:0:0:0:
210,365,158112,1,10,2:2:0:0:
105,330,158480,6,0,L|118:275,1,55,2|0,2:2|3:3,0:0:0:0:
130,223,158848,1,10,2:2:0:0:
241,202,159217,2,0,L|254:146,1,55,2|0,2:2|3:3,0:0:0:0:
268,95,159585,1,10,2:2:0:0:
191,15,159953,5,0,3:3:0:0:
156,119,160321,2,0,P|103:134|55:161,1,110,10|2,2:2|3:2,0:0:0:0:
28,270,161058,1,10,2:2:0:0:
137,256,161426,6,0,L|192:269,1,55,2|0,2:2|3:3,0:0:0:0:
244,283,161794,1,10,2:2:0:0:
338,340,162163,2,0,L|394:353,1,55,2|0,2:2|3:3,0:0:0:0:
445,365,162531,2,0,P|435:330|431:309,1,55,10|2,2:2|3:2,0:0:0:0:
470,265,162899,6,0,P|458:204|398:180,1,121.000003692627,6|10,3:2|2:2,0:0:0:0:
352,183,163452,1,2,3:2:0:0:
352,183,163636,1,2,3:2:0:0:
234,154,164004,2,0,P|240:120|247:84,1,60.5000018463135,10|2,2:2|3:2,0:0:0:0:
254,34,164372,6,0,P|313:45|373:55,1,121.000003692627,2|10,2:2|2:2,0:0:0:0:
434,78,164925,1,2,3:2:0:0:
434,78,165109,1,2,2:2:0:0:
491,182,165477,2,0,P|463:190|447:215,1,60.5000018463135,10|2,2:2|3:2,0:0:0:0:
441,275,165845,6,0,P|381:285|321:296,1,121.000003692627,2|10,3:2|2:2,0:0:0:0:
303,357,166398,1,2,3:2:0:0:
303,357,166582,1,2,3:2:0:0:
208,281,166950,2,0,P|213:251|218:221,1,60.5000018463135,10|0,2:2|3:3,0:0:0:0:
177,177,167318,6,0,B|159:115|159:115|201:60,2,121.000003692627,2|8|2,2:2|2:2|2:2,0:0:0:0:
131,217,168239,1,8,3:1:0:0:
71,209,168423,2,0,P|44:219|11:230,1,60.5000018463135,8|2,2:1|3:2,0:0:0:0:
0,287,168791,6,0,P|17:354|66:366,1,121.000003692627,6|10,3:2|2:2,0:0:0:0:
113,333,169344,1,2,3:2:0:0:
113,333,169528,1,2,3:2:0:0:
232,352,169896,2,0,P|238:322|243:292,1,60.5000018463135,10|2,2:2|3:2,0:0:0:0:
228,233,170264,6,0,P|295:216|307:167,1,121.000003692627,2|10,2:2|2:2,0:0:0:0:
274,120,170817,1,2,3:2:0:0:
274,120,171001,1,2,2:2:0:0:
374,52,171369,2,0,P|404:58|434:63,1,60.5000018463135,10|2,2:2|3:2,0:0:0:0:
482,98,171737,6,0,P|419:120|406:179,1,121.000003692627,2|10,3:2|2:2,0:0:0:0:
407,232,172290,1,2,3:2:0:0:
407,232,172474,2,0,P|413:262|418:292,1,60.5000018463135,2|0,3:2|0:0,0:0:0:0:
427,351,172842,1,10,2:2:0:0:
306,346,173210,6,0,B|248:368|248:368|193:324,2,121.000003692627,2|10|2,2:2|2:2|2:2,0:0:0:0:
289,287,174131,1,8,3:1:0:0:
321,236,174315,1,8,2:1:0:0:
217,173,174684,6,0,P|157:185|97:195,1,121.000003692627,2|10,3:2|2:2,0:0:0:0:
49,163,175236,1,2,3:2:0:0:
49,163,175420,1,2,3:2:0:0:
65,43,175788,2,0,P|95:49|125:54,1,60.5000018463135,10|2,2:2|3:2,0:0:0:0:
166,10,176157,6,0,P|230:2|268:63,1,121.000003692627,2|10,2:2|2:2,0:0:0:0:
280,102,176709,1,2,3:2:0:0:
280,102,176893,1,2,2:2:0:0:
297,221,177261,2,0,P|291:251|286:281,1,60.5000018463135,10|2,2:2|3:2,0:0:0:0:
258,334,177630,6,0,P|279:363|309:373,1,60.5000018463135,2|2,3:2|2:2,0:0:0:0:
359,356,177998,2,0,P|395:352|418:331,1,60.5000018463135,10|2,2:2|3:2,0:0:0:0:
411,277,178366,1,2,3:2:0:0:
466,169,178734,1,10,2:2:0:0:
398,68,179103,6,0,B|448:28|448:28|504:38,2,121.000003692627,2|8|2,2:2|2:2|2:2,0:0:0:0:
347,101,180023,1,8,3:1:0:0:
288,86,180207,1,8,2:1:0:0:
248,188,180576,5,4,3:2:0:0:
145,149,180944,2,0,P|119:102|67:89,2,110,10|2|10,2:2|3:2|2:2,0:0:0:0:
121,256,182049,2,0,P|94:261|67:266,1,55,2|0,2:2|3:3,0:0:0:0:
13,277,182417,2,0,P|18:304|23:331,1,55,10|0,2:2|3:3,0:0:0:0:
35,384,182785,2,0,P|62:379|89:374,1,55,2|0,2:2|3:3,0:0:0:0:
143,366,183153,1,10,2:2:0:0:
250,339,183522,5,0,3:3:0:0:
356,310,183890,2,0,P|382:357|434:370,2,110,10|2|10,2:2|3:2|2:2,0:0:0:0:
380,203,184995,2,0,P|407:198|434:193,1,55,2|0,2:2|3:3,0:0:0:0:
488,182,185363,2,0,P|483:155|478:128,1,55,10|0,2:2|3:3,0:0:0:0:
466,75,185731,2,0,P|439:80|412:85,1,55,2|0,2:2|3:3,0:0:0:0:
358,93,186099,1,10,2:2:0:0:
253,56,186468,6,0,P|242:111|231:180,1,121.000003692627,6|10,3:2|2:2,0:0:0:0:
193,222,187020,1,2,3:2:0:0:
193,222,187204,2,0,P|249:243|270:303,1,121.000003692627,2|10,3:2|2:2,0:0:0:0:
261,359,187757,1,2,3:2:0:0:
261,359,187941,5,2,2:2:0:0:
159,305,188309,2,0,P|131:309|96:315,1,60.5000018463135,10|2,2:2|3:2,0:0:0:0:
39,322,188677,2,0,P|48:267|60:202,1,121.000003692627,2|10,2:2|2:2,0:0:0:0:
75,147,189230,1,2,3:2:0:0:
75,147,189414,5,2,3:2:0:0:
193,171,189782,2,0,P|219:176|256:183,1,60.5000018463135,10|2,2:2|3:2,0:0:0:0:
303,215,190150,2,0,P|323:157|389:154,1,121.000003692627,2|10,3:2|2:2,0:0:0:0:
434,179,190703,1,2,3:2:0:0:
434,179,190887,6,0,B|450:123|450:123|420:54,2,121.000003692627,2|8|2,2:2|2:2|2:2,0:0:0:0:
435,239,191807,1,8,3:1:0:0:
489,265,191992,1,8,2:1:0:0:
412,344,192360,6,0,B|354:341|355:363|303:362,2,110,6|10|2,3:2|2:2|3:2,0:0:0:0:
338,262,193465,2,0,P|333:234|328:207,1,55,10|0,2:2|3:3,0:0:0:0:
349,156,193833,2,0,P|334:115|270:103,1,110,2|10,2:2|2:2,0:0:0:0:
235,70,194385,1,2,3:2:0:0:
235,70,194569,2,0,P|194:84|182:148,1,110,2|10,2:2|2:2,0:0:0:0:
162,253,195306,6,0,P|107:242|53:234,1,110,2|10,3:2|2:2,0:0:0:0:
30,189,195858,1,2,3:2:0:0:
30,189,196042,2,0,P|40:134|48:80,1,110,2|8,3:2|2:2,0:0:0:0:
155,52,196779,2,0,B|197:11|197:11|259:24,2,110,2|8|2,2:2|2:2|2:2,0:0:0:0:
192,96,197700,1,8,3:1:0:0:
203,150,197884,1,8,2:1:0:0:
151,247,198252,6,0,B|93:244|94:266|42:265,2,110,6|10|2,3:2|2:2|3:2,0:0:0:0:
203,343,199357,2,0,P|230:347|258:352,1,55,10|0,2:2|3:3,0:0:0:0:
297,315,199725,2,0,P|351:304|406:295,1,110,2|10,2:2|2:2,0:0:0:0:
433,249,200277,1,2,3:2:0:0:
433,249,200461,2,0,P|422:194|413:139,1,110,2|10,2:2|2:2,0:0:0:0:
321,81,201198,6,0,P|306:39|241:27,1,110,2|10,3:2|2:2,0:0:0:0:
202,0,201750,1,2,3:2:0:0:
202,0,201934,2,0,P|160:14|148:79,1,110,2|8,3:2|2:2,0:0:0:0:
121,181,202671,2,0,B|77:139|77:139|19:148,2,110,2|8|2,2:2|2:2|2:2,0:0:0:0:
147,229,203592,1,8,3:1:0:0:
201,220,203776,1,8,2:1:0:0:
294,277,204144,6,0,B|292:331|315:326|312:384,2,110,6|10|2,3:2|2:2|3:2,0:0:0:0:
268,169,205249,2,0,P|272:135|273:106,1,55,10|0,2:2|3:3,0:0:0:0:
295,63,205617,2,0,P|346:48|386:90,1,110,2|10,2:2|2:2,0:0:0:0:
441,99,206169,1,2,3:2:0:0:
441,99,206354,2,0,P|479:135|463:191,1,110,2|10,2:2|2:2,0:0:0:0:
417,284,207090,5,2,3:2:0:0:
417,284,207274,2,0,P|422:320|430:343,2,55,2|10|0,0:0|2:2|3:3,0:0:0:0:
368,258,207827,2,0,P|318:268|299:324,1,110,0|8,3:3|2:2,0:0:0:0:
205,259,208563,2,0,P|215:187|231:141,2,110,2|10|2,2:2|2:2|2:2,0:0:0:0:
167,299,209484,1,8,3:1:0:0:
112,298,209668,1,8,2:1:0:0:
106,188,210036,6,0,B|52:186|56:209|-1:206,2,110,6|10|2,3:2|2:2|3:2,0:0:0:0:
166,95,211141,1,10,2:2:0:0:
275,85,211509,2,0,P|326:70|366:112,1,110,2|10,2:2|2:2,0:0:0:0:
421,121,212061,1,2,3:2:0:0:
421,121,212246,2,0,P|459:157|443:213,1,110,2|10,2:2|2:2,0:0:0:0:
341,211,212982,5,2,3:2:0:0:
341,211,213166,2,0,P|305:216|282:224,2,55,2|10|0,0:0|2:2|3:3,0:0:0:0:
355,264,213719,2,0,P|344:318|337:372,1,110,0|8,3:3|2:2,0:0:0:0:
234,335,214455,2,0,P|179:340|126:356,2,110,2|10|2,2:2|2:2|2:2,0:0:0:0:
231,279,215376,1,8,3:1:0:0:
180,257,215560,2,0,B|123:237|136:214|79:201,1,110,8|0,2:1|0:0,0:0:0:0:
