osu file format v14

[General]
AudioFilename: audio.mp3
AudioLeadIn: 0
PreviewTime: 144579
Countdown: 0
SampleSet: Soft
StackLeniency: 0.4
Mode: 0
LetterboxInBreaks: 0
WidescreenStoryboard: 1

[Editor]
Bookmarks: 867,8232,14124,37692,49476,61261,73045,78937,96613,108397,114289,120182,145223,157007,162899,180576,192360,215928
DistanceSpacing: 1.3
BeatDivisor: 4
GridSize: 4
TimelineZoom: 1.4

[Metadata]
Title:Shinsekai
TitleUnicode:新世界
Artist:BUMP OF CHICKEN
ArtistUnicode:BUMP OF CHICKEN
Creator:Ascended
Version:Mono's Hard
Source:ベイビーアイラブユーだぜ
Tags:Baby I Love You Daze Aurora Arc japanese pop jpop j-pop advertisement commercial chocolate LOTTE ロッテ Ghana 藤原基央 motoo fujiwara バンプ・オブ・チキン MOR New World male vocalist vocals Mononymous
BeatmapID:3730713
BeatmapSetID:1817020

[Difficulty]
HPDrainRate:4.5
CircleSize:4
OverallDifficulty:6
ApproachRate:8
SliderMultiplier:1.6
SliderTickRate:1

[Events]
//Background and Video events
0,0,"3 am mapping be like.jpg",0,0
Video,-250,"the speedmapping method.mp4"
//Break Periods
2,73245,77634
//Storyboard Layer 0 (Background)
//Storyboard Layer 1 (Fail)
//Storyboard Layer 2 (Pass)
//Storyboard Layer 3 (Foreground)
//Storyboard Layer 4 (Overlay)
//Storyboard Sound Samples

[TimingPoints]
-606,368.256306389247,4,2,1,75,1,0
867,-125,4,2,1,75,0,0
8140,-125,4,2,1,75,0,0
8232,-100,4,2,1,65,0,0
14031,-100,4,2,1,5,0,0
14124,-111.111111111111,4,2,1,65,0,0
25908,-111.111111111111,4,2,1,70,0,0
37692,-100,4,2,1,75,0,0
49292,-100,4,2,1,75,0,0
49476,-100,4,2,1,75,0,0
49752,-100,4,2,1,5,0,0
49845,-100,4,2,1,75,0,0
52698,-100,4,2,1,5,0,0
52791,-100,4,2,1,75,0,0
61076,-100,4,2,1,75,0,0
61261,-117.647058823529,4,2,1,75,0,0
66600,-117.647058823529,4,2,1,75,0,0
66968,-117.647058823529,4,2,1,75,0,0
67153,-117.647058823529,4,2,1,75,0,0
72492,-117.647058823529,4,2,1,75,0,0
72861,-117.647058823529,4,2,1,75,0,0
73045,-133.333333333333,4,2,1,60,0,0
78937,-117.647058823529,4,2,1,65,0,0
96061,-142.857142857143,4,2,1,65,0,0
96613,-90.9090909090909,4,2,1,70,0,0
96889,-90.9090909090909,4,2,1,5,0,0
96981,-90.9090909090909,4,2,1,70,0,0
99835,-90.9090909090909,4,2,1,5,0,0
99927,-90.9090909090909,4,2,1,70,0,0
102781,-90.9090909090909,4,2,1,5,0,0
102874,-90.9090909090909,4,2,1,70,0,0
107845,-90.9090909090909,4,2,1,70,0,0
108213,-90.9090909090909,4,2,1,70,0,0
108397,-100,4,2,1,70,0,0
108673,-100,4,2,1,5,0,0
108766,-100,4,2,1,70,0,0
114289,-90.9090909090909,4,2,1,70,0,0
116038,-90.9090909090909,4,2,1,5,0,0
116131,-90.9090909090909,4,2,1,70,0,0
120182,-125,4,2,1,60,0,0
125981,-125,4,2,1,5,0,0
126074,-125,4,2,1,60,0,0
131966,-125,4,2,1,65,0,0
141080,-125,4,2,1,5,0,0
141172,-125,4,2,1,65,0,0
143750,-125,4,2,1,35,0,0
144118,-125,4,2,1,45,0,0
144486,-125,4,2,1,55,0,0
144763,-125,4,2,1,5,0,0
144855,-125,4,2,1,65,0,0
145132,-125,4,2,1,5,0,0
145223,-90.9090909090909,4,2,1,75,0,0
154337,-90.9090909090909,4,2,1,5,0,0
154429,-90.9090909090909,4,2,1,75,0,0
156455,-90.9090909090909,4,2,1,75,0,0
156823,-90.9090909090909,4,2,1,75,0,0
157007,-100,4,2,1,75,0,0
157283,-100,4,2,1,5,0,0
157375,-100,4,2,1,75,0,0
160229,-100,4,2,1,5,0,0
160322,-100,4,2,1,75,0,0
162899,-90.9090909090909,4,2,1,75,0,0
166121,-90.9090909090909,4,2,1,5,0,0
166214,-90.9090909090909,4,2,1,75,0,0
169067,-90.9090909090909,4,2,1,5,0,0
169160,-90.9090909090909,4,2,1,75,0,0
172750,-90.9090909090909,4,2,1,5,0,0
172842,-90.9090909090909,4,2,1,75,0,0
176433,-90.9090909090909,4,2,1,5,0,0
176525,-90.9090909090909,4,2,1,75,0,0
180576,-100,4,2,1,70,0,0
180852,-100,4,2,1,5,0,0
180944,-100,4,2,1,70,0,0
183798,-100,4,2,1,5,0,0
183890,-100,4,2,1,70,0,0
192360,-100,4,2,1,65,0,0
192636,-100,4,2,1,5,0,0
192728,-100,4,2,1,65,0,0
198528,-100,4,2,1,5,0,0
198620,-100,4,2,1,65,0,0
200737,-100,4,2,1,5,0,0
200830,-100,4,2,1,65,0,0
204144,-100,4,2,1,60,0,0
204420,-100,4,2,1,5,0,0
204512,-100,4,2,1,60,0,0
206814,-100,4,2,1,60,0,0
206906,-100,4,2,1,60,0,0
207366,-100,4,2,1,5,0,0
207458,-100,4,2,1,60,0,0
210312,-100,4,2,1,5,0,0
210404,-100,4,2,1,60,0,0
212706,-100,4,2,1,60,0,0
212798,-100,4,2,1,60,0,0
213258,-100,4,2,1,5,0,0
213350,-100,4,2,1,60,0,0
215284,-100,4,2,1,5,0,0
215376,-100,4,2,1,60,0,0
215928,-100,4,2,1,30,0,0

[Colours]
Combo1 : 240,140,140
Combo2 : 200,180,220
Combo3 : 240,200,155
Combo4 : 150,185,220

[HitObjects]
141,131,867,6,0,B|192:120|202:63|202:63|228:113|289:109,1,192,6|0,2:2|0:0,0:0:0:0:
345,60,1603,2,0,P|385:67|404:145,1,128,6|0,2:2|0:0,0:0:0:0:
275,275,2340,6,0,B|249:228|199:242|199:242|182:304|106:327|62:302,1,256,6|2,2:2|2:2,0:0:0:0:
22,239,3444,1,0,0:0:0:0:
135,116,3813,6,0,P|191:131|267:144,1,128,6|0,2:2|0:0,0:0:0:0:
396,47,4549,2,0,P|482:47|480:134,1,192,6|0,2:2|0:0,0:0:0:0:
410,179,5286,2,0,B|432:364|405:183|430:370,1,192,6|0,2:2|0:0,0:0:0:0:
429,369,6022,1,0,0:0:0:0:
256,192,6390,12,0,7863,0:0:0:0:
256,192,8232,6,0,P|206:173|93:154,1,160,6|8,3:2|2:2,0:0:0:0:
25,198,8784,2,0,P|6:157|20:119,1,80,2|0,3:2|3:3,0:0:0:0:
160,26,9336,1,8,2:2:0:0:
160,26,9521,1,2,3:2:0:0:
219,90,9705,6,0,P|208:133|200:175,1,80,0|2,0:0|3:2,0:0:0:0:
269,222,10073,2,0,P|279:184|286:145,1,80,8|0,2:2|3:3,0:0:0:0:
184,245,10441,2,0,P|209:296|308:312,1,160,2|8,2:2|2:2,0:0:0:0:
372,258,10994,1,0,3:3:0:0:
447,303,11178,6,0,P|494:257|473:171,1,160,2|8,3:2|2:2,0:0:0:0:
422,100,11730,2,0,P|385:113|346:122,1,80,2|0,3:2|3:3,0:0:0:0:
201,23,12282,1,8,2:2:0:0:
132,77,12466,5,2,3:2:0:0:
132,77,12651,2,0,P|137:116|143:156,1,80,0|2,0:0|3:2,0:0:0:0:
226,187,13019,2,0,P|220:147|214:107,1,80,8|0,2:2|3:3,0:0:0:0:
153,237,13387,1,2,2:2:0:0:
243,302,13571,1,8,3:1:0:0:
243,302,13755,2,0,P|300:284|359:277,1,120,8|0,2:1|2:0,0:0:0:0:
397,291,14124,6,0,P|439:260|435:174,1,143.999995605469,6|8,3:2|2:2,0:0:0:0:
347,119,14676,1,2,3:2:0:0:
275,153,14860,2,0,P|233:122|237:36,1,143.999995605469,2|8,3:2|2:2,0:0:0:0:
312,13,15413,1,2,3:2:0:0:
312,13,15597,1,2,2:2:0:0:
434,113,15965,6,0,B|510:96|437:108|514:90,2,71.9999978027344,10|2|2,2:2|3:2|2:2,0:0:0:0:
372,162,16517,1,0,3:3:0:0:
372,162,16702,2,0,P|351:202|357:232,1,71.9999978027344,10|2,2:2|3:2,0:0:0:0:
360,306,17070,6,0,B|346:312|330:313|314:306|300:292|300:292|288:279|272:266|249:266|227:272,1,143.999995605469,2|8,3:2|2:2,0:0:0:0:
206,201,17622,1,2,3:2:0:0:
206,201,17806,2,0,P|219:168|214:127,2,71.9999978027344,2|2|10,3:2|2:2|2:2,0:0:0:0:
139,242,18359,1,2,3:2:0:0:
69,203,18543,6,0,P|17:214|-13:221,2,71.9999978027344,2|0|10,2:2|3:3|2:2,0:0:0:0:
156,71,19279,2,0,P|208:82|238:89,2,71.9999978027344,2|0|10,2:2|3:3|2:2,0:0:0:0:
96,18,19832,5,2,3:2:0:0:
96,18,20016,2,0,P|49:18|11:99,1,143.999995605469,2|8,3:2|2:2,0:0:0:0:
39,169,20568,1,2,3:2:0:0:
112,139,20752,2,0,B|200:146|143:194|233:205,1,143.999995605469,2|8,3:2|2:2,0:0:0:0:
301,166,21305,1,2,3:2:0:0:
301,166,21489,2,0,P|291:125|272:21,1,143.999995605469,2|10,2:2|2:2,0:0:0:0:
351,28,22041,1,2,3:2:0:0:
351,28,22225,1,2,2:2:0:0:
207,95,22594,2,0,P|170:83|136:76,1,71.9999978027344,10|2,2:2|3:2,0:0:0:0:
114,0,22962,6,0,B|25:18|99:56|-12:87,2,143.999995605469,2|8|2,3:2|2:2|3:2,0:0:0:0:
137,76,23883,1,2,2:2:0:0:
137,76,24067,1,10,2:2:0:0:
91,140,24251,6,0,P|139:157|211:105,1,143.999995605469,2|0,3:2|3:3,0:0:0:0:
272,59,24803,2,0,B|250:30|279:18|262:-11,2,71.9999978027344,10|2|2,2:2|3:2|2:2,0:0:0:0:
344,103,25356,1,0,3:3:0:0:
344,103,25540,2,0,B|322:132|351:144|334:173,1,71.9999978027344,10|2,2:2|3:2,0:0:0:0:
212,193,25908,6,0,P|169:204|173:291,1,143.999995605469,6|8,3:2|2:2,0:0:0:0:
227,340,26460,1,2,3:2:0:0:
296,302,26644,2,0,P|341:313|435:338,1,143.999995605469,2|8,3:2|2:2,0:0:0:0:
489,279,27197,5,2,3:2:0:0:
489,278,27381,2,0,P|477:244|468:209,1,71.9999978027344,2|0,2:2|3:3,0:0:0:0:
413,153,27749,2,0,P|424:118|433:83,2,71.9999978027344,10|2|2,2:2|3:2|2:2,0:0:0:0:
260,182,28486,1,10,2:2:0:0:
260,182,28670,1,2,3:2:0:0:
205,239,28854,6,0,P|222:291|233:381,1,143.999995605469,2|8,3:2|2:2,0:0:0:0:
311,357,29406,1,2,3:2:0:0:
311,357,29591,2,0,P|357:366|391:373,2,71.9999978027344,2|2|10,3:2|2:2|2:2,0:0:0:0:
351,286,30143,5,2,3:2:0:0:
351,286,30327,2,0,P|421:299|492:314,2,143.999995605469,2|10|2,2:2|2:2|2:2,0:0:0:0:
291,241,31248,1,0,3:3:0:0:
291,241,31432,2,0,P|269:212|268:177,1,71.9999978027344,10|2,2:2|3:2,0:0:0:0:
316,114,31800,6,0,B|399:126|345:176|429:194,1,143.999995605469,2|8,3:2|2:2,0:0:0:0:
500,164,32352,1,2,3:2:0:0:
504,84,32537,2,0,P|485:36|402:27,1,143.999995605469,2|8,3:2|2:2,0:0:0:0:
333,67,33089,5,2,3:2:0:0:
333,67,33273,1,2,2:2:0:0:
413,203,33641,2,0,P|407:242|400:279,2,71.9999978027344,10|2|2,2:2|3:2|2:2,0:0:0:0:
333,211,34194,1,0,3:3:0:0:
333,211,34378,2,0,L|320:290,1,71.9999978027344,10|2,2:2|3:2,0:0:0:0:
258,330,34746,6,0,B|164:312|219:274|136:261,2,143.999995605469,2|8|2,3:2|2:2|3:2,0:0:0:0:
328,366,35667,1,2,2:2:0:0:
328,366,35851,1,10,2:2:0:0:
392,319,36035,6,0,P|370:255|303:253,1,143.999995605469,2|0,3:2|3:3,0:0:0:0:
232,289,36587,2,0,L|241:366,2,71.9999978027344,10|2|2,2:2|3:2|2:2,0:0:0:0:
186,140,37324,2,0,L|195:63,1,71.9999978027344,10|2,2:2|3:2,0:0:0:0:
90,15,37692,6,0,P|45:16|25:111,1,160,6|10,3:2|2:2,0:0:0:0:
95,189,38245,1,2,3:2:0:0:
186,140,38429,2,0,P|224:152|263:160,2,80,2|0|10,3:2|0:0|2:2,0:0:0:0:
92,187,38981,5,2,3:2:0:0:
92,187,39165,2,0,P|109:243|131:344,1,160,2|10,2:2|2:2,0:0:0:0:
188,234,39718,1,2,3:2:0:0:
188,234,39902,2,0,B|95:234|148:286|41:286,1,160,2|10,2:2|2:2,0:0:0:0:
0,188,40454,1,2,3:2:0:0:
96,168,40638,6,0,P|102:92|40:49,1,160,2|10,3:2|2:2,0:0:0:0:
137,9,41191,1,2,3:2:0:0:
137,9,41375,1,2,3:2:0:0:
251,182,41743,1,10,2:2:0:0:
388,25,42111,6,0,P|431:40|425:142,1,160,2|10,2:2|2:2,0:0:0:0:
330,122,42664,1,2,3:2:0:0:
330,122,42848,1,2,2:2:0:0:
367,219,43032,1,8,3:1:0:0:
334,317,43216,1,8,2:1:0:0:
263,240,43400,6,0,B|200:222|200:222|180:203|180:203|115:185,1,160,2|0,3:2|0:0,0:0:0:0:
29,243,43953,1,10,2:2:0:0:
29,243,44137,1,2,3:2:0:0:
100,318,44321,2,0,L|184:355,1,80,2|0,3:2|0:0,0:0:0:0:
265,299,44689,1,8,2:2:0:0:
265,299,44873,1,2,3:2:0:0:
356,348,45057,6,0,P|368:272|317:214,1,160,2|10,2:2|2:2,0:0:0:0:
228,157,45610,1,2,3:2:0:0:
325,120,45794,2,0,B|388:136|388:136|406:153|406:153|473:171,1,160,2|10,2:2|2:2,0:0:0:0:
508,75,46346,1,2,3:2:0:0:
508,75,46530,2,0,P|476:28|382:49,1,160,2|10,3:2|2:2,0:0:0:0:
316,124,47083,1,2,3:2:0:0:
316,124,47267,1,2,3:2:0:0:
483,246,47635,1,10,2:2:0:0:
321,377,48003,6,0,L|301:218,1,160,2|8,2:2|2:2,0:0:0:0:
270,123,48556,1,2,3:2:0:0:
270,123,48740,1,2,2:2:0:0:
366,134,48924,1,8,3:1:0:0:
301,218,49108,1,8,2:1:0:0:
111,133,49476,6,0,P|121:85|66:36,1,120,4|0,3:2|2:0,0:0:0:0:
29,47,49845,2,0,B|190:16|25:45|192:13,2,160,10|2|10,2:2|3:2|2:2,0:0:0:0:
160,207,50949,6,0,P|197:175|232:169,1,80,2|0,2:2|3:3,0:0:0:0:
306,236,51318,2,0,L|286:313,1,80,10|0,2:2|3:3,0:0:0:0:
378,361,51686,2,0,L|397:283,1,80,2|0,2:2|3:3,0:0:0:0:
370,182,52054,1,10,2:2:0:0:
466,139,52238,5,2,3:2:0:0:
466,139,52422,2,0,B|459:87|459:87|451:61|451:61|447:16,1,120,0|0,3:3|2:0,0:0:0:0:
397,3,52791,2,0,P|347:61|271:52,2,160,10|2|10,2:2|3:2|2:2,0:0:0:0:
499,183,53895,6,0,P|485:220|472:258,1,80,2|0,2:2|3:3,0:0:0:0:
369,277,54264,2,0,P|382:314|395:352,1,80,10|0,2:2|3:3,0:0:0:0:
498,367,54632,1,2,2:2:0:0:
293,330,55000,1,10,2:2:0:0:
293,330,55184,1,2,3:2:0:0:
193,360,55368,6,0,B|159:309|114:298|114:298|140:297|168:274,1,160,6|10,3:2|2:2,0:0:0:0:
255,220,55921,1,2,3:2:0:0:
255,220,56105,2,0,P|252:144|183:116,1,160,2|10,3:2|2:2,0:0:0:0:
96,184,56657,1,2,3:2:0:0:
9,125,56841,6,0,L|-1:45,1,80,2|2,2:2|3:2,0:0:0:0:
96,184,57210,2,0,L|106:263,1,80,10|2,2:2|3:2,0:0:0:0:
35,339,57578,1,2,2:2:0:0:
216,235,57946,1,10,2:2:0:0:
216,235,58130,1,2,3:2:0:0:
301,295,58315,6,0,P|344:260|327:163,1,160,2|10,3:2|2:2,0:0:0:0:
248,109,58867,1,2,3:2:0:0:
248,109,59051,2,0,B|296:69|296:69|390:100,1,160,2|10,3:2|2:2,0:0:0:0:
456,178,59603,1,2,3:2:0:0:
512,84,59788,6,0,P|485:13|409:24,1,160,2|8,2:2|2:2,0:0:0:0:
381,122,60340,1,2,3:2:0:0:
381,122,60524,2,0,L|297:93,2,80,2|8|8,2:2|2:1|2:1,0:0:0:0:
465,277,61261,6,0,P|431:332|365:335,1,136.000002593994,4|8,3:2|2:2,0:0:0:0:
305,276,61813,1,0,3:3:0:0:
305,276,61997,1,0,3:3:0:0:
137,322,62365,1,8,2:2:0:0:
137,322,62549,1,0,3:3:0:0:
62,273,62734,6,0,B|56:259|55:245|62:230|75:217|75:217|87:206|99:191|99:169|93:149,1,136.000002593994,2|8,2:2|2:2,0:0:0:0:
33,84,63286,2,0,P|54:46|141:49,1,136.000002593994,2|0,3:2|3:3,0:0:0:0:
209,98,63838,1,8,2:2:0:0:
372,29,64207,6,0,B|362:92|362:92|355:107|355:107|348:165,1,136.000002593994,0|8,3:3|2:2,0:0:0:0:
389,245,64759,1,0,3:3:0:0:
389,245,64943,2,0,P|426:199|500:201,1,136.000002593994,0|8,3:3|2:2,0:0:0:0:
512,291,65496,1,0,3:3:0:0:
511,291,65680,2,0,P|468:340|402:336,1,136.000002593994,2|8,2:2|2:2,0:0:0:0:
319,304,66232,1,2,3:2:0:0:
366,133,66600,1,8,3:1:0:0:
442,176,66784,2,0,P|459:130|445:100,1,68.0000012969971,8|0,2:1|3:3,0:0:0:0:
351,20,67153,5,2,3:2:0:0:
273,51,67337,1,2,2:2:0:0:
273,51,67429,1,2,2:2:0:0:
273,51,67521,2,0,L|285:117,1,68.0000012969971,10|2,2:2|3:2,0:0:0:0:
316,200,67889,2,0,L|303:266,2,68.0000012969971,2|2|10,3:2|2:2|2:2,0:0:0:0:
217,272,68442,5,2,3:2:0:0:
217,272,68626,2,0,P|224:322|237:337,2,68.0000012969971,2|2|10,2:2|3:2|2:2,0:0:0:0:
168,198,69178,1,2,3:2:0:0:
19,289,69546,1,2,3:2:0:0:
19,289,69638,1,2,2:2:0:0:
19,289,69730,2,0,L|24:322,3,34.0000006484985,10|2|2|0,2:2|2:2|3:2|0:0,0:0:0:0:
59,349,70099,5,2,3:2:0:0:
137,304,70283,1,2,2:2:0:0:
137,304,70375,1,2,2:2:0:0:
137,304,70467,2,0,P|179:313|196:339,1,68.0000012969971,10|2,2:2|3:2,0:0:0:0:
274,365,70835,2,0,P|310:356|328:327,2,68.0000012969971,2|2|10,3:2|2:2|2:2,0:0:0:0:
193,331,71388,5,2,3:2:0:0:
193,331,71572,2,0,P|187:297|182:263,1,68.0000012969971,2|2,2:2|3:2,0:0:0:0:
223,185,71940,1,10,2:2:0:0:
157,125,72124,1,2,3:2:0:0:
32,250,72492,1,8,3:1:0:0:
32,250,72677,2,0,P|37:283|42:317,1,68.0000012969971,8|0,2:1|3:3,0:0:0:0:
110,355,73045,5,2,2:2:0:0:
479,357,78384,6,0,P|447:339|435:313,1,60.0000022888184,8|2,0:1|2:2,0:0:0:0:
479,254,78753,1,8,2:1:0:0:
380,192,78937,6,0,B|328:210|328:210|313:229|313:229|252:250,1,136.000002593994,6|8,3:2|2:2,0:0:0:0:
182,204,79489,1,2,3:2:0:0:
182,204,79673,1,2,3:2:0:0:
324,103,80042,2,0,L|328:34,1,68.0000012969971,8|2,2:2|3:2,0:0:0:0:
251,7,80410,6,0,P|213:10|190:32,2,68.0000012969971,2|0|10,2:2|3:3|2:2,0:0:0:0:
327,35,80962,1,2,3:2:0:0:
327,35,81146,1,2,2:2:0:0:
492,15,81515,1,10,2:2:0:0:
492,15,81699,1,2,3:2:0:0:
501,95,81883,6,0,P|490:126|486:160,2,68.0000012969971,2|2|8,3:2|2:2|2:2,0:0:0:0:
364,182,82619,2,0,P|375:213|379:247,2,68.0000012969971,2|2|10,3:2|2:2|2:2,0:0:0:0:
287,153,83172,5,2,3:2:0:0:
287,153,83264,1,2,2:2:0:0:
287,153,83356,2,0,L|304:83,2,68.0000012969971,2|2|10,2:2|3:2|2:2,0:0:0:0:
230,214,83908,1,2,3:2:0:0:
138,217,84092,2,0,P|98:206|85:181,2,68.0000012969971,2|8|8,2:2|3:1|2:1,0:0:0:0:
230,214,84645,5,8,2:1:0:0:
230,214,84829,2,0,P|275:201|320:280,1,136.000002593994,2|8,3:2|2:2,0:0:0:0:
302,342,85381,1,2,3:2:0:0:
378,370,85565,2,0,B|412:338|412:338|405:243,1,136.000002593994,2|8,3:2|2:2,0:0:0:0:
451,181,86118,5,2,3:2:0:0:
451,181,86302,1,2,2:2:0:0:
316,88,86670,2,0,L|248:103,1,68.0000012969971,10|2,2:2|3:2,0:0:0:0:
181,147,87039,2,0,P|163:110|168:76,2,68.0000012969971,2|0|10,2:2|3:3|2:2,0:0:0:0:
257,188,87591,5,0,3:3:0:0:
257,188,87775,2,0,P|294:241|272:303,1,136.000002593994,2|8,3:2|2:2,0:0:0:0:
202,346,88327,1,2,3:2:0:0:
132,302,88512,2,0,L|153:165,1,136.000002593994,2|10,3:2|2:2,0:0:0:0:
191,95,89064,5,2,3:2:0:0:
191,95,89248,2,0,B|186:66|186:66|181:56|181:56|177:25,2,68.0000012969971,2|0|10,2:2|3:3|2:2,0:0:0:0:
59,166,89985,2,0,P|26:159|4:134,2,68.0000012969971,2|8|8,2:2|3:1|2:1,0:0:0:0:
114,223,90537,5,8,2:1:0:0:
114,223,90721,2,0,P|165:220|181:301,1,136.000002593994,2|8,3:2|2:2,0:0:0:0:
235,348,91273,1,2,3:2:0:0:
296,305,91458,2,0,B|383:308|329:362|419:371,1,136.000002593994,2|8,3:2|2:2,0:0:0:0:
493,312,92010,5,2,3:2:0:0:
493,312,92194,1,2,2:2:0:0:
447,248,92378,1,2,3:2:0:0:
447,248,92562,2,0,P|452:202|458:168,1,68.0000012969971,10|2,2:2|3:2,0:0:0:0:
498,118,92931,1,2,2:2:0:0:
375,32,93299,1,10,2:2:0:0:
375,32,93483,1,2,3:2:0:0:
310,69,93667,6,0,P|278:60|244:54,2,68.0000012969971,2|2|10,3:2|2:2|2:2,0:0:0:0:
362,170,94219,1,0,3:3:0:0:
362,170,94312,1,2,2:2:0:0:
362,170,94404,2,0,P|294:180|229:198,1,136.000002593994,2|10,3:2|2:2,0:0:0:0:
172,276,94956,6,0,P|131:247|144:171,1,136.000002593994,2|2,3:2|3:2,0:0:0:0:
249,104,95508,1,10,2:2:0:0:
249,104,95693,1,2,3:2:0:0:
189,46,95877,1,2,2:2:0:0:
189,46,96061,2,0,P|137:68|83:81,1,111.999996582031,8|8,3:1|2:1,0:0:0:0:
5,173,96613,6,0,P|57:177|137:214,1,132.00000402832,6|0,3:2|2:0,0:0:0:0:
160,224,96981,1,10,2:2:0:0:
249,164,97166,1,2,3:2:0:0:
249,164,97350,2,0,P|242:120|235:77,1,88.000002685547,2|0,3:2|0:0,0:0:0:0:
338,219,97718,2,0,P|312:260|271:273,1,88.000002685547,10|0,2:2|3:3,0:0:0:0:
160,224,98086,6,0,P|91:239|94:334,1,176.000005371094,2|10,2:2|2:2,0:0:0:0:
196,384,98639,1,2,3:2:0:0:
196,384,98823,2,0,P|192:338|184:295,2,88.000002685547,2|0|10,2:2|3:3|2:2,0:0:0:0:
280,320,99375,5,2,3:2:0:0:
280,320,99559,2,0,B|359:319|315:364|406:363,1,132.00000402832,2|0,3:2|2:0,0:0:0:0:
419,347,99927,1,10,2:2:0:0:
510,290,100112,1,2,3:2:0:0:
510,290,100296,2,0,P|514:203|492:118,1,176.000005371094,2|10,3:2|2:2,0:0:0:0:
409,38,100848,1,2,3:2:0:0:
329,119,101032,6,0,B|268:95|268:95|241:65|241:65|175:41,1,176.000005371094,2|10,2:2|2:2,0:0:0:0:
79,8,101585,1,2,3:2:0:0:
79,8,101769,1,2,2:2:0:0:
19,94,101953,1,8,3:1:0:0:
96,165,102137,2,0,P|95:121|121:86,1,88.000002685547,8|2,2:1|3:2,0:0:0:0:
177,199,102505,6,0,P|138:251|75:254,1,132.00000402832,2|0,3:2|2:0,0:0:0:0:
40,234,102874,1,10,2:2:0:0:
4,329,103058,1,2,3:2:0:0:
4,329,103242,2,0,P|45:355|89:363,1,88.000002685547,2|0,3:2|0:0,0:0:0:0:
184,333,103610,1,10,2:2:0:0:
285,363,103794,5,2,3:2:0:0:
285,363,103978,2,0,P|295:316|306:275,1,88.000002685547,2|0,2:2|3:3,0:0:0:0:
362,188,104347,1,10,2:2:0:0:
282,126,104531,1,2,3:2:0:0:
282,126,104715,2,0,P|240:153|128:100,1,176.000005371094,2|10,2:2|2:2,0:0:0:0:
185,19,105267,5,2,3:2:0:0:
185,19,105451,2,0,P|228:22|263:47,1,88.000002685547,2|0,3:2|0:0,0:0:0:0:
368,82,105820,1,10,2:2:0:0:
368,82,106004,1,2,3:2:0:0:
448,13,106188,1,2,3:2:0:0:
499,206,106556,2,0,P|487:255|480:300,1,88.000002685547,10|0,2:2|3:3,0:0:0:0:
381,355,106924,6,0,B|267:338|338:298|224:277,1,176.000005371094,2|10,2:2|2:2,0:0:0:0:
135,324,107477,1,2,3:2:0:0:
135,324,107661,1,2,2:2:0:0:
157,220,107845,1,8,3:1:0:0:
56,251,108029,1,8,2:1:0:0:
265,177,108397,6,0,P|268:120|290:54,1,120,4|0,3:2|2:0,0:0:0:0:
272,35,108766,2,0,B|118:81|268:33|115:80,2,160,10|2|10,2:2|3:2|2:2,0:0:0:0:
82,6,109870,5,2,2:2:0:0:
16,195,110239,2,0,P|35:244|26:362,2,160,10|2|10,2:2|2:2|2:2,0:0:0:0:
46,109,111159,5,2,3:2:0:0:
46,109,111343,1,2,3:2:0:0:
219,224,111712,2,0,P|296:202|375:192,2,160,10|2|10,2:2|3:2|2:2,0:0:0:0:
150,302,112632,5,0,3:3:0:0:
150,302,112816,2,0,P|126:263|125:222,1,80,2|0,2:2|3:3,0:0:0:0:
78,135,113185,2,0,P|99:94|133:72,1,80,10|2,2:2|3:2,0:0:0:0:
222,114,113553,1,2,2:2:0:0:
411,25,113921,1,10,2:2:0:0:
411,25,114105,1,2,3:2:0:0:
479,115,114289,6,0,P|508:83|511:40,1,88.000002685547,4|0,3:2|0:0,0:0:0:0:
376,117,114658,1,10,2:2:0:0:
376,117,114842,1,0,3:3:0:0:
427,209,115026,2,0,P|413:260|404:299,1,88.000002685547,2|0,3:2|0:0,0:0:0:0:
320,357,115394,1,10,2:2:0:0:
257,278,115578,5,0,3:3:0:0:
257,278,115762,2,0,P|201:274|160:332,1,132.00000402832,2|0,2:2|2:0,0:0:0:0:
167,352,116131,1,10,2:2:0:0:
78,304,116315,1,0,3:3:0:0:
78,304,116499,1,2,2:2:0:0:
209,138,116867,1,10,2:2:0:0:
133,71,117051,5,2,3:2:0:0:
133,71,117236,2,0,P|82:78|46:185,1,176.000005371094,2|10,3:2|2:2,0:0:0:0:
141,237,117788,1,2,3:2:0:0:
141,237,117972,2,0,B|252:254|177:299|291:322,1,176.000005371094,2|10,3:2|2:2,0:0:0:0:
384,260,118524,1,2,3:2:0:0:
495,289,118709,6,0,P|532:237|476:150,1,176.000005371094,2|10,2:2|2:2,0:0:0:0:
384,116,119261,1,2,3:2:0:0:
384,116,119445,1,2,2:2:0:0:
351,16,119629,1,8,2:1:0:0:
453,41,119813,1,8,2:1:0:0:
245,189,120182,6,0,P|254:252|271:313,2,128,6|8|0,3:2|2:2|3:3,0:0:0:0:
152,82,121286,1,8,2:2:0:0:
152,82,121470,2,0,P|107:91|80:95,2,64,2|0|2,2:2|3:3|2:2,0:0:0:0:
212,33,122023,1,10,2:2:0:0:
212,33,122207,2,0,P|257:42|284:46,2,64,2|2|2,2:2|3:2|2:2,0:0:0:0:
148,177,122943,5,2,2:2:0:0:
148,177,123128,2,0,L|17:206,2,128,2|8|0,3:2|2:2|3:3,0:0:0:0:
291,232,124232,1,8,2:2:0:0:
291,232,124417,2,0,P|279:277|272:305,1,64,2|0,2:2|3:3,0:0:0:0:
331,345,124785,5,2,2:2:0:0:
331,344,124969,2,0,P|352:321|383:314,2,64,10|2|2,2:2|2:2|3:2,0:0:0:0:
178,371,125705,2,0,P|135:352|88:341,1,96,10|0,2:2|2:0,0:0:0:0:
56,361,126074,6,0,P|51:298|27:238,2,128,2|8|0,3:2|2:2|3:3,0:0:0:0:
166,255,127178,1,8,2:2:0:0:
166,255,127363,2,0,P|197:261|227:273,1,64,2|0,2:2|3:3,0:0:0:0:
293,235,127731,1,2,2:2:0:0:
293,235,127915,2,0,P|281:205|274:173,2,64,10|2|2,2:2|2:2|3:2,0:0:0:0:
364,262,128467,1,2,2:2:0:0:
491,176,128836,5,2,2:2:0:0:
491,176,129020,2,0,B|463:123|514:109|483:51,2,128,2|10|2,3:2|2:2|3:2,0:0:0:0:
370,81,130124,1,8,2:2:0:0:
369,80,130309,2,0,P|338:76|313:95,1,64,2|0,2:2|3:3,0:0:0:0:
254,143,130677,1,2,2:2:0:0:
254,143,130861,2,0,P|223:147|198:128,2,64,10|2|2,2:2|2:2|3:2,0:0:0:0:
362,252,131598,1,10,2:2:0:0:
238,343,131966,6,0,B|188:329|188:329|171:313|171:313|121:296,2,128,6|8|0,3:2|2:2|3:3,0:0:0:0:
176,201,133071,1,8,2:2:0:0:
176,201,133255,2,0,P|135:209|109:214,1,64,2|0,2:2|3:3,0:0:0:0:
61,156,133623,1,2,2:2:0:0:
61,156,133807,2,0,P|74:116|76:85,1,64,10|2,2:2|2:2,0:0:0:0:
145,54,134175,1,2,3:2:0:0:
32,261,134544,1,8,2:2:0:0:
86,321,134728,5,2,2:2:0:0:
86,320,134912,2,0,P|125:273|187:274,2,128,2|8|0,3:2|2:2|3:3,0:0:0:0:
175,196,136017,1,8,2:2:0:0:
175,196,136201,2,0,P|179:151|187:118,1,64,2|0,2:2|3:3,0:0:0:0:
106,71,136569,1,2,2:2:0:0:
106,71,136753,2,0,P|103:102|98:134,1,64,10|2,2:2|2:2,0:0:0:0:
31,165,137121,1,2,3:2:0:0:
245,5,137490,1,10,2:2:0:0:
375,86,137858,6,0,B|429:79|429:79|456:64|456:64|506:56,2,128,2|8|0,3:2|2:2|3:3,0:0:0:0:
239,159,138963,1,8,2:2:0:0:
239,159,139147,2,0,L|251:223,1,64,2|0,2:2|3:3,0:0:0:0:
319,266,139515,1,2,2:2:0:0:
319,266,139699,2,0,L|307:330,1,64,10|2,2:2|2:2,0:0:0:0:
236,359,140067,1,2,3:2:0:0:
414,307,140436,1,10,2:2:0:0:
482,342,140620,1,2,2:2:0:0:
482,342,140804,6,0,P|474:303|483:231,1,96,2|0,3:2|2:0,0:0:0:0:
487,224,141172,2,0,L|413:236,1,64,10|0,2:2|0:0,0:0:0:0:
345,163,141540,2,0,L|408:152,1,64,2|0,3:2|0:0,0:0:0:0:
297,223,141909,2,0,P|263:199|259:169,1,64,10|0,2:2|0:0,0:0:0:0:
221,111,142277,6,0,P|259:84|262:3,1,128,2|10,3:2|2:2,0:0:0:0:
192,34,142829,1,2,2:2:0:0:
192,34,143013,2,0,P|161:36|129:42,1,64,2|0,3:2|0:0,0:0:0:0:
74,97,143382,2,0,P|42:90|10:88,1,64,10|0,2:2|0:0,0:0:0:0:
132,146,143750,6,0,L|123:191,3,32,2|0|0|0,2:2|0:0|0:0|0:0,0:0:0:0:
91,211,144118,2,0,L|100:256,3,32,2|0|0|0,2:2|0:0|0:0|0:0,0:0:0:0:
145,274,144486,5,2,2:2:0:0:
145,274,144579,1,0,0:0:0:0:
145,274,144671,2,0,L|136:319,1,32,0|0,0:0|2:0,0:0:0:0:
102,333,144855,5,2,2:2:0:0:
102,333,144948,1,0,0:0:0:0:
102,333,145040,2,0,L|111:378,1,32,0|0,0:0|2:0,0:0:0:0:
162,381,145223,6,0,P|218:337|311:371,1,176.000005371094,6|10,3:2|2:0,0:0:0:0:
392,305,145775,1,2,3:2:0:0:
392,305,145960,2,0,P|399:262|383:221,1,88.000002685547,2|0,3:2|0:0,0:0:0:0:
306,149,146328,1,10,2:2:0:0:
211,195,146512,1,2,3:2:0:0:
128,129,146696,6,0,L|142:35,1,88.000002685547,2|0,2:2|3:3,0:0:0:0:
211,195,147064,2,0,L|197:289,1,88.000002685547,10|2,2:2|3:2,0:0:0:0:
115,348,147433,2,0,P|42:332|42:238,1,176.000005371094,2|10,2:2|2:2,0:0:0:0:
124,183,147985,1,2,3:2:0:0:
124,183,148169,2,0,B|230:181|169:237|288:261,1,176.000005371094,2|10,3:2|2:2,0:0:0:0:
365,202,148721,1,2,3:2:0:0:
365,202,148906,2,0,P|434:184|414:95,1,176.000005371094,2|10,3:2|2:2,0:0:0:0:
325,38,149458,1,2,3:2:0:0:
254,116,149642,6,0,B|184:133|184:133|162:154|162:154|91:175,1,176.000005371094,2|8,2:2|2:2,0:0:0:0:
5,222,150194,1,2,3:2:0:0:
5,222,150379,1,2,2:2:0:0:
4,116,150563,1,8,3:1:0:0:
91,174,150747,2,0,P|86:225|78:273,1,88.000002685547,8|2,2:1|3:2,0:0:0:0:
38,358,151115,6,0,P|87:295|175:318,1,176.000005371094,2|10,3:2|2:2,0:0:0:0:
266,359,151667,1,2,3:2:0:0:
266,359,151852,2,0,B|287:309|264:273|223:294|207:234|231:184,1,176.000005371094,2|10,3:2|2:2,0:0:0:0:
294,119,152404,5,2,3:2:0:0:
294,119,152588,1,2,2:2:0:0:
109,16,152956,1,10,2:2:0:0:
109,16,153141,1,2,3:2:0:0:
26,82,153325,2,0,P|37:132|42:174,1,88.000002685547,2|0,2:2|3:3,0:0:0:0:
118,240,153693,1,10,2:2:0:0:
118,240,153877,1,2,3:2:0:0:
210,189,154061,6,0,P|260:200|323:252,1,132.00000402832,2|0,3:2|2:0,0:0:0:0:
334,267,154429,1,10,2:2:0:0:
430,223,154614,1,2,3:2:0:0:
430,223,154798,2,0,P|419:180|410:137,1,88.000002685547,2|0,3:2|0:0,0:0:0:0:
487,58,155166,1,10,2:2:0:0:
391,4,155350,1,2,3:2:0:0:
304,72,155534,6,0,P|233:117|155:84,1,176.000005371094,2|8,2:2|2:2,0:0:0:0:
85,19,156087,1,2,3:2:0:0:
85,19,156271,1,2,2:2:0:0:
56,120,156455,1,8,3:1:0:0:
155,84,156639,1,8,2:1:0:0:
87,280,157007,6,0,P|31:290|16:346,1,120,4|0,3:2|2:0,0:0:0:0:
53,374,157375,2,0,B|210:335|58:370|212:331,2,160,10|2|10,2:2|3:2|2:2,0:0:0:0:
185,234,158480,2,0,P|209:204|207:165,1,80,2|0,2:2|3:3,0:0:0:0:
138,95,158848,2,0,P|114:126|118:165,1,80,10|0,2:2|3:3,0:0:0:0:
234,81,159217,2,0,L|313:97,1,80,2|0,2:2|3:3,0:0:0:0:
390,152,159585,1,10,2:2:0:0:
264,297,159953,6,0,P|216:306|133:341,1,120,0|0,3:3|2:0,0:0:0:0:
119,349,160322,2,0,B|84:259|157:279|123:190,2,160,10|2|10,2:2|3:2|2:2,0:0:0:0:
0,196,161426,2,0,P|5:158|36:135,1,80,2|0,2:2|3:3,0:0:0:0:
96,59,161795,2,0,P|134:52|164:77,1,80,10|0,2:2|3:3,0:0:0:0:
214,159,162163,1,2,2:2:0:0:
379,55,162531,1,10,2:2:0:0:
379,55,162715,1,2,3:2:0:0:
463,104,162899,6,0,P|421:146|312:133,1,176.000005371094,6|10,3:2|2:2,0:0:0:0:
249,54,163452,1,2,3:2:0:0:
249,54,163636,2,0,P|212:88|211:124,2,88.000002685547,2|0|10,3:2|0:0|2:2,0:0:0:0:
312,133,164188,5,2,3:2:0:0:
312,133,164372,1,2,2:2:0:0:
133,246,164741,1,10,2:2:0:0:
59,178,164925,1,2,3:2:0:0:
59,178,165109,2,0,P|45:227|33:271,1,88.000002685547,2|0,2:2|3:3,0:0:0:0:
109,345,165477,1,10,2:2:0:0:
109,345,165661,1,2,3:2:0:0:
206,304,165845,6,0,B|260:289|260:289|328:326,1,132.00000402832,2|0,3:2|2:0,0:0:0:0:
346,339,166214,1,10,2:2:0:0:
442,296,166398,1,2,3:2:0:0:
442,296,166582,2,0,B|414:251|427:206|462:228|486:170|449:130,1,176.000005371094,2|10,3:2|2:2,0:0:0:0:
251,27,167318,6,0,P|186:18|187:120,1,176.000005371094,2|8,2:2|2:2,0:0:0:0:
247,181,167871,1,2,3:2:0:0:
247,181,168055,1,2,2:2:0:0:
162,243,168239,1,8,3:1:0:0:
187,345,168423,2,0,P|235:323|248:289,1,88.000002685547,8|2,2:1|3:2,0:0:0:0:
161,243,168791,6,0,P|98:261|37:285,1,132.00000402832,6|0,3:2|2:0,0:0:0:0:
19,274,169160,1,10,2:2:0:0:
71,182,169344,1,2,3:2:0:0:
71,182,169528,2,0,P|52:130|54:93,2,88.000002685547,2|0|10,3:2|0:0|2:2,0:0:0:0:
150,112,170080,5,2,3:2:0:0:
150,112,170264,2,0,B|222:125|222:125|247:143|247:143|320:158,1,176.000005371094,2|10,2:2|2:2,0:0:0:0:
385,77,170817,1,2,3:2:0:0:
385,77,171001,2,0,P|357:35|319:31,1,88.000002685547,2|2,2:2|3:2,0:0:0:0:
218,49,171369,1,10,2:2:0:0:
123,2,171553,1,2,3:2:0:0:
48,76,171737,6,0,P|61:122|80:255,1,176.000005371094,2|10,3:2|2:2,0:0:0:0:
173,198,172290,1,2,3:2:0:0:
173,198,172474,2,0,B|253:210|200:240|293:271,1,132.00000402832,2|0,3:2|2:0,0:0:0:0:
293,256,172842,1,10,2:2:0:0:
436,359,173210,6,0,P|480:337|436:236,1,176.000005371094,2|10,2:2|2:2,0:0:0:0:
372,162,173763,1,2,3:2:0:0:
376,167,173947,1,2,2:2:0:0:
339,266,174131,1,8,3:1:0:0:
306,366,174315,2,0,P|260:358|235:320,1,88.000002685547,8|2,2:1|3:2,0:0:0:0:
199,227,174684,6,0,P|153:205|114:300,1,176.000005371094,2|10,3:2|2:2,0:0:0:0:
33,367,175236,1,2,3:2:0:0:
33,367,175420,2,0,P|27:313|9:193,1,176.000005371094,2|10,3:2|2:2,0:0:0:0:
70,106,175972,1,2,3:2:0:0:
70,106,176157,2,0,B|145:90|89:53|175:34,1,132.00000402832,2|0,2:2|2:0,0:0:0:0:
185,40,176525,1,10,2:2:0:0:
268,104,176709,1,2,3:2:0:0:
268,103,176893,2,0,P|299:74|300:31,1,88.000002685547,2|0,2:2|3:3,0:0:0:0:
170,145,177261,2,0,L|187:236,1,88.000002685547,10|2,2:2|3:2,0:0:0:0:
267,299,177630,5,2,3:2:0:0:
267,299,177814,1,2,2:2:0:0:
175,352,177998,1,10,2:2:0:0:
175,352,178182,1,2,3:2:0:0:
91,287,178366,1,2,3:2:0:0:
284,202,178734,2,0,P|333:210|359:242,1,88.000002685547,10|0,2:2|3:3,0:0:0:0:
460,259,179103,6,0,P|445:205|497:97,1,176.000005371094,2|8,2:2|2:2,0:0:0:0:
407,47,179655,1,2,3:2:0:0:
407,47,179839,1,2,2:2:0:0:
319,105,180023,1,8,3:1:0:0:
313,3,180207,1,8,2:1:0:0:
392,177,180576,6,0,P|333:186|280:212,1,120,4|0,3:2|2:0,0:0:0:0:
250,243,180944,2,0,B|233:239|218:229|208:212|204:190|204:190|202:171|196:148|175:133|151:124,2,160,10|2|10,2:2|3:2|2:2,0:0:0:0:
346,293,181864,1,0,3:3:0:0:
346,293,182049,2,0,L|362:376,1,80,2|0,2:2|3:3,0:0:0:0:
250,243,182417,2,0,L|266:160,1,80,10|0,2:2|3:3,0:0:0:0:
340,93,182785,2,0,P|319:59|283:44,1,80,2|0,2:2|3:3,0:0:0:0:
188,79,183153,1,10,2:2:0:0:
188,79,183338,1,2,3:2:0:0:
117,2,183522,6,0,B|61:13|61:13|41:34|41:34|0:45,1,120,0|0,3:3|2:0,0:0:0:0:
0,62,183890,2,0,P|77:73|123:136,2,160,10|2|10,2:2|3:2|2:2,0:0:0:0:
24,163,184811,1,0,3:3:0:0:
24,163,184995,2,0,P|53:212|74:224,1,80,2|0,2:2|3:3,0:0:0:0:
185,213,185363,2,0,L|199:133,1,80,10|0,2:2|3:3,0:0:0:0:
71,222,185731,2,0,L|57:302,1,80,2|0,2:2|3:3,0:0:0:0:
137,367,186099,1,10,2:2:0:0:
227,314,186284,1,2,3:2:0:0:
325,346,186468,6,0,P|371:324|373:224,1,160,6|10,3:2|2:2,0:0:0:0:
294,159,187020,1,2,3:2:0:0:
293,159,187204,2,0,P|254:167|216:176,1,80,2|2,3:2|2:2,0:0:0:0:
130,117,187572,1,10,2:2:0:0:
192,33,187757,5,2,3:2:0:0:
192,33,187941,2,0,P|270:49|347:68,1,160,2|10,2:2|2:2,0:0:0:0:
437,131,188493,1,2,3:2:0:0:
437,130,188677,2,0,P|457:97|455:57,1,80,2|0,2:2|3:3,0:0:0:0:
347,149,189045,1,10,2:2:0:0:
347,149,189230,1,2,3:2:0:0:
418,223,189414,6,0,P|341:242|263:260,1,160,2|10,3:2|2:2,0:0:0:0:
202,182,189966,1,2,3:2:0:0:
202,182,190150,2,0,P|218:133|129:91,1,160,2|10,3:2|2:2,0:0:0:0:
46,138,190703,1,2,3:2:0:0:
118,212,190887,6,0,B|122:269|122:269|114:302|114:302|122:370,1,160,2|8,2:2|2:2,0:0:0:0:
211,314,191439,1,2,3:2:0:0:
211,314,191623,1,2,2:2:0:0:
298,372,191807,1,8,3:1:0:0:
311,269,191992,1,8,2:1:0:0:
122,370,192360,6,0,P|66:352|58:284,1,120,6|0,3:2|2:0,0:0:0:0:
74,279,192728,2,0,P|84:241|83:201,1,80,10|0,2:2|3:3,0:0:0:0:
11,126,193096,2,0,P|0:164|1:204,1,80,2|0,3:2|0:0,0:0:0:0:
114,114,193465,1,10,2:2:0:0:
258,249,193833,6,0,B|368:250|298:196|398:190,1,160,2|10,2:2|2:2,0:0:0:0:
486,245,194385,1,2,3:2:0:0:
486,245,194569,2,0,P|506:202|494:164,1,80,2|0,2:2|3:3,0:0:0:0:
426,96,194938,1,10,2:2:0:0:
426,96,195122,1,2,3:2:0:0:
337,151,195306,6,0,P|272:112|270:36,1,160,2|10,3:2|2:2,0:0:0:0:
370,9,195858,1,2,3:2:0:0:
370,9,196042,1,2,3:2:0:0:
183,102,196411,1,8,2:2:0:0:
95,46,196595,5,2,3:2:0:0:
95,46,196779,2,0,P|67:80|111:179,1,160,2|8,2:2|2:2,0:0:0:0:
208,220,197331,1,2,3:2:0:0:
208,220,197515,1,2,2:2:0:0:
121,279,197700,1,8,3:1:0:0:
105,176,197884,2,0,P|130:139|166:134,1,80,8|0,2:1|3:3,0:0:0:0:
265,149,198252,6,0,B|317:142|317:142|336:125|336:125|377:119,1,120,6|0,3:2|2:0,0:0:0:0:
406,128,198620,2,0,P|433:89|422:57,1,80,10|0,2:2|3:3,0:0:0:0:
331,14,198988,2,0,L|251:30,1,80,2|0,3:2|0:0,0:0:0:0:
172,96,199357,1,10,2:2:0:0:
11,20,199725,6,0,P|53:63|37:157,1,160,2|10,2:2|2:2,0:0:0:0:
106,233,200277,1,2,3:2:0:0:
106,233,200461,2,0,P|190:220|233:216,1,120,2|0,2:2|2:0,0:0:0:0:
250,232,200830,1,10,2:2:0:0:
323,158,201014,1,2,3:2:0:0:
415,224,201198,6,0,P|401:302|389:381,1,160,2|10,3:2|2:2,0:0:0:0:
487,357,201750,1,2,3:2:0:0:
487,357,201934,2,0,P|498:277|512:199,1,160,2|8,3:2|2:2,0:0:0:0:
449,115,202487,1,2,3:2:0:0:
352,153,202671,2,0,P|286:136|274:47,1,160,2|8,2:2|2:2,0:0:0:0:
187,117,203223,1,2,3:2:0:0:
187,117,203407,1,2,2:2:0:0:
176,12,203592,1,8,3:1:0:0:
270,54,203776,1,8,2:1:0:0:
141,217,204144,6,0,B|67:189|104:252|17:227,1,120,6|0,3:2|2:0,0:0:0:0:
5,213,204512,2,0,P|27:181|29:141,1,80,10|0,2:2|3:3,0:0:0:0:
18,37,204881,2,0,P|47:62|86:70,1,80,2|0,3:2|0:0,0:0:0:0:
182,30,205249,1,10,2:2:0:0:
268,87,205433,5,0,3:3:0:0:
268,87,205617,2,0,B|295:138|228:171|286:243,1,160,2|10,2:2|2:2,0:0:0:0:
351,316,206169,2,0,P|320:340|281:346,1,80,2|2,3:2|2:2,0:0:0:0:
283,239,206538,1,2,3:2:0:0:
386,249,206722,1,10,2:2:0:0:
412,157,206906,1,2,3:2:0:0:
412,157,206998,1,2,2:2:0:0:
412,157,207090,6,0,L|389:33,1,120,2|0,3:2|2:0,0:0:0:0:
363,13,207458,1,10,2:2:0:0:
276,71,207642,1,0,3:3:0:0:
181,25,207827,2,0,P|138:47|138:159,1,160,0|8,3:3|2:2,0:0:0:0:
196,228,208379,5,0,3:3:0:0:
196,228,208563,2,0,B|133:249|133:249|114:271|114:271|54:296,1,160,2|10,2:2|2:2,0:0:0:0:
8,203,209115,2,0,P|3:161|26:129,1,80,2|2,3:2|2:2,0:0:0:0:
112,74,209484,1,8,3:1:0:0:
210,107,209668,2,0,P|230:73|225:35,1,80,8|2,2:1|3:2,0:0:0:0:
112,74,210036,6,0,P|123:132|132:192,1,120,6|0,3:2|2:0,0:0:0:0:
126,218,210404,2,0,P|159:198|198:202,1,80,10|0,2:2|3:3,0:0:0:0:
251,292,210773,2,0,P|217:312|178:308,1,80,2|0,3:2|0:0,0:0:0:0:
282,193,211141,2,0,L|366:218,1,80,10|0,2:2|3:3,0:0:0:0:
454,255,211509,6,0,P|492:208|440:129,1,160,2|10,2:2|2:2,0:0:0:0:
379,51,212062,2,0,B|301:79|381:51|300:80,1,80,2|2,3:2|2:2,0:0:0:0:
213,27,212430,1,0,3:3:0:0:
143,104,212614,1,10,2:2:0:0:
243,167,212798,1,0,3:3:0:0:
243,167,212890,1,0,0:0:0:0:
243,167,212982,6,0,L|270:287,1,120,2|0,3:2|2:0,0:0:0:0:
258,314,213350,1,10,2:2:0:0:
175,273,213535,1,0,3:3:0:0:
175,273,213719,2,0,P|133:255|81:339,1,160,0|8,3:3|2:2,0:0:0:0:
177,379,214271,1,0,3:3:0:0:
258,314,214455,6,0,B|254:247|254:247|244:231|244:231|238:153,1,160,2|10,2:2|2:2,0:0:0:0:
317,88,215008,2,0,P|294:48|219:52,1,120,2|0,3:2|2:0,0:0:0:0:
209,70,215376,1,8,3:1:0:0:
118,18,215560,2,0,P|73:27|34:32,2,80,8|0|0,2:1|3:3|0:0,0:0:0:0:
