osu file format v14

[General]
AudioFilename: audio.mp3
AudioLeadIn: 0
PreviewTime: 144579
Countdown: 0
SampleSet: Soft
StackLeniency: 0.4
Mode: 0
LetterboxInBreaks: 0
WidescreenStoryboard: 0

[Editor]
Bookmarks: 8232,14124,25908,37692,49476,52791,61261,67153,73045,78937,96613,108397,114289,120182,145223,157007,162899,168791,180576,186468,192360,198252,204144,210036,215928
DistanceSpacing: 0.8
BeatDivisor: 12
GridSize: 4
TimelineZoom: 1.4

[Metadata]
Title:Shinsekai
TitleUnicode:新世界
Artist:BUMP OF CHICKEN
ArtistUnicode:BUMP OF CHICKEN
Creator:Ascended
Version:Affection
Source:ベイビーアイラブユーだぜ
Tags:Baby I Love You Daze Aurora Arc japanese pop jpop j-pop advertisement commercial chocolate LOTTE ロッテ Ghana 藤原基央 motoo fujiwara バンプ・オブ・チキン MOR New World male vocalist vocals Mononymous
BeatmapID:3727652
BeatmapSetID:1817020

[Difficulty]
HPDrainRate:5
CircleSize:4
OverallDifficulty:8
ApproachRate:9
SliderMultiplier:2.4
SliderTickRate:1

[Events]
//Background and Video events
0,0,"3 am mapping be like.jpg",0,0
Video,-250,"the speedmapping method.mp4"
//Break Periods
//Storyboard Layer 0 (Background)
//Storyboard Layer 1 (Fail)
//Storyboard Layer 2 (Pass)
//Storyboard Layer 3 (Foreground)
//Storyboard Layer 4 (Overlay)
//Storyboard Sound Samples

[TimingPoints]
-606,368.256306389247,4,2,1,75,1,0
867,-200,4,2,1,75,0,0
5286,-500,4,2,1,75,0,0
8232,-133.333333333333,4,2,1,65,0,0
13663,-133.333333333333,4,2,1,65,0,0
13755,-133.333333333333,4,2,1,65,0,0
13847,-133.333333333333,4,2,1,65,0,0
13940,-133.333333333333,4,2,1,65,0,0
14124,-133.333333333333,4,2,1,65,0,0
25908,-133.333333333333,4,2,1,70,0,0
27657,-133.333333333333,4,2,1,5,0,0
27749,-133.333333333333,4,2,1,70,0,0
33549,-133.333333333333,4,2,1,5,0,0
33641,-133.333333333333,4,2,1,70,0,0
35022,-133.333333333333,4,2,1,5,0,0
35114,-133.333333333333,4,2,1,70,0,0
37692,-111.111111111111,4,2,1,75,0,0
37968,-111.111111111111,4,2,1,5,0,0
38060,-133.333333333333,4,2,1,75,0,0
39165,-111.111111111111,4,2,1,75,0,0
39441,-111.111111111111,4,2,1,5,0,0
39533,-133.333333333333,4,2,1,75,0,0
41651,-133.333333333333,4,2,1,5,0,0
41743,-133.333333333333,4,2,1,75,0,0
42111,-105.263157894737,4,2,1,75,0,0
42387,-105.263157894737,4,2,1,5,0,0
42479,-105.263157894737,4,2,1,75,0,0
43032,-133.333333333333,4,2,1,75,0,0
43124,-133.333333333333,4,2,1,5,0,0
43216,-133.333333333333,4,2,1,75,0,0
43308,-133.333333333333,4,2,1,5,0,0
43400,-133.333333333333,4,2,1,75,0,0
43584,-111.111111111111,4,2,1,75,0,0
43860,-111.111111111111,4,2,1,5,0,0
43953,-111.111111111111,4,2,1,75,0,0
45333,-111.111111111111,4,2,1,5,0,0
45426,-111.111111111111,4,2,1,75,0,0
46530,-133.333333333333,4,2,1,75,0,0
48003,-100,4,2,1,75,0,0
48279,-100,4,2,1,5,0,0
48372,-100,4,2,1,75,0,0
48924,-133.333333333333,4,2,1,75,0,0
49016,-133.333333333333,4,2,1,5,0,0
49108,-133.333333333333,4,2,1,75,0,0
49200,-133.333333333333,4,2,1,5,0,0
49292,-133.333333333333,4,2,1,75,0,0
49476,-100,4,2,1,75,0,0
55368,-133.333333333333,4,2,1,75,0,0
56381,-133.333333333333,4,2,1,5,0,0
56473,-133.333333333333,4,2,1,75,0,0
58591,-133.333333333333,4,2,1,5,0,0
58683,-133.333333333333,4,2,1,75,0,0
59788,-105.263157894737,4,2,1,75,0,0
60708,-133.333333333333,4,2,1,75,0,0
60800,-133.333333333333,4,2,1,5,0,0
60892,-133.333333333333,4,2,1,75,0,0
60984,-133.333333333333,4,2,1,5,0,0
61076,-133.333333333333,4,2,1,75,0,0
61261,-153.846153846153,4,2,1,75,0,0
66554,-133.333333333333,4,2,1,75,0,0
66600,-133.333333333333,4,2,1,75,0,0
66692,-133.333333333333,4,2,1,5,0,0
66784,-133.333333333333,4,2,1,75,0,0
66876,-133.333333333333,4,2,1,5,0,0
66968,-133.333333333333,4,2,1,75,0,0
67153,-133.333333333333,4,2,1,75,0,0
72492,-133.333333333333,4,2,1,75,0,0
72584,-133.333333333333,4,2,1,5,0,0
72676,-133.333333333333,4,2,1,75,0,0
72768,-133.333333333333,4,2,1,5,0,0
72861,-133.333333333333,4,2,1,75,0,0
73045,-222.222222222221,4,2,1,60,0,0
75530,-222.222222222221,4,2,1,5,0,0
75623,-222.222222222221,4,2,1,60,0,0
78108,-222.222222222221,4,2,1,5,0,0
78384,-222.222222222221,4,2,1,60,0,0
78937,-133.333333333333,4,2,1,65,0,0
84369,-133.333333333333,4,2,1,5,0,0
84461,-133.333333333333,4,2,1,65,0,0
84553,-133.333333333333,4,2,1,5,0,0
84645,-133.333333333333,4,2,1,65,0,0
84737,-133.333333333333,4,2,1,5,0,0
84829,-133.333333333333,4,2,1,65,0,0
89524,-133.333333333333,4,2,1,5,0,0
89616,-133.333333333333,4,2,1,65,0,0
90261,-133.333333333333,4,2,1,5,0,0
90353,-133.333333333333,4,2,1,65,0,0
90445,-133.333333333333,4,2,1,5,0,0
90537,-133.333333333333,4,2,1,65,0,0
90629,-133.333333333333,4,2,1,5,0,0
90721,-133.333333333333,4,2,1,65,0,0
96061,-200,4,2,1,65,0,0
96153,-133.333333333333,4,2,1,65,0,0
96245,-133.333333333333,4,2,1,65,0,0
96429,-133.333333333333,4,2,1,65,0,0
96521,-133.333333333333,4,2,1,5,0,0
96610,-111.111111111111,4,2,1,65,0,0
96613,-111.111111111111,4,2,1,70,0,0
96886,-111.111111111111,4,2,1,70,0,0
96889,-111.111111111111,4,2,1,5,0,0
96978,-133.333333333333,4,2,1,70,0,0
98083,-111.111111111111,4,2,1,70,0,0
98359,-111.111111111111,4,2,1,70,0,0
98362,-111.111111111111,4,2,1,5,0,0
98451,-133.333333333333,4,2,1,70,0,0
100569,-133.333333333333,4,2,1,70,0,0
100572,-133.333333333333,4,2,1,5,0,0
100661,-133.333333333333,4,2,1,70,0,0
101029,-105.263157894737,4,2,1,70,0,0
101305,-105.263157894737,4,2,1,70,0,0
101308,-105.263157894737,4,2,1,5,0,0
101397,-105.263157894737,4,2,1,70,0,0
101950,-133.333333333333,4,2,1,70,0,0
102042,-133.333333333333,4,2,1,70,0,0
102045,-133.333333333333,4,2,1,5,0,0
102134,-133.333333333333,4,2,1,70,0,0
102226,-133.333333333333,4,2,1,70,0,0
102229,-133.333333333333,4,2,1,5,0,0
102318,-133.333333333333,4,2,1,70,0,0
102502,-111.111111111111,4,2,1,70,0,0
102778,-111.111111111111,4,2,1,70,0,0
102781,-111.111111111111,4,2,1,5,0,0
102871,-111.111111111111,4,2,1,70,0,0
104251,-111.111111111111,4,2,1,70,0,0
104254,-111.111111111111,4,2,1,5,0,0
104344,-111.111111111111,4,2,1,70,0,0
105448,-133.333333333333,4,2,1,70,0,0
106921,-100,4,2,1,70,0,0
107197,-100,4,2,1,70,0,0
107200,-100,4,2,1,5,0,0
107290,-100,4,2,1,70,0,0
107842,-133.333333333333,4,2,1,70,0,0
107845,-133.333333333333,4,2,1,70,0,0
107937,-133.333333333333,4,2,1,5,0,0
108026,-133.333333333333,4,2,1,70,0,0
108121,-133.333333333333,4,2,1,5,0,0
108210,-133.333333333333,4,2,1,70,0,0
108213,-133.333333333333,4,2,1,70,0,0
108394,-100,4,2,1,70,0,0
114286,-133.333333333333,4,2,1,70,0,0
114565,-133.333333333333,4,2,1,5,0,0
114658,-133.333333333333,4,2,1,70,0,0
115299,-133.333333333333,4,2,1,70,0,0
115391,-133.333333333333,4,2,1,70,0,0
117509,-133.333333333333,4,2,1,70,0,0
117512,-133.333333333333,4,2,1,5,0,0
117601,-133.333333333333,4,2,1,70,0,0
118706,-105.263157894737,4,2,1,70,0,0
119626,-133.333333333333,4,2,1,70,0,0
119721,-133.333333333333,4,2,1,5,0,0
119813,-133.333333333333,4,2,1,70,0,0
119905,-133.333333333333,4,2,1,5,0,0
119997,-133.333333333333,4,2,1,70,0,0
120182,-200,4,2,1,60,0,0
131966,-200,4,2,1,65,0,0
134451,-200,4,2,1,5,0,0
134544,-200,4,2,1,65,0,0
137858,-166.666666666667,4,2,1,65,0,0
141172,-125,4,2,1,65,0,0
141448,-125,4,2,1,5,0,0
141540,-125,4,2,1,65,0,0
141816,-125,4,2,1,5,0,0
141909,-125,4,2,1,65,0,0
142185,-125,4,2,1,5,0,0
142277,-125,4,2,1,65,0,0
143750,-166.666666666667,4,2,1,35,0,0
144118,-166.666666666667,4,2,1,45,0,0
144486,-166.666666666667,4,2,1,55,0,0
144855,-166.666666666667,4,2,1,65,0,0
145223,-111.111111111111,4,2,1,75,0,0
145499,-111.111111111111,4,2,1,5,0,0
145591,-111.111111111111,4,2,1,75,0,0
146236,-111.111111111111,4,2,1,5,0,0
146328,-111.111111111111,4,2,1,75,0,0
146696,-111.111111111111,4,2,1,75,0,0
146972,-111.111111111111,4,2,1,5,0,0
147064,-111.111111111111,4,2,1,75,0,0
147433,-111.111111111111,4,2,1,75,0,0
147709,-111.111111111111,4,2,1,5,0,0
147801,-111.111111111111,4,2,1,75,0,0
148169,-133.333333333333,4,2,1,75,0,0
148445,-133.333333333333,4,2,1,5,0,0
148537,-133.333333333333,4,2,1,75,0,0
149640,-117.647058823529,4,2,1,75,0,0
150561,-133.333333333333,4,2,1,75,0,0
150653,-133.333333333333,4,2,1,5,0,0
150745,-133.333333333333,4,2,1,75,0,0
150838,-133.333333333333,4,2,1,5,0,0
150931,-133.333333333333,4,2,1,75,0,0
151115,-111.111111111111,4,2,1,75,0,0
151391,-111.111111111111,4,2,1,5,0,0
151483,-111.111111111111,4,2,1,75,0,0
152128,-111.111111111111,4,2,1,5,0,0
152220,-111.111111111111,4,2,1,75,0,0
152404,-133.333333333333,4,2,1,75,0,0
152863,-133.333333333333,4,2,1,75,0,0
152955,-133.333333333333,4,2,1,75,0,0
154060,-125,4,2,1,75,0,0
154337,-125,4,2,1,5,0,0
154429,-125,4,2,1,75,0,0
155534,-105.263157894737,4,2,1,75,0,0
155810,-105.263157894737,4,2,1,5,0,0
155902,-105.263157894737,4,2,1,75,0,0
156455,-133.333333333333,4,2,1,75,0,0
156547,-133.333333333333,4,2,1,5,0,0
156639,-133.333333333333,4,2,1,75,0,0
156731,-133.333333333333,4,2,1,5,0,0
156823,-133.333333333333,4,2,1,75,0,0
157007,-100,4,2,1,75,0,0
157375,-100,4,2,1,75,0,0
157651,-100,4,2,1,5,0,0
157744,-100,4,2,1,75,0,0
158020,-100,4,2,1,5,0,0
158112,-100,4,2,1,75,0,0
158388,-100,4,2,1,5,0,0
158480,-100,4,2,1,75,0,0
160597,-100,4,2,1,5,0,0
160690,-100,4,2,1,75,0,0
160966,-100,4,2,1,5,0,0
161058,-100,4,2,1,75,0,0
161334,-100,4,2,1,5,0,0
161426,-100,4,2,1,75,0,0
162899,-111.111111111111,4,2,1,75,0,0
163175,-111.111111111111,4,2,1,5,0,0
163268,-111.111111111111,4,2,1,75,0,0
163912,-111.111111111111,4,2,1,5,0,0
164004,-111.111111111111,4,2,1,75,0,0
168239,-133.333333333333,4,2,1,75,0,0
168331,-133.333333333333,4,2,1,5,0,0
168423,-133.333333333333,4,2,1,75,0,0
168515,-133.333333333333,4,2,1,5,0,0
168607,-133.333333333333,4,2,1,75,0,0
168791,-111.111111111111,4,2,1,75,0,0
169067,-111.111111111111,4,2,1,5,0,0
169160,-111.111111111111,4,2,1,75,0,0
169252,-111.111111111111,4,2,1,5,0,0
169344,-111.111111111111,4,2,1,75,0,0
170540,-111.111111111111,4,2,1,5,0,0
170633,-111.111111111111,4,2,1,75,0,0
170725,-111.111111111111,4,2,1,5,0,0
170817,-111.111111111111,4,2,1,75,0,0
172013,-111.111111111111,4,2,1,5,0,0
172106,-111.111111111111,4,2,1,75,0,0
173210,-100,4,2,1,75,0,0
173486,-100,4,2,1,5,0,0
173579,-100,4,2,1,75,0,0
174131,-133.333333333333,4,2,1,75,0,0
174223,-133.333333333333,4,2,1,5,0,0
174315,-133.333333333333,4,2,1,75,0,0
174407,-133.333333333333,4,2,1,5,0,0
174499,-133.333333333333,4,2,1,75,0,0
174684,-111.111111111111,4,2,1,75,0,0
174960,-111.111111111111,4,2,1,5,0,0
175052,-111.111111111111,4,2,1,75,0,0
175420,-133.333333333333,4,2,1,75,0,0
176064,-133.333333333333,4,2,1,5,0,0
176157,-111.111111111111,4,2,1,75,0,0
178366,-111.111111111111,4,2,1,75,0,0
178642,-111.111111111111,4,2,1,5,0,0
178734,-111.111111111111,4,2,1,75,0,0
178826,-111.111111111111,4,2,1,5,0,0
178918,-111.111111111111,4,2,1,75,0,0
180023,-133.333333333333,4,2,1,75,0,0
180115,-133.333333333333,4,2,1,5,0,0
180207,-133.333333333333,4,2,1,75,0,0
180299,-133.333333333333,4,2,1,5,0,0
180391,-133.333333333333,4,2,1,75,0,0
180576,-100,4,2,1,70,0,0
181220,-100,4,2,1,5,0,0
181312,-100,4,2,1,70,0,0
181588,-100,4,2,1,5,0,0
181680,-100,4,2,1,70,0,0
181956,-100,4,2,1,5,0,0
182049,-100,4,2,1,70,0,0
184166,-100,4,2,1,5,0,0
184258,-100,4,2,1,70,0,0
184534,-100,4,2,1,5,0,0
184626,-100,4,2,1,70,0,0
184902,-100,4,2,1,5,0,0
184995,-100,4,2,1,70,0,0
186468,-111.111111111111,4,2,1,70,0,0
186744,-111.111111111111,4,2,1,5,0,0
186836,-111.111111111111,4,2,1,70,0,0
186928,-111.111111111111,4,2,1,5,0,0
187020,-111.111111111111,4,2,1,70,0,0
188217,-111.111111111111,4,2,1,5,0,0
188309,-111.111111111111,4,2,1,70,0,0
188401,-111.111111111111,4,2,1,5,0,0
188493,-111.111111111111,4,2,1,70,0,0
189690,-111.111111111111,4,2,1,5,0,0
189782,-111.111111111111,4,2,1,70,0,0
190426,-111.111111111111,4,2,1,5,0,0
190519,-111.111111111111,4,2,1,70,0,0
190611,-111.111111111111,4,2,1,5,0,0
190703,-111.111111111111,4,2,1,70,0,0
190795,-111.111111111111,4,2,1,5,0,0
190887,-111.111111111111,4,2,1,70,0,0
191807,-133.333333333333,4,2,1,70,0,0
191899,-133.333333333333,4,2,1,5,0,0
191991,-133.333333333333,4,2,1,70,0,0
192083,-133.333333333333,4,2,1,5,0,0
192175,-133.333333333333,4,2,1,70,0,0
192360,-100,4,2,1,65,0,0
193465,-133.333333333333,4,2,1,65,0,0
194109,-133.333333333333,4,2,1,5,0,0
194201,-133.333333333333,4,2,1,65,0,0
197702,-133.333333333333,4,2,1,65,0,0
197792,-133.333333333333,4,2,1,5,0,0
197884,-133.333333333333,4,2,1,65,0,0
197976,-133.333333333333,4,2,1,5,0,0
198068,-133.333333333333,4,2,1,65,0,0
198252,-100,4,2,1,65,0,0
199357,-133.333333333333,4,2,1,65,0,0
200001,-133.333333333333,4,2,1,5,0,0
200093,-133.333333333333,4,2,1,65,0,0
203594,-133.333333333333,4,2,1,65,0,0
203684,-133.333333333333,4,2,1,5,0,0
203776,-133.333333333333,4,2,1,65,0,0
203868,-133.333333333333,4,2,1,5,0,0
203960,-133.333333333333,4,2,1,65,0,0
204144,-133.333333333333,4,2,1,60,0,0
206814,-133.333333333333,4,2,1,5,0,0
206906,-133.333333333333,4,2,1,60,0,0
209576,-133.333333333333,4,2,1,5,0,0
209668,-133.333333333333,4,2,1,60,0,0
209760,-133.333333333333,4,2,1,5,0,0
209852,-133.333333333333,4,2,1,60,0,0
212706,-133.333333333333,4,2,1,5,0,0
212798,-133.333333333333,4,2,1,60,0,0
215468,-133.333333333333,4,2,1,5,0,0
215560,-266.666666666667,4,2,1,60,0,0
215928,-266.666666666667,4,2,1,30,0,0

[Colours]
Combo1 : 240,140,140
Combo2 : 200,180,220
Combo3 : 240,200,155
Combo4 : 150,185,220

[HitObjects]
18,31,867,6,0,B|115:12|89:83|162:120,1,180,6|0,2:2|0:0,0:0:0:0:
340,76,1603,6,0,B|274:6|274:6|195:37,1,180,6|0,2:2|0:0,0:0:0:0:
291,185,2340,6,0,P|172:153|52:141,1,240,6|2,2:2|2:2,0:0:0:0:
56,141,3813,6,0,P|41:221|126:255,1,180,6|0,2:2|0:0,0:0:0:0:
298,267,4549,6,0,B|200:248|228:318|147:348,1,180,6|0,2:2|0:0,0:0:0:0:
255,179,5286,6,0,B|327:147|333:59|279:1|279:1|204:28|219:101,1,336,6|0,2:2|0:0,0:0:0:0:
301,359,8232,6,0,P|355:373|399:390,1,90.0000034332277,6|2,3:2|2:2,0:0:0:0:
360,285,8600,1,8,2:2:0:0:
211,326,8784,6,0,P|197:272|180:228,1,90.0000034332277,2|0,3:2|3:3,0:0:0:0:
278,259,9152,2,0,P|292:205|300:158,1,90.0000034332277,2|8,2:2|2:2,0:0:0:0:
118,308,9521,6,0,P|75:292|31:282,1,90.0000034332277,2|0,3:2|0:0,0:0:0:0:
217,162,9889,5,2,3:2:0:0:
85,205,10073,2,0,P|87:129|184:93,1,180.000006866455,8|2,2:2|2:2,0:0:0:0:
315,81,10625,5,0,3:3:0:0:
236,25,10809,1,8,2:2:0:0:
319,85,10994,1,0,3:3:0:0:
459,8,11178,6,0,P|443:50|433:94,1,90.0000034332277,2|2,3:2|2:2,0:0:0:0:
498,154,11546,1,8,2:2:0:0:
401,355,11730,6,0,P|392:310|380:267,1,90.0000034332277,2|0,3:2|3:3,0:0:0:0:
287,284,12098,2,0,P|302:241|312:197,1,90.0000034332277,2|8,2:2|2:2,0:0:0:0:
498,154,12467,6,0,P|455:169|411:179,1,90.0000034332277,2|0,3:2|0:0,0:0:0:0:
311,365,12835,5,2,3:2:0:0:
481,380,13019,2,0,P|469:305|369:270,1,180.000006866455,8|2,2:2|2:2,0:0:0:0:
240,140,13571,5,8,3:1:0:0:
266,53,13755,1,8,2:1:0:0:
71,178,13940,5,2,3:2:0:0:
169,260,14124,2,0,B|80:245|103:320|18:350,1,180.000006866455,6|8,3:2|2:2,0:0:0:0:
71,178,14676,5,2,3:2:0:0:
173,264,14860,2,0,P|230:247|236:135,1,180.000006866455,2|8,3:2|2:2,0:0:0:0:
146,103,15413,5,2,3:2:0:0:
280,239,15597,2,0,P|334:253|378:270,1,90.0000034332277,2|0,2:2|3:3,0:0:0:0:
512,347,15965,5,10,2:2:0:0:
483,218,16149,1,2,3:2:0:0:
454,89,16333,2,0,P|468:35|485:-9,1,90.0000034332277,2|0,2:2|3:3,0:0:0:0:
345,169,16702,5,10,2:2:0:0:
345,169,16886,1,2,3:2:0:0:
245,36,17070,6,0,P|164:50|131:136,1,180.000006866455,2|8,3:2|2:2,0:0:0:0:
211,271,17622,1,2,3:2:0:0:
132,223,17806,5,2,3:2:0:0:
132,223,17990,1,2,2:2:0:0:
45,344,18175,2,0,P|88:330|137:320,1,90.0000034332277,10|2,2:2|3:2,0:0:0:0:
371,344,18543,5,2,2:2:0:0:
211,271,18727,1,0,3:3:0:0:
355,170,18911,1,10,2:2:0:0:
320,264,19279,5,2,2:2:0:0:
320,264,19463,1,0,3:3:0:0:
417,248,19648,5,10,2:2:0:0:
255,60,19832,5,2,3:2:0:0:
209,175,20016,2,0,P|144:153|136:39,1,180.000006866455,2|8,3:2|2:2,0:0:0:0:
255,60,20568,5,2,3:2:0:0:
213,179,20752,2,0,B|227:286|177:277|183:356,1,180.000006866455,2|8,3:2|2:2,0:0:0:0:
127,227,21305,5,2,3:2:0:0:
264,334,21489,2,0,P|307:320|356:310,1,90.0000034332277,2|0,2:2|3:3,0:0:0:0:
451,179,21857,5,10,2:2:0:0:
322,150,22041,1,2,3:2:0:0:
193,121,22225,2,0,P|139:135|95:152,1,90.0000034332277,2|0,2:2|3:3,0:0:0:0:
300,233,22594,5,10,2:2:0:0:
300,233,22778,1,2,3:2:0:0:
400,87,22962,5,2,3:2:0:0:
274,59,23146,1,2,2:2:0:0:
404,91,23330,1,8,2:2:0:0:
150,313,23698,6,0,P|140:268|126:226,1,90.0000034332277,2|2,3:2|2:2,0:0:0:0:
180,148,24067,1,10,2:2:0:0:
146,317,24251,6,0,P|84:306|44:199,1,180.000006866455,2|0,3:2|3:3,0:0:0:0:
23,65,24803,2,0,P|65:78|109:88,1,90.0000034332277,10|2,2:2|3:2,0:0:0:0:
261,129,25171,6,0,P|303:115|347:105,1,90.0000034332277,2|0,2:2|3:3,0:0:0:0:
281,37,25540,1,10,2:2:0:0:
323,197,25724,5,2,3:2:0:0:
406,306,25908,2,0,B|292:291|319:352|247:373,1,180.000006866455,6|8,3:2|2:2,0:0:0:0:
323,197,26460,6,0,P|278:206|236:220,1,90.0000034332277,2|2,3:2|3:2,0:0:0:0:
410,302,26829,2,0,P|423:259|433:215,1,90.0000034332277,2|8,2:2|2:2,0:0:0:0:
481,33,27197,5,2,3:2:0:0:
489,132,27381,2,0,P|423:120|388:57,1,135.000005149841,2|0,2:2|2:0,0:0:0:0:
392,61,27749,5,10,2:2:0:0:
263,90,27933,1,2,3:2:0:0:
134,119,28117,2,0,P|80:105|36:88,1,90.0000034332277,2|0,2:2|3:3,0:0:0:0:
184,27,28486,5,10,2:2:0:0:
184,27,28670,1,2,3:2:0:0:
213,191,28854,6,0,P|137:209|105:300,1,180.000006866455,2|8,3:2|2:2,0:0:0:0:
153,377,29406,1,2,3:2:0:0:
100,301,29591,6,0,P|46:315|2:332,1,90.0000034332277,2|2,3:2|2:2,0:0:0:0:
226,326,29959,2,0,P|280:312|324:295,1,90.0000034332277,10|2,2:2|3:2,0:0:0:0:
373,153,30327,6,0,B|359:260|409:236|403:330,2,180.000006866455,2|10|2,2:2|2:2|2:2,0:0:0:0:
341,76,31248,1,0,3:3:0:0:
419,46,31432,1,10,2:2:0:0:
465,192,31616,5,2,3:2:0:0:
312,300,31800,2,0,P|236:263|250:178,1,180.000006866455,2|8,3:2|2:2,0:0:0:0:
465,192,32352,6,0,P|479:246|496:290,1,90.0000034332277,2|2,3:2|3:2,0:0:0:0:
316,296,32721,2,0,P|358:311|402:321,1,90.0000034332277,2|8,2:2|2:2,0:0:0:0:
339,195,33089,5,2,3:2:0:0:
215,296,33273,2,0,B|135:285|153:322|83:318,1,135.000005149841,2|0,2:2|2:0,0:0:0:0:
80,314,33641,5,10,2:2:0:0:
51,185,33825,1,2,3:2:0:0:
21,59,34009,2,0,P|75:73|119:90,1,90.0000034332277,2|0,2:2|3:3,0:0:0:0:
228,220,34378,5,10,2:2:0:0:
228,220,34562,1,2,3:2:0:0:
421,126,34746,6,0,B|349:104|349:104|300:141,1,135.000005149841,2|0,3:2|2:0,0:0:0:0:
297,143,35114,2,0,P|312:185|322:229,1,90.0000034332277,8|0,2:2|3:3,0:0:0:0:
364,363,35483,5,2,3:2:0:0:
433,319,35667,1,2,2:2:0:0:
368,367,35851,1,10,2:2:0:0:
140,235,36035,6,0,B|243:207|220:297|296:313,1,180.000006866455,2|0,3:2|3:3,0:0:0:0:
203,384,36587,2,0,P|163:356|160:311,1,90.0000034332277,10|2,2:2|3:2,0:0:0:0:
322,229,36956,5,2,2:2:0:0:
197,139,37140,1,0,3:3:0:0:
303,0,37324,6,0,P|287:42|277:86,1,90.0000034332277,10|2,2:2|3:2,0:0:0:0:
468,295,37692,6,0,B|500:221|500:221|436:150,1,161.999995056153,6|0,3:2|2:0,0:0:0:0:
441,156,38060,2,0,P|397:144|355:129,1,90.0000034332277,10|2,2:2|3:2,0:0:0:0:
282,280,38429,2,0,P|297:322|308:365,1,90.0000034332277,2|0,3:2|0:0,0:0:0:0:
374,238,38797,5,10,2:2:0:0:
374,238,38981,1,2,3:2:0:0:
122,209,39165,6,0,B|90:135|90:135|154:64,1,161.999995056153,2|0,2:2|2:0,0:0:0:0:
149,70,39533,2,0,P|192:58|234:43,1,90.0000034332277,10|2,2:2|3:2,0:0:0:0:
308,194,39902,2,0,P|292:236|281:279,1,90.0000034332277,2|0,2:2|3:3,0:0:0:0:
216,152,40270,5,10,2:2:0:0:
216,152,40454,1,2,3:2:0:0:
11,266,40638,6,0,B|110:247|87:339|159:358,1,180.000006866455,2|10,3:2|2:2,0:0:0:0:
32,346,41191,1,2,3:2:0:0:
192,284,41375,6,0,P|250:290|272:372,1,135.000005149841,2|0,3:2|2:0,0:0:0:0:
281,358,41743,2,0,P|323:342|366:331,1,90.0000034332277,10|0,2:2|3:3,0:0:0:0:
489,156,42111,6,0,B|405:178|405:178|343:110,1,170.999995433807,2|0,2:2|2:0,0:0:0:0:
344,111,42479,2,0,P|358:49|365:-2,1,113.999996955872,10|2,2:2|3:2,0:0:0:0:
437,69,42848,1,2,2:2:0:0:
373,258,43032,6,0,L|378:302,1,45.0000017166138,8|0,3:1|2:0,0:0:0:0:
389,310,43216,2,0,L|383:265,1,45.0000017166138,8|0,2:1|2:0,0:0:0:0:
260,163,43400,5,2,3:2:0:0:
260,163,43492,1,2,2:2:0:0:
260,163,43584,2,0,P|193:163|160:253,1,161.999995056153,2|0,3:2|2:0,0:0:0:0:
152,244,43953,2,0,P|90:230|41:223,1,107.999996704102,10|2,2:2|3:2,0:0:0:0:
297,319,44321,6,0,B|274:215|380:238|343:115,1,215.999993408203,2|8,3:2|2:2,0:0:0:0:
269,72,44873,1,2,3:2:0:0:
382,206,45057,6,0,P|453:203|494:292,1,161.999995056153,2|0,2:2|2:0,0:0:0:0:
492,277,45426,2,0,P|435:285|380:297,1,107.999996704102,10|2,2:2|3:2,0:0:0:0:
221,375,45794,6,0,P|244:269|259:162,1,215.999993408203,2|10,2:2|2:2,0:0:0:0:
191,58,46346,1,2,3:2:0:0:
300,84,46530,6,0,P|216:83|170:173,1,180.000006866455,2|10,3:2|2:2,0:0:0:0:
147,311,47083,1,2,3:2:0:0:
75,253,47267,6,0,P|64:202|57:152,1,90.0000034332277,2|0,3:2|0:0,0:0:0:0:
228,256,47635,2,0,P|238:306|245:356,1,90.0000034332277,10|0,2:2|3:3,0:0:0:0:
169,157,48003,6,0,B|241:103|241:103|329:136,1,180,2|0,2:2|2:0,0:0:0:0:
329,138,48372,2,0,P|390:146|450:160,1,120,8|2,2:2|3:2,0:0:0:0:
378,237,48740,5,2,2:2:0:0:
440,44,48924,6,0,L|396:49,1,45.0000017166138,8|0,3:1|2:0,0:0:0:0:
388,60,49108,2,0,L|433:54,1,45.0000017166138,8|0,2:1|2:0,0:0:0:0:
83,223,49476,5,4,3:2:0:0:
83,223,49845,6,0,P|57:100|1:2,2,240,10|2|10,2:2|3:2|2:2,0:0:0:0:
332,159,50949,5,2,2:2:0:0:
332,159,51134,1,0,3:3:0:0:
302,66,51318,5,10,2:2:0:0:
302,66,51503,1,0,3:3:0:0:
375,0,51686,5,2,2:2:0:0:
375,0,51871,1,0,3:3:0:0:
468,25,52054,5,10,2:2:0:0:
498,119,52238,1,2,3:2:0:0:
425,184,52422,1,0,3:3:0:0:
425,184,52791,6,0,P|309:210|232:299,2,240,10|2|10,2:2|3:2|2:2,0:0:0:0:
270,384,53895,5,2,2:2:0:0:
270,384,54080,1,0,3:3:0:0:
170,355,54263,5,10,2:2:0:0:
170,355,54448,1,0,3:3:0:0:
146,262,54632,5,2,2:2:0:0:
146,262,54817,1,0,3:3:0:0:
302,186,55000,5,10,2:2:0:0:
201,79,55184,1,2,3:2:0:0:
250,2,55368,6,0,P|238:54|211:182,1,180.000006866455,6|10,3:2|2:2,0:0:0:0:
253,268,55921,1,2,3:2:0:0:
387,164,56105,6,0,P|446:175|466:246,1,135.000005149841,2|0,3:2|2:0,0:0:0:0:
463,244,56473,2,0,P|472:287|482:331,1,90.0000034332277,10|2,2:2|3:2,0:0:0:0:
300,363,56841,5,2,2:2:0:0:
171,334,57025,1,2,3:2:0:0:
42,305,57210,2,0,P|56:251|73:207,1,90.0000034332277,10|2,2:2|3:2,0:0:0:0:
95,70,57578,6,0,P|113:145|213:145,1,180.000006866455,2|10,2:2|2:2,0:0:0:0:
184,67,58130,1,2,3:2:0:0:
292,147,58315,6,0,B|281:228|254:197|242:284,1,135.000005149841,2|0,3:2|2:0,0:0:0:0:
247,275,58683,2,0,P|301:289|345:306,1,90.0000034332277,10|2,2:2|3:2,0:0:0:0:
448,371,59051,2,0,P|434:317|417:273,1,90.0000034332277,2|0,3:2|0:0,0:0:0:0:
391,185,59419,5,10,2:2:0:0:
391,185,59603,1,2,3:2:0:0:
169,73,59788,6,0,B|275:108|275:108|362:31,1,227.999993911743,2|8,2:2|2:2,0:0:0:0:
256,7,60340,5,2,3:2:0:0:
200,179,60524,1,2,2:2:0:0:
36,38,60708,6,0,L|78:49,1,45.0000017166138,8|0,2:1|2:0,0:0:0:0:
84,61,60892,2,0,L|40:48,1,45.0000017166138,8|0,2:1|2:0,0:0:0:0:
470,321,61261,6,0,P|390:338|306:355,1,155.999992858887,4|8,3:2|2:2,0:0:0:0:
232,307,61813,1,0,3:3:0:0:
232,307,61997,2,0,P|155:323|79:338,1,155.999992858887,0|8,3:3|2:2,0:0:0:0:
175,81,62734,6,0,B|261:47|255:125|312:145,1,155.999992858887,2|8,2:2|2:2,0:0:0:0:
460,28,63286,1,2,3:2:0:0:
385,124,63470,6,0,P|376:84|368:42,1,77.9999964294435,2|0,2:2|3:3,0:0:0:0:
512,105,63838,2,0,P|504:143|496:181,1,77.9999964294435,8|2,2:2|3:2,0:0:0:0:
470,321,64207,6,0,P|390:338|306:355,1,155.999992858887,0|8,3:3|2:2,0:0:0:0:
232,307,64759,1,0,3:3:0:0:
232,307,64943,2,0,P|155:323|79:338,1,155.999992858887,0|8,3:3|2:2,0:0:0:0:
175,81,65680,6,0,B|261:47|255:125|312:145,1,155.999992858887,2|8,2:2|2:2,0:0:0:0:
450,14,66232,1,2,3:2:0:0:
397,167,66416,5,2,2:2:0:0:
256,54,66600,6,0,L|267:12,1,45.0000017166138,8|0,3:1|2:0,0:0:0:0:
279,6,66784,2,0,L|266:50,1,45.0000017166138,8|0,2:1|2:0,0:0:0:0:
0,247,67153,5,2,3:2:0:0:
85,228,67337,1,2,2:2:0:0:
85,228,67429,1,2,2:2:0:0:
85,228,67521,1,10,2:2:0:0:
170,210,67705,1,2,3:2:0:0:
341,172,67889,5,2,3:2:0:0:
255,191,68073,1,2,2:2:0:0:
341,172,68257,5,10,2:2:0:0:
255,191,68441,1,2,3:2:0:0:
426,154,68626,5,2,2:2:0:0:
426,154,68810,1,2,3:2:0:0:
511,135,68994,5,10,2:2:0:0:
426,154,69178,5,2,3:2:0:0:
255,191,69546,5,2,3:2:0:0:
255,191,69638,1,2,2:2:0:0:
255,191,69730,1,10,2:2:0:0:
255,191,69823,1,2,2:2:0:0:
255,191,69915,1,2,3:2:0:0:
511,135,70099,5,2,3:2:0:0:
426,154,70283,1,2,2:2:0:0:
426,154,70375,1,2,2:2:0:0:
426,154,70467,1,10,2:2:0:0:
341,172,70651,1,2,3:2:0:0:
170,210,70835,5,2,3:2:0:0:
256,191,71019,1,2,2:2:0:0:
170,210,71203,5,10,2:2:0:0:
256,191,71387,1,2,3:2:0:0:
85,228,71572,5,2,2:2:0:0:
170,210,71756,1,2,3:2:0:0:
0,247,71940,5,10,2:2:0:0:
256,191,72124,5,2,3:2:0:0:
287,10,72492,6,0,L|278:64,1,45.0000017166138,8|0,3:1|2:0,0:0:0:0:
269,60,72677,2,0,L|277:14,1,45.0000017166138,8|0,2:1|2:0,0:0:0:0:
256,384,73045,5,2,2:2:0:0:
28,346,73597,6,0,L|136:318,1,107.999996704102,2|2,2:3|2:3,0:0:0:0:
382,369,74334,5,2,2:3:0:0:
382,369,74518,2,0,L|397:313,1,53.9999983520508,2|0,2:2|0:0,0:0:0:0:
472,285,74886,1,2,2:2:0:0:
491,374,75070,5,2,2:3:0:0:
272,265,75438,6,0,L|264:237,1,26.9999991760254,2|0,2:3|2:0,0:0:0:0:
243,165,75623,1,2,2:3:0:0:
298,384,75991,6,0,L|190:356,1,107.999996704102,2|2,2:2|2:2,0:0:0:0:
52,371,76543,6,0,L|37:315,1,53.9999983520508,2|0,2:3|0:0,0:0:0:0:
123,318,76911,2,0,L|138:262,1,53.9999983520508,2|0,2:3|0:0,0:0:0:0:
51,230,77280,5,2,2:2:0:0:
51,230,77464,1,2,2:2:0:0:
234,280,77832,5,2,2:2:0:0:
234,280,78016,2,0,L|262:272,1,26.9999991760254,2|0,2:3|2:0,0:0:0:0:
422,245,78384,5,8,0:1:0:0:
422,245,78569,2,0,L|430:217,1,26.9999991760254,2|2,2:2|2:2,0:0:0:0:
402,253,78753,2,0,L|394:281,1,26.9999991760254,8|2,2:1|2:2,0:0:0:0:
395,111,78937,6,0,P|470:113|510:205,1,180.000006866455,6|8,3:2|2:2,0:0:0:0:
422,245,79489,5,2,3:2:0:0:
391,107,79673,2,0,B|286:56|305:154|237:178,1,180.000006866455,2|8,3:2|2:2,0:0:0:0:
314,246,80226,5,2,3:2:0:0:
148,194,80410,2,0,P|161:151|171:108,1,90.0000034332277,2|0,2:2|3:3,0:0:0:0:
88,296,80778,5,10,2:2:0:0:
221,265,80962,1,2,3:2:0:0:
84,300,81146,2,0,P|74:256|61:213,1,90.0000034332277,2|0,2:2|3:3,0:0:0:0:
178,360,81515,5,10,2:2:0:0:
178,360,81699,1,2,3:2:0:0:
347,322,81883,5,2,3:2:0:0:
376,193,82067,1,2,2:2:0:0:
405,64,82251,2,0,P|459:50|503:33,1,90.0000034332277,8|0,2:2|3:3,0:0:0:0:
505,222,82619,5,2,3:2:0:0:
376,193,82803,1,2,2:2:0:0:
247,164,82988,1,10,2:2:0:0:
292,258,83172,5,2,3:2:0:0:
292,258,83264,1,2,2:2:0:0:
292,258,83356,1,2,2:2:0:0:
140,141,83540,1,2,3:2:0:0:
295,77,83724,1,10,2:2:0:0:
247,164,83908,1,2,3:2:0:0:
183,43,84092,5,2,2:2:0:0:
51,112,84277,6,0,L|39:64,1,45.0000017166138,8|0,3:1|2:0,0:0:0:0:
56,96,84461,6,0,L|44:48,1,45.0000017166138,8|0,2:1|2:0,0:0:0:0:
61,80,84645,6,0,L|49:32,1,45.0000017166138,8|0,2:1|2:0,0:0:0:0:
12,234,84829,2,0,P|69:225|115:335,1,180.000006866455,2|8,3:2|2:2,0:0:0:0:
61,80,85381,5,2,3:2:0:0:
8,230,85565,2,0,P|108:204|140:130,1,180.000006866455,2|8,3:2|2:2,0:0:0:0:
216,278,86118,5,2,3:2:0:0:
309,229,86302,2,0,P|352:242|400:253,1,90.0000034332277,2|0,2:2|3:3,0:0:0:0:
294,144,86670,5,10,2:2:0:0:
338,322,86854,1,2,3:2:0:0:
298,148,87039,2,0,P|285:105|274:57,1,90.0000034332277,2|0,2:2|3:3,0:0:0:0:
208,192,87407,5,10,2:2:0:0:
208,192,87591,1,0,3:3:0:0:
395,252,87775,6,0,B|457:184|457:184|425:101,1,180.000006866455,2|8,3:2|2:2,0:0:0:0:
363,26,88327,1,2,3:2:0:0:
196,89,88511,5,2,3:2:0:0:
196,89,88695,1,2,2:2:0:0:
273,142,88880,2,0,P|317:151|359:165,1,90.0000034332277,10|2,2:2|3:2,0:0:0:0:
497,295,89248,6,0,B|424:288|435:346|384:365,1,135.000005149841,2|0,2:2|2:0,0:0:0:0:
384,359,89616,5,10,2:2:0:0:
253,264,89800,1,2,3:2:0:0:
104,299,89984,1,2,2:2:0:0:
189,374,90169,6,0,L|237:362,1,45.0000017166138,8|0,3:1|2:0,0:0:0:0:
205,379,90353,6,0,L|253:367,1,45.0000017166138,8|0,2:1|2:0,0:0:0:0:
221,384,90537,6,0,L|269:372,1,45.0000017166138,8|0,2:1|2:0,0:0:0:0:
39,380,90721,2,0,P|53:326|79:191,1,180.000006866455,2|8,3:2|2:2,0:0:0:0:
221,384,91273,5,2,3:2:0:0:
35,376,91458,2,0,P|62:301|164:311,1,180.000006866455,2|8,3:2|2:2,0:0:0:0:
305,189,92010,5,2,3:2:0:0:
246,254,92194,1,2,2:2:0:0:
216,173,92378,1,2,3:2:0:0:
328,277,92562,5,10,2:2:0:0:
493,217,92746,1,2,3:2:0:0:
332,281,92931,2,0,P|376:290|418:304,1,90.0000034332277,2|0,2:2|3:3,0:0:0:0:
487,374,93299,5,10,2:2:0:0:
487,374,93483,1,2,3:2:0:0:
378,193,93667,5,2,3:2:0:0:
251,223,93851,1,2,2:2:0:0:
124,253,94035,1,10,2:2:0:0:
128,257,94312,5,2,2:2:0:0:
128,257,94403,1,2,3:2:0:0:
44,222,94588,1,2,2:2:0:0:
82,140,94772,1,10,2:2:0:0:
183,61,94956,6,0,P|268:89|356:106,1,180.000006866455,2|2,3:2|3:2,0:0:0:0:
431,190,95508,1,10,2:2:0:0:
512,149,95693,1,2,3:2:0:0:
499,75,95877,1,2,2:2:0:0:
499,75,96061,6,0,B|483:45|483:45|483:15,1,60,8|2,3:1|2:3,0:0:0:0:
509,43,96429,6,0,L|497:-5,1,45.0000017166138,8|0,2:1|2:0,0:0:0:0:
356,106,96613,6,0,B|258:83|279:154|220:182,1,161.999995056153,6|0,3:2|2:0,0:0:0:0:
222,182,96981,2,0,P|179:167|135:159,1,90.0000034332277,10|2,2:2|3:2,0:0:0:0:
182,0,97350,2,0,P|196:42|204:86,1,90.0000034332277,2|0,3:2|0:0,0:0:0:0:
51,136,97718,5,10,2:2:0:0:
51,136,97902,1,0,3:3:0:0:
156,267,98086,6,0,B|253:244|232:315|291:343,1,161.999995056153,2|0,2:2|2:0,0:0:0:0:
290,343,98454,2,0,P|332:328|376:320,1,90.0000034332277,10|2,2:2|3:2,0:0:0:0:
330,161,98823,2,0,P|315:203|307:247,1,90.0000034332277,2|0,2:2|3:3,0:0:0:0:
461,297,99191,5,10,2:2:0:0:
461,297,99375,1,2,3:2:0:0:
433,132,99559,6,0,B|372:62|372:62|269:86,1,180.000006866455,2|10,3:2|2:2,0:0:0:0:
153,148,100112,5,2,3:2:0:0:
153,148,100204,1,2,2:2:0:0:
153,148,100296,2,0,P|138:74|114:3,1,135.000005149841,2|0,3:2|2:0,0:0:0:0:
123,13,100664,2,0,P|165:26|210:35,1,90.0000034332277,10|2,2:2|3:2,0:0:0:0:
27,276,101032,6,0,B|-3:201|-3:201|61:131,1,170.999995433807,2|0,2:2|2:0,0:0:0:0:
61,138,101400,1,10,2:2:0:0:
114,223,101585,1,2,3:2:0:0:
293,138,101769,1,2,2:2:0:0:
195,369,101953,6,0,L|200:325,1,45.0000017166138,8|0,3:1|2:0,0:0:0:0:
215,294,102137,2,0,L|209:339,1,45.0000017166138,8|0,2:1|2:0,0:0:0:0:
368,213,102321,5,2,3:2:0:0:
368,213,102413,1,2,2:2:0:0:
368,213,102505,2,0,P|435:213|468:303,1,161.999995056153,2|0,3:2|2:0,0:0:0:0:
467,294,102874,2,0,P|410:302|355:314,1,107.999996704102,10|2,2:2|3:2,0:0:0:0:
232,203,103242,6,0,B|126:186|148:283|61:322,1,215.999993408203,2|10,3:2|2:2,0:0:0:0:
0,372,103794,1,2,3:2:0:0:
120,215,103978,6,0,P|108:134|90:55,1,161.999995056153,2|0,2:2|2:0,0:0:0:0:
86,51,104347,2,0,P|33:56|5:99,1,107.999996704102,10|2,2:2|3:2,0:0:0:0:
205,112,104715,6,0,P|311:135|418:150,1,215.999993408203,2|10,2:2|2:2,0:0:0:0:
298,172,105267,1,2,3:2:0:0:
380,56,105451,6,0,P|464:55|510:145,1,180.000006866455,2|10,3:2|2:2,0:0:0:0:
418,273,106004,1,2,3:2:0:0:
328,240,106188,6,0,P|339:284|345:329,1,90.0000034332277,2|0,3:2|0:0,0:0:0:0:
489,208,106556,2,0,P|496:253|506:297,1,90.0000034332277,10|0,2:2|3:3,0:0:0:0:
256,296,106924,6,0,B|202:224|202:224|235:136,1,180,2|0,2:2|2:0,0:0:0:0:
237,135,107293,2,0,P|298:127|358:113,1,120,10|2,2:2|3:2,0:0:0:0:
282,25,107661,5,2,2:2:0:0:
87,141,107845,6,0,L|129:153,1,45.0000017166138,8|0,3:1|2:0,0:0:0:0:
153,168,108029,2,0,L|109:154,1,45.0000017166138,8|0,2:1|2:0,0:0:0:0:
2,114,108213,1,2,3:2:0:0:
91,25,108397,5,4,3:2:0:0:
91,25,108766,6,0,P|116:121|132:268,2,240,10|2|10,2:2|3:2|2:2,0:0:0:0:
282,227,109870,5,2,2:2:0:0:
358,187,110055,1,0,3:3:0:0:
434,239,110239,1,10,2:2:0:0:
430,322,110423,1,2,3:2:0:0:
282,227,110607,5,2,2:2:0:0:
434,239,110791,1,0,3:3:0:0:
358,187,110975,5,10,2:2:0:0:
430,322,111159,1,2,3:2:0:0:
276,306,111343,5,2,3:2:0:0:
276,306,111712,6,0,P|391:335|506:383,2,240,10|2|10,2:2|3:2|2:2,0:0:0:0:
216,99,112816,5,2,2:2:0:0:
140,59,113001,1,0,3:3:0:0:
64,111,113185,1,10,2:2:0:0:
68,194,113369,1,2,3:2:0:0:
216,99,113553,5,2,2:2:0:0:
64,111,113737,1,0,3:3:0:0:
140,59,113921,5,10,2:2:0:0:
302,94,114105,1,2,3:2:0:0:
503,29,114289,6,0,B|434:14|434:14|390:65,1,135.000005149841,4|0,3:2|2:0,0:0:0:0:
388,68,114658,2,0,P|398:111|407:155,1,90.0000034332277,10|0,2:2|3:3,0:0:0:0:
484,237,115026,5,2,3:2:0:0:
484,237,115210,1,0,0:0:0:0:
368,366,115394,2,0,P|377:323|387:279,1,90.0000034332277,10|0,2:2|3:3,0:0:0:0:
408,155,115762,5,2,2:2:0:0:
279,184,115946,1,0,3:3:0:0:
150,213,116131,2,0,P|107:197|63:187,1,90.0000034332277,10|0,2:2|3:3,0:0:0:0:
101,379,116499,6,0,P|26:361|17:259,1,180.000006866455,2|10,2:2|2:2,0:0:0:0:
95,286,117051,1,2,3:2:0:0:
198,137,117236,6,0,P|174:73|158:8,1,135.000005149841,2|0,3:2|2:0,0:0:0:0:
152,5,117604,1,10,2:2:0:0:
70,34,117788,1,2,3:2:0:0:
271,93,117972,2,0,P|285:39|302:-5,1,90.0000034332277,2|0,3:2|0:0,0:0:0:0:
371,79,118340,5,10,2:2:0:0:
371,79,118524,1,2,3:2:0:0:
277,259,118709,6,0,B|362:184|362:184|481:233,1,227.999993911743,2|10,2:2|2:2,0:0:0:0:
392,280,119261,5,2,3:2:0:0:
262,156,119445,1,2,2:2:0:0:
445,119,119629,6,0,L|487:108,1,45.0000017166138,8|0,2:1|2:0,0:0:0:0:
512,94,119813,2,0,L|468:107,1,45.0000017166138,8|0,2:1|2:0,0:0:0:0:
371,79,119997,5,2,3:2:0:0:
200,212,120182,5,6,3:2:0:0:
37,177,120550,1,8,2:2:0:0:
71,14,120918,1,0,3:3:0:0:
234,49,121286,1,8,2:2:0:0:
143,141,121470,6,0,P|138:111|131:82,2,60,2|0|2,2:2|3:3|2:2,0:0:0:0:
200,212,122023,5,10,2:2:0:0:
200,212,122207,1,2,2:2:0:0:
107,351,122391,5,2,3:2:0:0:
152,281,122575,2,0,P|133:276|86:268,1,60,2|8,2:2|2:2,0:0:0:0:
107,351,122943,5,2,2:2:0:0:
286,323,123128,5,2,3:2:0:0:
433,184,123496,1,8,2:2:0:0:
240,124,123864,1,0,3:3:0:0:
286,323,124232,1,8,2:2:0:0:
347,212,124417,6,0,P|317:216|288:223,2,60,2|0|2,2:2|3:3|2:2,0:0:0:0:
418,274,124970,5,10,2:2:0:0:
418,274,125154,1,2,2:2:0:0:
500,135,125337,6,0,B|456:94|456:94|391:112,1,120,2|10,3:2|2:2,0:0:0:0:
434,188,125890,1,0,0:0:0:0:
316,65,126074,5,2,3:2:0:0:
129,19,126442,1,8,2:2:0:0:
316,65,126810,1,0,3:3:0:0:
129,19,127178,1,8,2:2:0:0:
222,77,127363,6,0,P|217:47|210:18,2,60,2|0|2,2:2|3:3|2:2,0:0:0:0:
130,117,127916,5,10,2:2:0:0:
130,117,128100,1,2,2:2:0:0:
226,240,128284,5,2,3:2:0:0:
271,170,128468,2,0,P|252:165|205:157,1,60,2|8,2:2|2:2,0:0:0:0:
226,240,128836,5,2,2:2:0:0:
409,205,129020,5,2,3:2:0:0:
479,268,129388,1,10,2:2:0:0:
432,349,129756,2,0,P|373:360|317:381,1,120,2|8,3:2|2:2,0:0:0:0:
172,290,130309,1,2,2:2:0:0:
241,365,130493,6,0,P|246:335|257:307,1,60,0|2,3:3|2:2,0:0:0:0:
311,175,130861,2,0,P|305:204|294:232,1,60,10|2,2:2|2:2,0:0:0:0:
309,88,131229,5,2,3:2:0:0:
348,298,131505,5,2,2:2:0:0:
348,298,131598,1,10,2:2:0:0:
204,245,131782,1,0,0:0:0:0:
47,346,131966,6,0,P|22:359|1:395,1,60,6|0,3:2|0:0,0:0:0:0:
77,263,132334,2,0,P|50:254|9:265,1,60,8|0,2:2|0:0,0:0:0:0:
160,238,132702,2,0,P|147:213|110:192,1,60,0|0,3:3|0:0,0:0:0:0:
137,328,133071,1,8,2:2:0:0:
239,217,133255,5,2,2:2:0:0:
253,221,133439,1,0,3:3:0:0:
267,224,133623,1,2,2:2:0:0:
320,299,133807,6,0,P|353:291|384:287,1,60,10|2,2:2|2:2,0:0:0:0:
500,260,134175,2,0,P|453:254|435:208,1,90,2|0,3:2|2:0,0:0:0:0:
438,215,134544,1,8,2:2:0:0:
504,168,134728,1,2,2:2:0:0:
383,96,134912,6,0,P|416:104|447:108,1,60,2|0,3:2|0:0,0:0:0:0:
298,120,135280,2,0,P|315:148|334:173,1,60,8|0,2:2|0:0,0:0:0:0:
222,84,135648,2,0,P|214:117|210:148,1,60,0|0,3:3|0:0,0:0:0:0:
198,0,136017,1,8,2:2:0:0:
323,25,136201,5,2,2:2:0:0:
309,29,136385,1,0,3:3:0:0:
295,32,136569,1,2,2:2:0:0:
135,83,136753,6,0,P|102:75|71:71,1,60,10|2,2:2|2:2,0:0:0:0:
54,231,137121,6,0,P|7:188|8:130,1,120,2|10,3:2|2:2,0:0:0:0:
92,152,137674,1,0,0:0:0:0:
192,237,137858,6,0,P|152:245|133:285,1,71.9999978027344,2|0,3:2|0:0,0:0:0:0:
297,180,138226,2,0,P|263:157|221:172,1,71.9999978027344,8|0,2:2|0:0,0:0:0:0:
412,228,138594,2,0,P|404:188|364:169,1,71.9999978027344,0|0,3:3|0:0,0:0:0:0:
327,267,138963,5,8,2:2:0:0:
396,358,139147,5,2,2:2:0:0:
417,346,139331,1,0,3:3:0:0:
403,330,139515,1,2,2:2:0:0:
233,302,139699,5,10,2:2:0:0:
204,308,139883,1,2,2:2:0:0:
304,361,140067,5,2,3:2:0:0:
115,182,140436,5,10,2:2:0:0:
84,100,140620,1,2,2:2:0:0:
233,27,140804,5,2,3:2:0:0:
233,27,141172,6,0,P|247:90|258:174,1,144,10|0,2:2|2:0,0:0:0:0:
261,164,141540,6,0,P|251:92|236:22,1,144,2|0,3:2|2:0,0:0:0:0:
240,18,141909,6,0,P|254:81|265:165,1,144,10|0,2:2|2:0,0:0:0:0:
346,45,142277,5,2,3:2:0:0:
344,70,142461,1,2,2:2:0:0:
169,88,142645,5,10,2:2:0:0:
175,110,142829,1,2,2:2:0:0:
394,171,143013,5,2,3:2:0:0:
144,215,143382,1,10,2:2:0:0:
257,46,143750,6,0,L|246:-1,3,35.9999989013672,2|0|0|0,2:2|0:0|0:0|0:0,0:0:0:0:
267,116,144118,6,0,L|278:69,3,35.9999989013672,2|0|0|0,2:2|0:0|0:0|0:0,0:0:0:0:
234,183,144486,6,0,L|223:136,3,35.9999989013672,2|0|0|0,2:2|0:0|0:0|0:0,0:0:0:0:
281,276,144854,6,0,L|292:229,3,35.9999989013672,2|0|0|0,2:2|0:0|0:0|0:0,0:0:0:0:
184,267,145223,6,0,B|104:254|117:333|44:358,1,161.999995056153,6|0,3:2|2:0,0:0:0:0:
53,349,145591,1,10,2:2:0:0:
5,235,145775,1,2,3:2:0:0:
207,351,145960,6,0,P|290:364|373:387,1,161.999995056153,2|0,3:2|2:0,0:0:0:0:
369,380,146328,2,0,B|409:343|409:343|394:292,1,107.999996704102,10|2,2:2|3:2,0:0:0:0:
319,99,146696,6,0,B|399:86|386:165|459:190,1,161.999995056153,2|0,2:2|2:0,0:0:0:0:
450,181,147064,1,10,2:2:0:0:
504,66,147248,1,2,3:2:0:0:
296,183,147433,6,0,P|213:196|130:219,1,161.999995056153,2|0,2:2|2:0,0:0:0:0:
134,212,147801,2,0,B|94:175|94:175|109:124,1,107.999996704102,10|2,2:2|3:2,0:0:0:0:
2,269,148169,6,0,P|76:280|98:348,1,135.000005149841,2|0,3:2|2:0,0:0:0:0:
95,333,148537,5,10,2:2:0:0:
188,275,148721,1,2,3:2:0:0:
298,384,148905,2,0,P|256:369|212:358,1,90.0000034332277,2|0,3:2|0:0,0:0:0:0:
5,355,149273,5,10,2:2:0:0:
171,192,149458,5,2,3:2:0:0:
171,192,149550,1,2,2:2:0:0:
171,192,149642,2,0,B|260:139|260:139|365:162,1,204.000003890991,2|8,2:2|2:2,0:0:0:0:
277,233,150194,5,2,3:2:0:0:
474,302,150378,1,2,2:2:0:0:
432,130,150562,6,0,L|446:75,1,45.0000017166138,8|0,3:1|2:0,0:0:0:0:
461,69,150747,2,0,L|472:25,1,45.0000017166138,8|0,2:1|2:0,0:0:0:0:
389,251,150931,5,2,3:2:0:0:
389,251,151023,1,2,2:2:0:0:
389,251,151115,2,0,P|347:333|259:329,1,161.999995056153,2|0,3:2|2:0,0:0:0:0:
280,336,151483,1,10,2:2:0:0:
164,271,151667,1,2,3:2:0:0:
45,378,151852,6,0,B|-2:314|-2:314|22:209,1,161.999995056153,2|0,3:2|2:0,0:0:0:0:
21,230,152220,1,10,2:2:0:0:
223,193,152404,5,2,3:2:0:0:
223,193,152496,1,2,2:2:0:0:
223,193,152588,2,0,P|265:177|309:166,1,90.0000034332277,2|0,2:2|3:3,0:0:0:0:
101,13,152956,5,10,2:2:0:0:
130,150,153141,1,2,3:2:0:0:
164,289,153325,2,0,P|148:331|138:375,1,90.0000034332277,2|0,2:2|3:3,0:0:0:0:
299,261,153693,5,10,2:2:0:0:
299,261,153877,1,2,3:2:0:0:
492,317,154061,6,0,P|479:254|399:227,1,144,2|0,3:2|2:0,0:0:0:0:
407,229,154429,5,10,2:2:0:0:
370,353,154614,1,2,3:2:0:0:
197,294,154798,1,2,3:2:0:0:
197,294,154982,1,0,0:0:0:0:
236,177,155166,1,10,2:2:0:0:
299,261,155350,5,2,3:2:0:0:
263,86,155534,6,0,B|165:65|179:140|113:164,1,170.999995433807,2|0,2:2|2:0,0:0:0:0:
117,156,155902,2,0,B|68:123|68:123|79:64,1,113.999996955872,8|2,2:2|3:2,0:0:0:0:
236,177,156271,5,2,2:2:0:0:
387,111,156455,6,0,L|429:122,1,45.0000017166138,8|0,3:1|2:0,0:0:0:0:
448,138,156639,2,0,L|491:150,1,45.0000017166138,8|0,2:1|2:0,0:0:0:0:
341,368,157007,5,4,3:2:0:0:
341,368,157375,6,0,P|241:315|153:306,1,180,10|0,2:2|2:0,0:0:0:0:
171,309,157744,2,0,P|267:249|319:177,1,180,2|0,3:2|2:0,0:0:0:0:
303,193,158112,2,0,P|307:306|343:387,1,180,10|0,2:2|2:0,0:0:0:0:
418,331,158480,5,2,2:2:0:0:
498,380,158664,1,0,3:3:0:0:
422,335,158848,5,10,2:2:0:0:
502,384,159032,1,0,3:3:0:0:
451,208,159217,5,2,2:2:0:0:
498,124,159401,1,0,3:3:0:0:
434,51,159585,1,10,2:2:0:0:
341,75,159769,1,2,3:2:0:0:
171,16,159953,5,0,3:3:0:0:
171,16,160321,6,0,P|271:69|359:78,1,180,10|0,2:2|2:0,0:0:0:0:
341,75,160690,2,0,P|245:135|193:207,1,180,2|0,3:2|2:0,0:0:0:0:
209,191,161058,2,0,P|205:78|169:-3,1,180,10|0,2:2|2:0,0:0:0:0:
110,77,161426,5,2,2:2:0:0:
30,28,161610,1,0,3:3:0:0:
106,73,161794,5,10,2:2:0:0:
26,24,161978,1,0,3:3:0:0:
62,155,162163,5,2,2:2:0:0:
15,239,162347,1,0,3:3:0:0:
79,312,162531,1,10,2:2:0:0:
172,288,162715,1,2,3:2:0:0:
389,370,162899,6,0,P|309:345|299:253,1,161.999995056153,6|0,3:2|2:0,0:0:0:0:
294,272,163268,5,10,2:2:0:0:
204,364,163452,1,2,3:2:0:0:
275,190,163636,6,0,B|365:165|350:239|402:264,1,161.999995056153,2|0,3:2|2:0,0:0:0:0:
404,266,164004,2,0,P|457:250|511:239,1,107.999996704102,10|2,2:2|3:2,0:0:0:0:
432,145,164372,5,2,2:2:0:0:
432,145,164556,1,0,3:3:0:0:
275,190,164741,5,10,2:2:0:0:
180,157,164925,1,2,3:2:0:0:
309,1,165109,6,0,P|319:53|334:105,1,107.999996704102,2|0,2:2|3:3,0:0:0:0:
206,255,165477,5,10,2:2:0:0:
78,153,165661,5,2,3:2:0:0:
78,153,165753,1,2,2:2:0:0:
78,153,165845,2,0,P|111:71|234:69,1,215.999993408203,2|10,3:2|2:2,0:0:0:0:
180,157,166398,1,2,3:2:0:0:
123,306,166582,6,0,P|71:291|18:280,1,107.999996704102,2|0,3:2|0:0,0:0:0:0:
180,157,166950,2,0,P|231:171|284:182,1,107.999996704102,10|0,2:2|3:3,0:0:0:0:
372,310,167318,5,2,2:2:0:0:
371,281,167502,1,0,3:3:0:0:
398,298,167687,1,8,2:2:0:0:
378,296,167871,1,2,3:2:0:0:
421,377,168055,5,2,2:2:0:0:
287,300,168239,6,0,L|243:305,1,45.0000017166138,8|0,3:1|2:0,0:0:0:0:
210,319,168423,2,0,L|165:325,1,45.0000017166138,8|0,2:1|2:0,0:0:0:0:
288,185,168607,5,2,3:2:0:0:
85,336,168791,6,0,B|32:280|32:280|64:197,1,161.999995056153,6|0,3:2|2:0,0:0:0:0:
66,196,169160,2,0,P|93:206|119:211,1,53.9999983520508,10|0,2:2|2:0,0:0:0:0:
197,228,169344,1,2,3:2:0:0:
145,118,169528,5,2,3:2:0:0:
145,118,169712,1,0,0:0:0:0:
285,212,169896,2,0,P|264:161|254:108,1,107.999996704102,10|2,2:2|3:2,0:0:0:0:
441,239,170264,6,0,B|494:183|494:183|475:101,1,161.999995056153,2|0,2:2|2:0,0:0:0:0:
471,96,170633,2,0,P|443:106|418:111,1,53.9999983520508,10|0,2:2|2:0,0:0:0:0:
342,125,170817,1,2,3:2:0:0:
394,15,171001,5,2,2:2:0:0:
254,109,171185,1,2,3:2:0:0:
254,109,171277,1,2,2:2:0:0:
254,109,171369,2,0,P|275:58|285:5,1,107.999996704102,10|2,2:2|3:2,0:0:0:0:
53,36,171737,6,0,P|114:49|148:145,1,161.999995056153,2|0,3:2|2:0,0:0:0:0:
146,138,172106,1,10,2:2:0:0:
30,203,172290,1,2,3:2:0:0:
95,321,172474,5,2,3:2:0:0:
118,240,172658,1,0,0:0:0:0:
99,325,172842,1,10,2:2:0:0:
240,140,173026,5,2,3:2:0:0:
240,140,173118,1,2,2:2:0:0:
240,140,173210,2,0,B|315:88|315:88|411:113,1,180,2|0,2:2|2:0,0:0:0:0:
404,114,173579,2,0,P|386:177|378:238,1,120,10|2,2:2|3:2,0:0:0:0:
418,367,173947,1,2,2:2:0:0:
277,323,174131,6,0,L|272:279,1,45.0000017166138,8|0,3:1|2:0,0:0:0:0:
254,259,174315,2,0,L|248:214,1,45.0000017166138,8|0,2:1|2:0,0:0:0:0:
226,44,174499,5,2,3:2:0:0:
226,44,174591,1,2,2:2:0:0:
226,44,174684,2,0,B|128:15|155:87|70:109,1,161.999995056153,2|0,3:2|2:0,0:0:0:0:
83,106,175052,2,0,P|98:165|107:224,1,107.999996704102,10|2,2:2|3:2,0:0:0:0:
260,376,175420,6,0,P|229:302|132:315,1,180.000006866455,2|10,3:2|2:2,0:0:0:0:
49,327,175972,2,0,P|41:297|37:268,1,45.0000017166138,2|0,3:2|2:0,0:0:0:0:
13,162,176157,5,2,2:2:0:0:
186,197,176341,1,0,3:3:0:0:
359,232,176525,2,0,P|418:217|477:208,1,107.999996704102,10|2,2:2|3:2,0:0:0:0:
502,43,176893,6,0,P|405:45|362:143,1,215.999993408203,2|10,2:2|2:2,0:0:0:0:
457,125,177445,5,2,3:2:0:0:
457,125,177537,1,2,2:2:0:0:
457,125,177629,1,2,3:2:0:0:
285,170,177814,1,2,2:2:0:0:
285,170,177906,1,2,2:2:0:0:
285,170,177998,1,10,2:2:0:0:
130,207,178182,1,2,3:2:0:0:
52,375,178366,6,0,B|-15:320|-15:320|12:246,1,161.999995056153,2|0,3:2|2:0,0:0:0:0:
14,245,178734,2,0,P|47:255|86:264,1,53.9999983520508,10|0,2:2|2:0,0:0:0:0:
159,298,178918,1,0,3:3:0:0:
4,65,179103,5,2,2:2:0:0:
17,142,179287,1,0,3:3:0:0:
148,42,179471,5,8,2:2:0:0:
164,123,179655,1,2,3:2:0:0:
80,93,179839,5,2,2:2:0:0:
244,72,180023,6,0,L|288:67,1,45.0000017166138,8|0,3:1|2:0,0:0:0:0:
305,51,180207,2,0,L|350:45,1,45.0000017166138,8|0,2:1|2:0,0:0:0:0:
378,56,180391,5,2,3:2:0:0:
228,212,180576,5,4,3:2:0:0:
228,212,180944,6,0,P|140:191|54:164,1,180,10|0,2:2|2:0,0:0:0:0:
51,160,181312,2,0,P|30:247|3:333,1,180,2|0,3:2|2:0,0:0:0:0:
0,337,181680,2,0,P|87:357|173:384,1,180,10|0,2:2|2:0,0:0:0:0:
253,356,182049,5,2,2:2:0:0:
292,277,182233,1,0,3:3:0:0:
248,352,182417,5,10,2:2:0:0:
171,305,182601,1,0,3:3:0:0:
215,229,182785,5,2,2:2:0:0:
90,276,182969,1,0,3:3:0:0:
43,163,183154,5,10,2:2:0:0:
86,280,183338,1,2,3:2:0:0:
284,172,183522,5,0,3:3:0:0:
284,172,183890,6,0,P|372:193|458:220,1,180,10|0,2:2|2:0,0:0:0:0:
461,224,184258,2,0,P|482:137|509:51,1,180,2|0,3:2|2:0,0:0:0:0:
512,47,184626,2,0,P|425:27|339:0,1,180,10|0,2:2|2:0,0:0:0:0:
259,28,184995,5,2,2:2:0:0:
220,107,185179,1,0,3:3:0:0:
264,32,185363,5,10,2:2:0:0:
341,79,185547,1,0,3:3:0:0:
297,155,185731,5,2,2:2:0:0:
422,108,185915,1,0,3:3:0:0:
469,221,186100,5,10,2:2:0:0:
426,104,186284,1,2,3:2:0:0:
203,178,186468,6,0,B|127:144|127:144|66:203,1,161.999995056153,6|0,3:2|2:0,0:0:0:0:
67,203,186836,2,0,P|41:193|15:185,1,53.9999983520508,10|0,2:2|2:0,0:0:0:0:
45,89,187020,1,2,3:2:0:0:
173,321,187204,5,2,3:2:0:0:
203,178,187389,1,2,2:2:0:0:
232,35,187573,2,0,P|190:51|112:68,1,107.999996704102,10|2,2:2|3:2,0:0:0:0:
308,241,187941,6,0,B|384:207|384:207|445:266,1,161.999995056153,2|0,2:2|2:0,0:0:0:0:
444,266,188309,2,0,P|470:256|496:248,1,53.9999983520508,10|0,2:2|2:0,0:0:0:0:
466,152,188493,1,2,3:2:0:0:
338,384,188677,5,2,2:2:0:0:
308,241,188862,1,0,3:3:0:0:
279,98,189046,2,0,P|321:114|399:131,1,107.999996704102,10|2,2:2|3:2,0:0:0:0:
157,253,189414,6,0,P|146:188|59:166,1,161.999995056153,2|0,3:2|2:0,0:0:0:0:
58,168,189782,1,10,2:2:0:0:
50,267,189966,1,2,3:2:0:0:
163,161,190150,6,0,P|179:81|204:5,1,161.999995056153,2|0,3:2|2:0,0:0:0:0:
208,0,190519,2,0,P|233:8|260:13,1,53.9999983520508,10|0,2:2|2:0,0:0:0:0:
367,121,190703,2,0,P|392:112|419:107,1,53.9999983520508,2|0,3:2|2:0,0:0:0:0:
503,8,190887,5,2,2:2:0:0:
486,3,191071,1,0,3:3:0:0:
482,19,191255,1,8,2:2:0:0:
497,23,191439,1,2,3:2:0:0:
503,8,191623,5,2,2:2:0:0:
274,118,191807,6,0,L|254:157,1,45.0000017166138,8|0,3:1|2:0,0:0:0:0:
234,234,191991,2,0,L|253:192,1,45.0000017166138,8|0,2:1|2:0,0:0:0:0:
352,31,192175,5,2,3:2:0:0:
338,224,192360,6,0,P|254:191|101:159,2,240,6|10|2,3:2|2:2|3:2,0:0:0:0:
419,175,193280,1,0,0:0:0:0:
429,277,193465,2,0,P|416:311|403:373,1,90.0000034332277,10|0,2:2|3:3,0:0:0:0:
188,384,193833,6,0,B|130:345|130:345|155:275,1,135.000005149841,2|0,2:2|2:0,0:0:0:0:
155,279,194201,2,0,P|199:289|241:304,1,90.0000034332277,10|2,2:2|3:2,0:0:0:0:
175,123,194569,6,0,P|107:194|25:166,1,180.000006866455,2|10,2:2|2:2,0:0:0:0:
86,105,195122,1,2,3:2:0:0:
253,172,195306,5,2,3:2:0:0:
253,172,195674,5,10,2:2:0:0:
186,340,195858,1,2,3:2:0:0:
365,315,196042,6,0,P|411:323|456:337,1,90.0000034332277,2|0,3:2|0:0,0:0:0:0:
279,261,196411,2,0,P|233:253|188:239,1,90.0000034332277,8|2,2:2|3:2,0:0:0:0:
391,138,196779,5,2,2:2:0:0:
479,121,196963,1,0,3:3:0:0:
387,134,197147,5,8,2:2:0:0:
370,46,197331,1,2,3:2:0:0:
387,142,197515,5,2,2:2:0:0:
304,154,197700,6,0,L|261:161,1,45.0000017166138,8|0,3:1|2:0,0:0:0:0:
222,174,197884,2,0,L|267:165,1,45.0000017166138,8|0,2:1|2:0,0:0:0:0:
400,222,198068,5,0,3:3:0:0:
319,360,198252,6,0,P|331:289|489:268,2,240,6|10|2,3:2|2:2|3:2,0:0:0:0:
407,380,199173,1,0,0:0:0:0:
232,339,199357,2,0,P|187:324|140:311,1,90.0000034332277,10|0,2:2|3:3,0:0:0:0:
157,122,199725,6,0,B|232:96|227:164|282:180,1,135.000005149841,2|0,2:2|2:0,0:0:0:0:
273,171,200093,2,0,B|312:143|312:143|302:95,1,90.0000034332277,10|2,2:2|3:2,0:0:0:0:
58,305,200461,6,0,P|93:227|179:221,1,180.000006866455,2|10,2:2|2:2,0:0:0:0:
146,312,201014,1,2,3:2:0:0:
297,253,201198,5,2,3:2:0:0:
297,253,201566,5,10,2:2:0:0:
237,73,201750,1,2,3:2:0:0:
425,105,201934,6,0,P|471:97|516:83,1,90.0000034332277,2|0,3:2|0:0,0:0:0:0:
302,169,202303,2,0,P|256:177|211:191,1,90.0000034332277,8|2,2:2|3:2,0:0:0:0:
370,281,202671,5,2,2:2:0:0:
282,264,202855,1,0,3:3:0:0:
374,277,203039,5,8,2:2:0:0:
391,189,203223,1,2,3:2:0:0:
374,285,203407,5,2,2:2:0:0:
457,297,203592,6,0,L|500:304,1,45.0000017166138,8|0,3:1|2:0,0:0:0:0:
512,316,203776,2,0,L|467:307,1,45.0000017166138,8|0,2:1|2:0,0:0:0:0:
361,365,203960,5,0,3:3:0:0:
187,309,204144,6,0,P|98:325|13:355,2,180.000006866455,6|10|2,3:2|2:2|3:2,0:0:0:0:
248,377,205065,1,0,0:0:0:0:
97,284,205249,2,0,P|108:238|114:195,1,90.0000034332277,10|0,2:2|3:3,0:0:0:0:
122,37,205617,5,2,2:2:0:0:
137,117,205801,1,0,3:3:0:0:
42,52,205985,1,10,2:2:0:0:
58,132,206169,1,2,3:2:0:0:
91,86,206354,5,2,2:2:0:0:
91,86,206538,1,2,3:2:0:0:
237,75,206722,6,0,P|256:80|288:86,1,45.0000017166138,10|0,2:2|2:0,0:0:0:0:
359,42,206906,5,2,3:2:0:0:
359,42,206998,1,2,2:2:0:0:
359,42,207090,2,0,P|428:59|458:169,2,180.000006866455,2|10|0,3:2|2:2|3:3,0:0:0:0:
482,56,208011,1,2,2:2:0:0:
369,132,208195,2,0,P|375:177|386:220,1,90.0000034332277,8|0,2:2|3:3,0:0:0:0:
496,384,208563,5,2,2:2:0:0:
511,304,208747,1,0,3:3:0:0:
416,369,208931,1,10,2:2:0:0:
432,289,209115,1,2,3:2:0:0:
465,335,209300,5,2,2:2:0:0:
347,317,209484,6,0,L|304:310,1,45.0000017166138,8|0,3:1|2:0,0:0:0:0:
341,308,209668,2,0,L|296:299,1,45.0000017166138,8|0,2:1|2:0,0:0:0:0:
201,283,209852,5,2,3:2:0:0:
167,49,210036,6,0,P|116:132|29:126,2,180.000006866455,6|10|2,3:2|2:2|3:2,0:0:0:0:
79,49,210957,1,0,0:0:0:0:
138,164,211141,2,0,P|132:209|121:252,1,90.0000034332277,10|0,2:2|3:3,0:0:0:0:
196,372,211509,5,2,2:2:0:0:
46,363,211693,1,0,3:3:0:0:
119,384,211877,5,10,2:2:0:0:
3,299,212062,1,2,3:2:0:0:
46,363,212246,5,2,2:2:0:0:
9,218,212430,1,0,3:3:0:0:
59,148,212614,6,0,P|74:153|102:159,1,45.0000017166138,10|0,2:2|2:0,0:0:0:0:
219,285,212798,5,0,3:3:0:0:
219,285,212890,1,0,0:0:0:0:
219,285,212982,2,0,P|280:261|392:238,2,180.000006866455,2|10|0,3:2|2:2|3:3,0:0:0:0:
338,330,213903,1,2,2:2:0:0:
291,218,214087,2,0,B|282:175|282:175|308:130,1,90.0000034332277,8|0,2:2|3:3,0:0:0:0:
320,2,214455,5,2,2:2:0:0:
398,6,214639,1,0,3:3:0:0:
465,46,214823,1,10,2:2:0:0:
504,113,215008,1,2,3:2:0:0:
507,191,215192,1,2,2:2:0:0:
402,300,215376,6,0,L|359:307,1,45.0000017166138,8|0,3:1|2:0,0:0:0:0:
350,320,215560,6,0,L|440:302,1,90.0000034332277,8|0,2:1|0:0,0:0:0:0:
