osu file format v14

[General]
AudioFilename: audio.mp3
AudioLeadIn: 0
PreviewTime: 39152
Countdown: 0
SampleSet: Normal
StackLeniency: 0.7
Mode: 1
LetterboxInBreaks: 0
WidescreenStoryboard: 0

[Editor]
Bookmarks: 2221,8297,14373,20449,23487,26525,32601,40196,46272,49310,52348,58424,61462,64500,70576,76652,82728,88804
DistanceSpacing: 2.8
BeatDivisor: 4
GridSize: 32
TimelineZoom: 1.5

[Metadata]
Title:SOUVENIR (TV Size)
TitleUnicode:SOUVENIR (TV Size)
Artist:BUMP OF CHICKEN
ArtistUnicode:BUMP OF CHICKEN
Creator:Stompy_
Version:MISSION: RYXLIEE'S ONI
Source:SPY×FAMILY
Tags:spy x family spyxfamily スパイファミリー boc op opening cour part second two 2 theme song anime animation japanese jpop j-pop j pop loid anya yor forger male vocals vocalist op2 tachibana_ ryxliee
BeatmapID:3830022
BeatmapSetID:1862628

[Difficulty]
HPDrainRate:5
CircleSize:2
OverallDifficulty:5
ApproachRate:9
SliderMultiplier:1.4
SliderTickRate:1

[Events]
//Background and Video events
0,0,"bg.jpg",0,0
Video,80,"video.mp4"
//Break Periods
//Storyboard Layer 0 (Background)
//Storyboard Layer 1 (Fail)
//Storyboard Layer 2 (Pass)
//Storyboard Layer 3 (Foreground)
//Storyboard Layer 4 (Overlay)
//Storyboard Sound Samples

[TimingPoints]
-3854,379.746835443038,4,1,0,70,1,0
2221,-100,4,1,0,60,0,0
11335,-100,4,1,0,70,0,0
14373,-100,4,1,0,60,0,0
23487,-100,4,1,0,70,0,0
26525,-100,4,1,0,50,0,0
32601,-100,4,1,0,60,0,0
40196,379.746835443038,4,1,0,80,1,1
49310,-100,4,1,0,70,0,1
52348,-100,4,1,0,80,0,1
61462,-100,4,1,0,70,0,1
64499,-100,4,1,0,70,0,0
73613,-100,4,1,0,80,0,0
76652,-100,4,1,0,70,0,0
85766,-100,4,1,0,70,0,0

[HitObjects]
256,192,703,5,8,0:0:0:0:
256,192,797,1,0,0:0:0:0:
256,192,987,1,0,0:0:0:0:
256,192,1082,1,8,0:0:0:0:
256,192,1272,1,8,0:0:0:0:
256,192,1367,1,8,0:0:0:0:
256,192,1557,1,8,0:0:0:0:
256,192,1652,1,0,0:0:0:0:
256,192,1747,1,8,0:0:0:0:
256,192,1842,1,0,0:0:0:0:
256,192,2032,1,0,0:0:0:0:
256,192,2127,1,8,0:0:0:0:
256,192,2221,1,4,0:0:0:0:
256,192,2411,1,8,0:0:0:0:
256,192,2601,1,0,0:0:0:0:
256,192,2791,1,8,0:0:0:0:
256,192,2886,1,0,0:0:0:0:
256,192,2981,1,8,0:0:0:0:
256,192,3171,1,0,0:0:0:0:
256,192,3361,1,8,0:0:0:0:
256,192,3551,1,0,0:0:0:0:
256,192,3930,1,0,0:0:0:0:
256,192,4120,1,0,0:0:0:0:
256,192,4310,1,8,0:0:0:0:
256,192,4690,1,0,0:0:0:0:
256,192,5070,1,0,0:0:0:0:
256,192,5259,1,8,0:0:0:0:
256,192,5449,1,8,0:0:0:0:
256,192,5639,1,0,0:0:0:0:
256,192,5829,1,8,0:0:0:0:
256,192,5924,1,0,0:0:0:0:
256,192,6019,1,8,0:0:0:0:
256,192,6209,1,0,0:0:0:0:
256,192,6399,1,8,0:0:0:0:
256,192,6589,1,0,0:0:0:0:
256,192,6968,1,0,0:0:0:0:
256,192,7158,1,8,0:0:0:0:
256,192,7348,1,8,0:0:0:0:
256,192,7728,1,0,0:0:0:0:
256,192,8108,1,0,0:0:0:0:
256,192,8297,1,8,0:0:0:0:
256,192,8487,1,0,0:0:0:0:
256,192,8677,1,8,0:0:0:0:
256,192,8772,1,8,0:0:0:0:
256,192,8867,1,0,0:0:0:0:
256,192,9057,1,8,0:0:0:0:
256,192,9247,1,8,0:0:0:0:
256,192,9437,1,0,0:0:0:0:
256,192,9627,1,8,0:0:0:0:
256,192,10006,1,0,0:0:0:0:
256,192,10196,1,8,0:0:0:0:
256,192,10386,1,0,0:0:0:0:
256,192,10766,1,8,0:0:0:0:
256,192,10956,1,8,0:0:0:0:
256,192,11146,1,0,0:0:0:0:
256,192,11240,1,0,0:0:0:0:
256,192,11335,1,12,0:0:0:0:
256,192,11525,1,0,0:0:0:0:
256,192,11715,1,8,0:0:0:0:
256,192,11905,1,0,0:0:0:0:
256,192,12000,1,8,0:0:0:0:
256,192,12095,1,0,0:0:0:0:
256,192,12285,1,0,0:0:0:0:
256,192,12475,1,8,0:0:0:0:
256,192,12665,1,8,0:0:0:0:
256,192,12759,1,0,0:0:0:0:
256,192,12854,1,8,0:0:0:0:
256,192,13044,1,0,0:0:0:0:
256,192,13234,1,8,0:0:0:0:
256,192,13424,1,0,0:0:0:0:
256,192,13519,1,0,0:0:0:0:
256,192,13614,1,8,0:0:0:0:
256,192,13804,1,0,0:0:0:0:
256,192,13994,1,8,0:0:0:0:
256,192,14089,1,8,0:0:0:0:
256,192,14184,1,0,0:0:0:0:
256,192,14373,1,12,0:0:0:0:
256,192,14563,1,0,0:0:0:0:
256,192,14753,1,8,0:0:0:0:
256,192,14943,1,0,0:0:0:0:
256,192,15038,1,0,0:0:0:0:
256,192,15133,1,8,0:0:0:0:
256,192,15323,1,0,0:0:0:0:
256,192,15703,1,0,0:0:0:0:
256,192,15892,1,8,0:0:0:0:
256,192,16082,1,0,0:0:0:0:
256,192,16272,1,8,0:0:0:0:
256,192,16462,1,0,0:0:0:0:
256,192,16842,1,0,0:0:0:0:
256,192,17032,1,8,0:0:0:0:
256,192,17127,1,8,0:0:0:0:
256,192,17222,1,0,0:0:0:0:
256,192,17411,1,8,0:0:0:0:
256,192,17601,1,8,0:0:0:0:
256,192,17791,1,0,0:0:0:0:
256,192,17981,1,8,0:0:0:0:
256,192,18076,1,8,0:0:0:0:
256,192,18171,1,0,0:0:0:0:
256,192,18361,1,8,0:0:0:0:
256,192,18741,1,8,0:0:0:0:
256,192,18930,1,0,0:0:0:0:
256,192,19120,1,0,0:0:0:0:
256,192,19310,1,8,0:0:0:0:
256,192,19500,1,8,0:0:0:0:
256,192,19880,1,0,0:0:0:0:
256,192,20070,1,8,0:0:0:0:
256,192,20260,1,0,0:0:0:0:
256,192,20449,1,8,0:0:0:0:
256,192,20639,1,8,0:0:0:0:
256,192,20829,1,0,0:0:0:0:
256,192,21019,1,8,0:0:0:0:
256,192,21114,1,8,0:0:0:0:
256,192,21209,1,0,0:0:0:0:
256,192,21399,1,0,0:0:0:0:
256,192,21589,1,8,0:0:0:0:
256,192,21779,1,0,0:0:0:0:
256,192,22158,1,0,0:0:0:0:
256,192,22348,1,0,0:0:0:0:
256,192,22538,1,8,0:0:0:0:
256,192,22918,1,0,0:0:0:0:
256,192,23108,1,8,0:0:0:0:
256,192,23298,1,0,0:0:0:0:
256,192,23392,1,0,0:0:0:0:
256,192,23487,1,12,0:0:0:0:
256,192,23677,1,0,0:0:0:0:
256,192,23867,1,8,0:0:0:0:
256,192,24057,1,8,0:0:0:0:
256,192,24247,1,0,0:0:0:0:
256,192,24342,1,8,0:0:0:0:
256,192,24437,1,0,0:0:0:0:
256,192,24627,1,8,0:0:0:0:
256,192,24816,1,8,0:0:0:0:
256,192,24911,1,8,0:0:0:0:
256,192,25006,1,0,0:0:0:0:
256,192,25386,1,12,0:0:0:0:
256,192,25766,1,12,0:0:0:0:
256,192,26146,1,12,0:0:0:0:
256,192,26335,1,0,0:0:0:0:
256,192,26430,1,0,0:0:0:0:
256,192,26525,1,12,0:0:0:0:
256,192,26905,1,0,0:0:0:0:
256,192,27095,1,0,0:0:0:0:
256,192,27285,1,8,0:0:0:0:
256,192,27475,1,0,0:0:0:0:
256,192,27665,1,8,0:0:0:0:
256,192,27854,1,8,0:0:0:0:
256,192,28044,1,0,0:0:0:0:
256,192,28424,1,8,0:0:0:0:
256,192,28614,1,0,0:0:0:0:
256,192,28804,1,8,0:0:0:0:
256,192,28994,1,0,0:0:0:0:
256,192,29089,1,0,0:0:0:0:
256,192,29184,1,8,0:0:0:0:
256,192,29373,1,0,0:0:0:0:
256,192,29563,1,8,0:0:0:0:
256,192,29943,1,8,0:0:0:0:
256,192,30133,1,8,0:0:0:0:
256,192,30323,1,0,0:0:0:0:
256,192,30703,1,8,0:0:0:0:
256,192,30892,1,8,0:0:0:0:
256,192,31082,1,0,0:0:0:0:
256,192,31272,1,0,0:0:0:0:
256,192,31462,1,8,0:0:0:0:
256,192,31842,1,0,0:0:0:0:
256,192,32032,1,8,0:0:0:0:
256,192,32221,1,0,0:0:0:0:
256,192,32601,1,12,0:0:0:0:
256,192,32791,1,0,0:0:0:0:
256,192,32981,1,0,0:0:0:0:
256,192,33171,1,8,0:0:0:0:
256,192,33551,1,0,0:0:0:0:
256,192,33740,1,8,0:0:0:0:
256,192,33930,1,0,0:0:0:0:
256,192,34025,1,0,0:0:0:0:
256,192,34120,1,8,0:0:0:0:
256,192,34310,1,0,0:0:0:0:
256,192,34500,1,8,0:0:0:0:
256,192,34690,1,8,0:0:0:0:
256,192,34880,1,0,0:0:0:0:
256,192,35070,1,8,0:0:0:0:
256,192,35259,1,0,0:0:0:0:
256,192,35639,1,12,0:0:0:0:
256,192,35829,1,0,0:0:0:0:
256,192,36019,1,0,0:0:0:0:
256,192,36209,1,8,0:0:0:0:
256,192,36589,1,0,0:0:0:0:
256,192,36778,1,8,0:0:0:0:
256,192,36968,1,0,0:0:0:0:
256,192,37063,1,0,0:0:0:0:
256,192,37158,1,8,0:0:0:0:
256,192,37348,1,0,0:0:0:0:
256,192,37538,1,8,0:0:0:0:
256,192,37728,1,0,0:0:0:0:
256,192,37918,1,8,0:0:0:0:
256,192,38108,1,0,0:0:0:0:
256,192,38297,1,8,0:0:0:0:
256,192,38487,1,0,0:0:0:0:
256,192,38867,1,8,0:0:0:0:
256,192,39057,1,8,0:0:0:0:
256,192,39247,1,0,0:0:0:0:
256,192,39627,1,0,0:0:0:0:
256,192,39816,1,8,0:0:0:0:
256,192,40006,1,8,0:0:0:0:
256,192,40101,1,8,0:0:0:0:
256,192,40196,1,4,0:0:0:0:
256,192,40576,1,8,0:0:0:0:
256,192,40766,1,0,0:0:0:0:
256,192,40861,1,0,0:0:0:0:
256,192,40956,1,8,0:0:0:0:
256,192,41051,1,8,0:0:0:0:
256,192,41146,1,0,0:0:0:0:
256,192,41335,1,8,0:0:0:0:
256,192,41525,1,8,0:0:0:0:
256,192,41620,1,8,0:0:0:0:
256,192,41715,1,8,0:0:0:0:
256,192,41905,1,0,0:0:0:0:
256,192,42095,1,8,0:0:0:0:
256,192,42285,1,0,0:0:0:0:
256,192,42665,1,0,0:0:0:0:
256,192,42854,1,8,0:0:0:0:
256,192,43044,1,8,0:0:0:0:
256,192,43139,1,8,0:0:0:0:
256,192,43234,1,0,0:0:0:0:
256,192,43424,1,0,0:0:0:0:
256,192,43614,1,8,0:0:0:0:
256,192,43804,1,0,0:0:0:0:
256,192,43899,1,0,0:0:0:0:
256,192,43994,1,8,0:0:0:0:
256,192,44089,1,0,0:0:0:0:
256,192,44184,1,8,0:0:0:0:
256,192,44373,1,8,0:0:0:0:
256,192,44563,1,0,0:0:0:0:
256,192,44658,1,0,0:0:0:0:
256,192,44753,1,8,0:0:0:0:
256,192,44943,1,0,0:0:0:0:
256,192,45133,1,8,0:0:0:0:
256,192,45323,1,0,0:0:0:0:
256,192,45703,1,0,0:0:0:0:
256,192,45892,1,8,0:0:0:0:
256,192,46082,1,0,0:0:0:0:
256,192,46272,1,12,0:0:0:0:
256,192,46462,1,8,0:0:0:0:
256,192,46557,1,8,0:0:0:0:
256,192,46652,1,0,0:0:0:0:
256,192,46842,1,8,0:0:0:0:
256,192,47032,1,8,0:0:0:0:
256,192,47221,1,0,0:0:0:0:
256,192,47411,1,8,0:0:0:0:
256,192,47601,1,0,0:0:0:0:
256,192,47981,1,0,0:0:0:0:
256,192,48076,1,0,0:0:0:0:
256,192,48171,1,8,0:0:0:0:
256,192,48361,1,0,0:0:0:0:
256,192,48551,1,0,0:0:0:0:
256,192,48740,1,0,0:0:0:0:
256,192,48930,1,8,0:0:0:0:
256,192,49120,1,8,0:0:0:0:
256,192,49310,1,4,0:0:0:0:
256,192,49690,1,8,0:0:0:0:
256,192,49785,1,0,0:0:0:0:
256,192,49880,1,8,0:0:0:0:
256,192,50070,1,0,0:0:0:0:
256,192,50259,1,0,0:0:0:0:
256,192,50449,1,8,0:0:0:0:
256,192,50639,1,0,0:0:0:0:
256,192,51019,1,8,0:0:0:0:
256,192,51209,1,0,0:0:0:0:
248,194,51399,1,0,0:0:0:0:
256,192,51589,1,8,0:0:0:0:
256,192,51778,1,0,0:0:0:0:
256,192,51968,1,8,0:0:0:0:
256,192,52158,1,8,0:0:0:0:
256,192,52253,1,8,0:0:0:0:
256,192,52348,1,4,0:0:0:0:
256,192,52728,1,8,0:0:0:0:
256,192,52823,1,0,0:0:0:0:
256,192,52918,1,8,0:0:0:0:
256,192,53108,1,8,0:0:0:0:
256,192,53203,1,8,0:0:0:0:
256,192,53298,1,0,0:0:0:0:
256,192,53487,1,8,0:0:0:0:
256,192,53677,1,0,0:0:0:0:
256,192,53772,1,0,0:0:0:0:
256,192,53867,1,8,0:0:0:0:
256,192,54057,1,0,0:0:0:0:
256,192,54247,1,8,0:0:0:0:
256,192,54437,1,0,0:0:0:0:
256,192,54627,1,0,0:0:0:0:
256,192,55006,1,8,0:0:0:0:
256,192,55196,1,8,0:0:0:0:
256,192,55291,1,0,0:0:0:0:
256,192,55386,1,8,0:0:0:0:
256,192,55576,1,0,0:0:0:0:
256,192,55766,1,8,0:0:0:0:
256,192,55956,1,0,0:0:0:0:
256,192,56051,1,0,0:0:0:0:
256,192,56146,1,8,0:0:0:0:
256,192,56241,1,8,0:0:0:0:
256,192,56336,1,0,0:0:0:0:
256,192,56525,1,8,0:0:0:0:
256,192,56715,1,0,0:0:0:0:
256,192,56810,1,8,0:0:0:0:
256,192,56905,1,0,0:0:0:0:
256,192,57095,1,0,0:0:0:0:
256,192,57285,1,8,0:0:0:0:
256,192,57475,1,0,0:0:0:0:
256,192,57855,1,0,0:0:0:0:
256,192,58044,1,8,0:0:0:0:
256,192,58234,1,0,0:0:0:0:
256,192,58424,1,12,0:0:0:0:
256,192,58614,1,0,0:0:0:0:
256,192,58709,1,0,0:0:0:0:
256,192,58804,1,8,0:0:0:0:
256,192,58994,1,8,0:0:0:0:
256,192,59184,1,0,0:0:0:0:
256,192,59373,1,0,0:0:0:0:
256,192,59563,1,8,0:0:0:0:
256,192,59753,1,0,0:0:0:0:
256,192,60133,1,0,0:0:0:0:
256,192,60228,1,0,0:0:0:0:
256,192,60323,1,8,0:0:0:0:
256,192,60513,1,8,0:0:0:0:
256,192,60703,1,0,0:0:0:0:
256,192,60892,1,8,0:0:0:0:
256,192,61082,1,0,0:0:0:0:
256,192,61272,1,8,0:0:0:0:
256,192,61462,1,4,0:0:0:0:
256,192,61842,1,8,0:0:0:0:
256,192,61937,1,0,0:0:0:0:
256,192,62032,1,8,0:0:0:0:
256,192,62222,1,0,0:0:0:0:
256,192,62411,1,0,0:0:0:0:
256,192,62601,1,8,0:0:0:0:
256,192,62791,1,0,0:0:0:0:
256,192,62981,1,8,0:0:0:0:
256,192,63171,1,0,0:0:0:0:
256,192,63361,1,0,0:0:0:0:
256,192,63551,1,12,0:0:0:0:
256,192,63930,1,0,0:0:0:0:
256,192,64120,1,8,0:0:0:0:
256,192,64215,1,8,0:0:0:0:
256,192,64310,1,8,0:0:0:0:
256,192,64405,1,8,0:0:0:0:
256,192,64500,1,4,0:0:0:0:
256,192,64880,1,8,0:0:0:0:
256,192,65070,1,0,0:0:0:0:
256,192,65259,1,8,0:0:0:0:
256,192,65639,1,8,0:0:0:0:
256,192,65829,1,0,0:0:0:0:
256,192,65924,1,0,0:0:0:0:
256,192,66019,1,8,0:0:0:0:
256,192,66209,1,0,0:0:0:0:
256,192,66399,1,8,0:0:0:0:
256,192,66589,1,0,0:0:0:0:
256,192,66778,1,8,0:0:0:0:
256,192,66873,1,8,0:0:0:0:
256,192,66968,1,0,0:0:0:0:
256,192,67158,1,8,0:0:0:0:
256,192,67348,1,8,0:0:0:0:
256,192,67538,1,0,0:0:0:0:
256,192,67918,1,8,0:0:0:0:
256,192,68108,1,0,0:0:0:0:
256,192,68297,1,8,0:0:0:0:
256,192,68677,1,8,0:0:0:0:
256,192,68867,1,0,0:0:0:0:
256,192,68962,1,8,0:0:0:0:
256,192,69057,1,0,0:0:0:0:
256,192,69247,1,0,0:0:0:0:
256,192,69437,1,8,0:0:0:0:
256,192,69627,1,8,0:0:0:0:
256,192,69721,1,0,0:0:0:0:
256,192,69816,1,8,0:0:0:0:
256,192,70006,1,0,0:0:0:0:
256,192,70196,1,8,0:0:0:0:
256,192,70386,1,8,0:0:0:0:
256,192,70576,1,4,0:0:0:0:
256,192,70956,1,8,0:0:0:0:
256,192,71146,1,0,0:0:0:0:
256,192,71335,1,8,0:0:0:0:
256,192,71715,1,8,0:0:0:0:
256,192,71905,1,8,0:0:0:0:
256,192,72000,1,0,0:0:0:0:
256,192,72095,1,8,0:0:0:0:
256,192,72285,1,0,0:0:0:0:
256,192,72475,1,8,0:0:0:0:
256,192,72665,1,0,0:0:0:0:
256,192,72759,1,8,0:0:0:0:
256,192,72854,1,0,0:0:0:0:
256,192,73234,1,8,0:0:0:0:
256,192,73424,1,0,0:0:0:0:
256,192,73519,1,0,0:0:0:0:
256,192,73614,1,12,0:0:0:0:
256,192,73804,1,0,0:0:0:0:
256,192,73994,1,8,0:0:0:0:
256,192,74184,1,8,0:0:0:0:
256,192,74278,1,8,0:0:0:0:
256,192,74373,1,0,0:0:0:0:
256,192,74563,1,0,0:0:0:0:
256,192,74753,1,8,0:0:0:0:
256,192,74943,1,0,0:0:0:0:
256,192,75038,1,8,0:0:0:0:
256,192,75133,1,0,0:0:0:0:
256,192,75323,1,0,0:0:0:0:
256,192,75513,1,8,0:0:0:0:
256,192,75703,1,0,0:0:0:0:
256,192,75892,1,8,0:0:0:0:
256,192,76272,1,8,0:0:0:0:
256,192,76462,1,0,0:0:0:0:
256,192,76557,1,0,0:0:0:0:
256,192,76652,1,12,0:0:0:0:
256,192,77032,1,0,0:0:0:0:
256,192,77222,1,0,0:0:0:0:
256,192,77411,1,8,0:0:0:0:
256,192,77791,1,8,0:0:0:0:
256,192,77981,1,8,0:0:0:0:
256,192,78076,1,8,0:0:0:0:
256,192,78171,1,0,0:0:0:0:
256,192,78361,1,0,0:0:0:0:
256,192,78551,1,8,0:0:0:0:
256,192,78741,1,0,0:0:0:0:
256,192,78930,1,0,0:0:0:0:
256,192,79025,1,8,0:0:0:0:
256,192,79120,1,0,0:0:0:0:
256,192,79310,1,8,0:0:0:0:
256,192,79500,1,0,0:0:0:0:
256,192,79690,1,8,0:0:0:0:
256,192,80070,1,8,0:0:0:0:
256,192,80260,1,8,0:0:0:0:
256,192,80449,1,0,0:0:0:0:
256,192,80829,1,8,0:0:0:0:
256,192,81019,1,0,0:0:0:0:
256,192,81114,1,8,0:0:0:0:
256,192,81209,1,0,0:0:0:0:
256,192,81399,1,0,0:0:0:0:
256,192,81589,1,8,0:0:0:0:
256,192,81779,1,8,0:0:0:0:
256,192,81873,1,8,0:0:0:0:
256,192,81968,1,0,0:0:0:0:
256,192,82158,1,0,0:0:0:0:
256,192,82348,1,8,0:0:0:0:
256,192,82538,1,8,0:0:0:0:
256,192,82728,1,4,0:0:0:0:
256,192,83108,1,8,0:0:0:0:
256,192,83298,1,0,0:0:0:0:
256,192,83487,1,8,0:0:0:0:
256,192,83867,1,8,0:0:0:0:
256,192,84057,1,8,0:0:0:0:
256,192,84152,1,0,0:0:0:0:
256,192,84247,1,8,0:0:0:0:
256,192,84437,1,0,0:0:0:0:
256,192,84627,1,8,0:0:0:0:
256,192,84817,1,0,0:0:0:0:
256,192,84911,1,8,0:0:0:0:
256,192,85006,1,0,0:0:0:0:
256,192,85386,1,8,0:0:0:0:
256,192,85576,1,0,0:0:0:0:
256,192,85671,1,0,0:0:0:0:
256,192,85766,1,12,0:0:0:0:
256,192,85956,1,0,0:0:0:0:
256,192,86146,1,8,0:0:0:0:
256,192,86336,1,8,0:0:0:0:
256,192,86430,1,8,0:0:0:0:
256,192,86525,1,0,0:0:0:0:
256,192,86715,1,0,0:0:0:0:
256,192,86905,1,8,0:0:0:0:
256,192,87095,1,0,0:0:0:0:
256,192,87190,1,8,0:0:0:0:
256,192,87285,1,0,0:0:0:0:
256,192,87475,1,0,0:0:0:0:
256,192,87570,1,0,0:0:0:0:
256,192,87665,1,8,0:0:0:0:
256,192,87855,1,8,0:0:0:0:
256,192,87949,1,8,0:0:0:0:
256,192,88044,1,0,0:0:0:0:
256,192,88139,1,0,0:0:0:0:
256,192,88234,1,8,0:0:0:0:
256,192,88424,1,8,0:0:0:0:
256,192,88614,1,0,0:0:0:0:
256,192,88709,1,8,0:0:0:0:
