osu file format v14

[General]
AudioFilename: audio.mp3
AudioLeadIn: 0
PreviewTime: 52428
Countdown: 0
SampleSet: Normal
StackLeniency: 0.2
Mode: 0
LetterboxInBreaks: 0
WidescreenStoryboard: 1

[Editor]
Bookmarks: 18874,27973,46172,55272
DistanceSpacing: 0.7
BeatDivisor: 4
GridSize: 4
TimelineZoom: 2.699999

[Metadata]
Title:Hello,world!
TitleUnicode:Hello,world!
Artist:BUMP OF CHICKEN
ArtistUnicode:BUMP OF CHICKEN
Creator:iza-
Version:hikari
Source:血界戦線
Tags:tv size blood blockade battlefront kekkai sensen opening
BeatmapID:1833926
BeatmapSetID:877074

[Difficulty]
HPDrainRate:4
CircleSize:4
OverallDifficulty:7
ApproachRate:9.5
SliderMultiplier:1.8
SliderTickRate:1

[Events]
//Background and Video events
0,0,"50593211_p0_master1200.jpg",0,0
//Break Periods
//Storyboard Layer 0 (Background)
//Storyboard Layer 1 (Fail)
//Storyboard Layer 2 (Pass)
//Storyboard Layer 3 (Foreground)
//Storyboard Sound Samples

[TimingPoints]
675,284.36018957346,4,1,0,50,1,0
675,-100,4,1,0,50,0,0
18874,-66.6666666666667,4,1,0,50,0,0
27973,-80,4,1,0,50,0,0
46172,-133.333333333333,4,1,0,50,0,0
52997,-66.6666666666667,4,1,0,50,0,0
55272,-50,4,1,0,50,0,1
63802,-50,4,1,0,50,0,0
64229,-50,4,1,0,50,0,1
73329,-66.6666666666667,4,1,0,50,0,0
77452,-50,4,1,0,50,0,0
78020,-40,4,1,0,50,0,1
87120,-50,4,1,0,50,0,0

[Colours]
Combo1 : 0,255,0
Combo2 : 255,235,174
Combo3 : 18,124,255
Combo4 : 171,88,88

[HitObjects]
256,192,106,5,0,0:0:0:0:
256,192,248,1,0,0:0:0:0:
397,303,675,5,0,0:0:0:0:
115,81,817,1,0,0:0:0:0:
256,192,959,1,0,0:0:0:0:
130,183,1101,2,0,L|186:209,1,45,0|0,0:0|0:0,0:0:0:0:
219,268,1243,5,0,0:0:0:0:
219,268,1385,1,0,0:0:0:0:
288,116,1528,1,0,0:0:0:0:
434,65,1670,2,0,L|479:129,1,45
479,179,1812,5,0,0:0:0:0:
479,179,1954,1,0,0:0:0:0:
479,179,2096,1,0,0:0:0:0:
367,236,2238,1,0,0:0:0:0:
319,339,2381,5,0,0:0:0:0:
319,339,2523,1,0,0:0:0:0:
319,339,2665,1,0,0:0:0:0:
86,354,2807,2,0,L|146:331,1,45
205,302,2949,5,0,0:0:0:0:
205,302,3092,1,0,0:0:0:0:
205,302,3234,1,0,0:0:0:0:
145,146,3376,1,0,0:0:0:0:
145,146,3518,1,0,0:0:0:0:
66,239,3660,1,0,0:0:0:0:
229,166,3802,1,0,0:0:0:0:
229,166,3945,6,0,L|310:226,1,90
383,210,4229,1,0,0:0:0:0:
355,316,4371,1,0,0:0:0:0:
507,372,4513,2,0,L|434:318,1,90
229,166,4798,1,0,0:0:0:0:
229,166,4940,1,0,0:0:0:0:
229,166,5082,1,0,0:0:0:0:
229,166,5224,6,0,B|190:258|190:258|170:212,1,135
6,196,5509,2,0,B|104:182|104:182|74:222,1,135
143,372,5793,2,0,B|81:291|81:291|131:297,1,135
225,326,6077,1,0,0:0:0:0:
225,326,6220,2,0,L|268:307,1,45
355,316,6362,5,0,0:0:0:0:
512,200,6504,2,0,L|440:228,1,45
383,210,6646,5,0,0:0:0:0:
383,210,6788,1,0,0:0:0:0:
391,69,6930,1,0,0:0:0:0:
391,69,7073,1,0,0:0:0:0:
458,128,7215,1,0,0:0:0:0:
250,106,7357,6,0,B|133:90|133:90|74:125,1,180
16,266,7784,1,0,0:0:0:0:
16,266,7926,1,0,0:0:0:0:
141,171,8068,1,0,0:0:0:0:
141,171,8210,1,0,0:0:0:0:
29,63,8352,1,0,0:0:0:0:
250,106,8494,2,0,L|347:120,1,90
345,287,8779,2,0,L|403:187,1,90
433,40,9205,5,0,0:0:0:0:
433,40,9347,1,0,0:0:0:0:
433,40,9490,2,0,L|410:80,1,45
339,118,9632,5,0,0:0:0:0:
250,106,9774,1,0,0:0:0:0:
250,106,9916,1,0,0:0:0:0:
390,209,10058,2,0,L|367:249,1,45
398,325,10201,5,0,0:0:0:0:
478,365,10343,1,0,0:0:0:0:
478,365,10485,1,0,0:0:0:0:
321,312,10627,2,0,L|281:289,1,45
203,288,10769,1,0,0:0:0:0:
141,353,10911,1,0,0:0:0:0:
141,353,11054,1,0,0:0:0:0:
141,353,11196,1,0,0:0:0:0:
157,207,11338,1,0,0:0:0:0:
66,91,11480,5,0,0:0:0:0:
66,91,11622,1,0,0:0:0:0:
66,91,11765,1,0,0:0:0:0:
316,102,11907,6,0,B|205:136|205:136|143:117,1,180
372,19,12333,1,0,0:0:0:0:
372,19,12475,1,0,0:0:0:0:
317,193,12618,1,0,0:0:0:0:
317,193,12760,1,0,0:0:0:0:
203,55,12902,1,0,0:0:0:0:
203,55,13044,2,0,L|101:19,2,90
426,140,13471,2,0,L|510:169,1,90
416,316,13755,5,0,0:0:0:0:
259,283,13897,1,0,0:0:0:0:
91,308,14039,1,0,0:0:0:0:
91,308,14182,6,0,B|75:183|75:183|106:101,1,180
52,29,14608,1,0,0:0:0:0:
52,29,14750,1,0,0:0:0:0:
52,29,14893,1,0,0:0:0:0:
240,89,15035,1,0,0:0:0:0:
429,34,15177,1,0,0:0:0:0:
429,34,15319,6,0,B|425:191|425:191|458:227,1,180
421,332,15746,1,0,0:0:0:0:
421,332,15888,1,0,0:0:0:0:
421,332,16030,1,0,0:0:0:0:
202,301,16172,1,0,0:0:0:0:
15,370,16314,2,0,L|52:257,1,90
79,45,16599,5,0,0:0:0:0:
129,246,16741,1,0,0:0:0:0:
129,246,16883,1,0,0:0:0:0:
204,69,17025,5,0,0:0:0:0:
204,69,17167,1,0,0:0:0:0:
207,190,17310,5,0,0:0:0:0:
207,190,17452,1,0,0:0:0:0:
304,23,17594,5,0,0:0:0:0:
278,283,17736,5,0,0:0:0:0:
278,283,17878,1,0,0:0:0:0:
431,111,18020,2,0,B|374:147|374:147|334:159,1,90
62,136,18305,5,0,0:0:0:0:
353,154,18447,5,0,0:0:0:0:
409,346,18874,6,0,B|302:163|302:163|315:106,1,270.000010299683
455,54,19300,1,0,0:0:0:0:
238,27,19442,2,0,B|140:76|140:76|96:67,1,135.000005149842
59,215,19727,1,0,0:0:0:0:
117,371,19869,6,0,B|169:157|169:157|230:124,1,270.000010299683
484,171,20295,2,0,L|338:126,1,135.000005149842
277,382,20580,2,0,L|282:237,1,135.000005149842
291,13,20864,1,0,0:0:0:0:
291,13,20935,1,0,0:0:0:0:
212,133,21006,1,0,0:0:0:0:
212,133,21077,1,0,0:0:0:0:
281,247,21148,6,0,B|184:218|184:218|151:228,1,135.000005149842
25,310,21433,1,0,0:0:0:0:
25,310,21575,1,0,0:0:0:0:
25,310,21717,5,0,0:0:0:0:
118,167,21859,1,0,0:0:0:0:
45,22,22002,1,0,0:0:0:0:
384,48,22144,6,0,B|329:90|329:90|128:43,1,270.000010299683
306,8,22570,1,0,0:0:0:0:
330,194,22712,1,0,0:0:0:0:
330,194,22784,1,0,0:0:0:0:
253,153,22855,2,0,B|169:217|169:217|169:246,1,135.000005149842
279,384,23139,5,0,0:0:0:0:
279,384,23281,1,0,0:0:0:0:
279,384,23423,6,0,B|370:376|370:376|420:337,1,135.000005149842
511,117,23708,2,0,B|420:125|420:125|370:164,1,135.000005149842
193,302,23992,2,0,L|258:249,1,67.5000025749208
412,249,24134,2,0,L|333:223,1,67.5000025749208
270,148,24276,2,0,L|250:83,1,67.5000025749208
385,151,24419,6,0,B|420:125|420:125|511:117,1,135.000005149842
404,349,24703,1,0,0:0:0:0:
404,349,24845,2,0,B|370:376|370:376|279:384,1,135.000005149842
23,364,25129,2,0,L|101:358,1,67.5000025749208
210,247,25272,2,0,L|142:252,1,67.5000025749208
43,85,25414,2,0,L|95:153,1,67.5000025749208
207,31,25556,1,0,0:0:0:0:
207,31,25627,1,0,0:0:0:0:
355,66,25698,6,0,B|243:91|243:91|202:79,1,135.000005149842
11,271,25983,2,0,B|123:246|123:246|164:258,1,135.000005149842
220,287,26267,5,0,0:0:0:0:
220,287,26338,1,0,0:0:0:0:
286,333,26409,2,0,L|369:341,1,67.5000025749208
406,268,26551,1,0,0:0:0:0:
406,268,26622,1,0,0:0:0:0:
475,312,26693,6,0,B|505:220|505:220|431:39,1,270.000010299683
322,243,27120,1,0,0:0:0:0:
217,80,27262,1,0,0:0:0:0:
217,80,27333,1,0,0:0:0:0:
149,123,27404,1,0,0:0:0:0:
149,123,27475,1,0,0:0:0:0:
75,39,27547,1,0,0:0:0:0:
75,39,27973,5,0,0:0:0:0:
322,243,28115,1,0,0:0:0:0:
8,257,28257,2,0,B|99:267|99:267|172:263,1,112.5
343,19,28542,2,0,B|252:9|252:9|179:13,1,112.5
322,243,28826,1,0,0:0:0:0:
322,243,28968,6,0,B|454:227|454:227|496:187,1,168.75
503,125,29253,2,0,B|486:93|486:93|366:35,1,168.75
337,139,29537,1,0,0:0:0:0:
153,105,29679,1,0,0:0:0:0:
153,105,29821,1,0,0:0:0:0:
153,105,29964,1,0,0:0:0:0:
99,259,30106,6,0,B|43:97|43:97|73:22,1,225
271,294,30532,2,0,B|353:299|353:299|414:274,1,112.5
284,156,30817,2,0,B|202:151|202:151|141:176,1,112.5
390,184,31101,1,0,0:0:0:0:
390,184,31243,2,0,L|391:50,1,112.5
172,266,31528,1,0,0:0:0:0:
172,266,31670,2,0,L|171:400,1,112.5
385,295,31954,5,0,0:0:0:0:
349,118,32096,1,0,0:0:0:0:
173,162,32238,1,0,0:0:0:0:
216,330,32380,1,0,0:0:0:0:
438,10,32523,6,0,L|517:9,2,75
346,46,32807,2,0,B|179:46,1,150
257,119,33092,2,0,L|101:119,1,112.5
108,237,33376,1,0,0:0:0:0:
65,85,33518,5,0,0:0:0:0:
65,85,33660,1,0,0:0:0:0:
319,186,33802,1,0,0:0:0:0:
319,186,33945,1,0,0:0:0:0:
319,186,34087,2,0,L|201:208,1,112.5
237,348,34371,1,0,0:0:0:0:
181,65,34513,2,0,L|300:39,1,112.5
449,238,34798,6,0,B|428:155|428:155|437:129,1,112.5
237,348,35082,2,0,B|274:270|274:270|297:257,1,112.5
10,331,35366,2,0,B|77:300,1,56.25
114,209,35509,1,0,0:0:0:0:
237,348,35651,1,0,0:0:0:0:
281,181,35793,2,0,L|226:151,1,56.25
181,65,35935,1,0,0:0:0:0:
181,65,36077,1,0,0:0:0:0:
465,0,36220,1,0,0:0:0:0:
237,348,36504,5,0,0:0:0:0:
391,291,36646,1,0,0:0:0:0:
391,291,36788,1,0,0:0:0:0:
391,291,36930,2,0,L|316:297,1,56.25
237,348,37073,5,0,0:0:0:0:
61,241,37215,1,0,0:0:0:0:
23,32,37357,2,0,B|80:104|80:104|82:124,1,112.5
38,333,37641,1,0,0:0:0:0:
38,333,37784,1,0,0:0:0:0:
149,280,37926,1,0,0:0:0:0:
82,124,38068,2,0,B|165:148|165:148|241:140,1,112.5
190,16,38352,1,0,0:0:0:0:
190,16,38494,1,0,0:0:0:0:
190,16,38637,1,0,0:0:0:0:
435,59,38779,6,0,B|344:77|344:77|329:96,2,112.5
357,219,39205,2,0,B|328:252|328:252|148:279,1,225
27,168,39632,1,0,0:0:0:0:
27,168,39774,1,0,0:0:0:0:
102,58,39916,1,0,0:0:0:0:
102,58,40058,1,0,0:0:0:0:
164,169,40201,1,0,0:0:0:0:
62,338,40343,1,0,0:0:0:0:
231,315,40485,1,0,0:0:0:0:
371,371,40627,2,0,B|467:340|467:340|493:304,1,112.5
470,75,40911,5,0,0:0:0:0:
339,219,41054,1,0,0:0:0:0:
217,84,41196,1,0,0:0:0:0:
38,85,41338,1,0,0:0:0:0:
38,85,41480,2,0,B|54:119|54:119|50:173,1,56.25
57,288,41622,6,0,B|147:246|147:246|177:194,1,112.5
315,31,41907,2,0,B|225:73|225:73|218:84,1,112.5
279,251,42191,1,0,0:0:0:0:
162,369,42333,1,0,0:0:0:0:
162,369,42475,2,0,B|137:354|137:354|100:353,1,56.25
57,288,42617,6,0,B|147:246|147:246|177:194,1,112.5
315,31,42902,1,0,0:0:0:0:
315,31,42973,1,0,0:0:0:0:
315,31,43044,2,0,B|225:73|225:73|218:84,1,112.5
153,234,43329,1,0,0:0:0:0:
298,260,43471,1,0,0:0:0:0:
392,366,43613,2,0,B|490:288|490:288|496:239,1,168.75
194,161,43897,6,0,L|266:156,1,56.25
495,244,44039,2,0,L|422:252,1,56.25
298,260,44182,2,0,L|341:224,1,56.25
445,103,44324,2,0,B|439:146|439:146|341:224,1,168.75
448,46,44608,2,0,L|444:103,1,56.25
347,147,44750,2,0,B|335:94|335:94|418:115,1,112.5
205,184,45035,5,0,0:0:0:0:
168,32,45177,1,0,0:0:0:0:
247,106,45319,1,0,0:0:0:0:
96,116,45461,1,0,0:0:0:0:
17,227,45603,1,0,0:0:0:0:
37,43,45746,1,0,0:0:0:0:
120,279,45888,2,0,L|159:384,1,112.5
217,286,46172,6,0,L|292:282,1,67.5000025749208
389,197,46456,1,0,0:0:0:0:
469,384,46599,2,0,L|448:292,1,67.5000025749208
389,197,46883,1,0,0:0:0:0:
230,148,47025,6,0,L|307:155,1,67.5000025749208
229,24,47309,2,0,L|184:87,1,67.5000025749208
340,90,47594,2,0,L|307:19,1,67.5000025749208
31,155,47878,2,0,L|19:221,1,67.5000025749208
159,167,48163,1,0,0:0:0:0:
89,274,48305,1,0,0:0:0:0:
160,384,48447,6,0,L|211:304,1,67.5000025749208
303,339,48731,1,0,0:0:0:0:
219,226,48874,2,0,L|270:146,1,67.5000025749208
359,193,49158,1,0,0:0:0:0:
246,67,49300,2,0,L|297:-13,1,67.5000025749208
147,73,49584,2,0,L|115:13,1,67.5000025749208
102,161,49869,2,0,L|34:158,1,67.5000025749208
182,209,50153,5,0,0:0:0:0:
73,250,50295,1,0,0:0:0:0:
267,240,50438,1,0,0:0:0:0:
105,384,50580,1,0,0:0:0:0:
374,233,50722,6,0,B|398:220|398:220|434:102,1,135.000005149842
293,75,51148,2,0,L|356:49,1,67.5000025749208
303,188,51433,1,0,0:0:0:0:
192,135,51575,2,0,L|120:131,1,67.5000025749208
85,228,51859,1,0,0:0:0:0:
60,82,52002,1,0,0:0:0:0:
101,330,52144,1,0,0:0:0:0:
230,213,52286,1,0,0:0:0:0:
409,195,52428,6,0,L|476:233,1,67.5000025749208
375,90,52712,2,0,L|316:56,1,67.5000025749208
54,251,52997,6,0,L|197:210,1,135.000005149842
180,355,53281,1,0,0:0:0:0:
183,213,53423,2,0,L|326:172,1,135.000005149842
223,108,53708,1,0,0:0:0:0:
223,108,53779,1,0,0:0:0:0:
312,175,53850,2,0,L|376:155,1,67.5000025749208
463,124,53992,5,0,0:0:0:0:
305,87,54134,1,0,0:0:0:0:
133,134,54276,1,0,0:0:0:0:
58,261,54419,2,0,L|174:292,1,67.5000025749208
195,312,54561,1,0,0:0:0:0:
195,312,54632,1,0,0:0:0:0:
258,363,54703,2,0,L|336:326,1,67.5000025749208
463,124,54845,1,0,0:0:0:0:
450,384,55272,6,0,B|329:96|329:96|268:53,1,360
175,181,55698,1,0,0:0:0:0:
123,303,55840,2,0,B|274:302|274:302|300:290,1,180
179,68,56125,2,0,B|28:69|28:69|1:80,1,180
277,196,56409,2,0,B|322:57|322:57|271:75,1,180
0,198,56693,1,0,0:0:0:0:
123,303,56836,1,0,0:0:0:0:
300,289,56978,2,0,L|503:249,1,180
204,209,57262,1,0,0:0:0:0:
228,371,57404,6,0,B|115:92|115:92|139:18,1,360
393,105,57831,1,0,0:0:0:0:
388,369,57973,2,0,L|317:195,1,180
271,35,58257,1,0,0:0:0:0:
64,115,58400,1,0,0:0:0:0:
93,319,58542,6,0,B|171:81|171:81|284:28,1,360
431,184,58968,2,0,B|384:296|384:296|397:360,1,180
47,207,59253,2,0,B|81:108|81:108|74:33,1,180
203,322,59537,1,0,0:0:0:0:
297,128,59679,6,0,B|361:6|361:6|405:62,1,180
315,207,59964,1,0,0:0:0:0:
274,0,60106,1,0,0:0:0:0:
146,251,60248,2,0,B|82:345|82:345|18:364,1,180
124,161,60532,1,0,0:0:0:0:
203,322,60675,1,0,0:0:0:0:
159,62,60817,6,0,B|334:61|334:61|512:0,1,360
512,102,61243,2,0,L|408:138,1,90
345,168,61385,1,0,0:0:0:0:
374,297,61528,5,0,0:0:0:0:
248,151,61670,1,0,0:0:0:0:
60,129,61812,1,0,0:0:0:0:
86,351,61954,6,0,B|140:246|140:246|162:116,2,180
157,23,62381,1,0,0:0:0:0:
322,323,62523,2,0,B|314:193|314:193|337:149,1,180
458,309,62807,1,0,0:0:0:0:
507,100,62949,1,0,0:0:0:0:
507,100,63092,6,0,B|380:153|380:153|308:148,1,180
260,137,63305,1,0,0:0:0:0:
223,203,63376,2,0,L|19:228,1,180
81,298,63589,1,0,0:0:0:0:
81,298,63660,2,0,L|-9:339,1,90
253,312,63802,2,0,L|167:283,1,90
44,224,63945,1,0,0:0:0:0:
44,224,64229,6,0,B|109:131|109:131|334:32,1,360
416,326,64656,1,0,0:0:0:0:
502,213,64798,2,0,L|487:25,2,180
144,74,65224,1,0,0:0:0:0:
295,157,65366,2,0,L|92:146,2,180
127,384,65793,2,0,L|35:202,1,180
320,0,66077,2,0,L|411:181,1,180
115,147,66362,1,0,0:0:0:0:
115,147,66504,6,0,B|210:312|210:312|379:336,1,360
491,28,66930,1,0,0:0:0:0:
491,28,67073,2,0,B|448:223|448:223|511:370,1,360
298,231,67499,1,0,0:0:0:0:
298,231,67641,6,0,L|352:45,1,180
449,222,67926,1,0,0:0:0:0:
290,339,68068,1,0,0:0:0:0:
121,265,68211,1,0,0:0:0:0:
121,265,68282,1,0,0:0:0:0:
121,265,68353,2,0,L|319:226,1,180
40,316,68637,1,0,0:0:0:0:
30,108,68779,6,0,B|231:229|231:229|290:339,1,360
397,292,69205,2,0,L|351:216,1,90
463,60,69347,2,0,B|273:86|273:86|102:7,1,360
69,260,69774,2,0,L|67:349,1,90
183,381,69916,2,0,B|320:243|320:243|477:182,1,360
403,384,70343,2,0,L|361:272,1,90
250,315,70485,2,0,B|168:97|168:97|256:5,1,360
426,120,70911,2,0,L|295:131,1,90
31,312,71054,6,0,B|200:156|200:156|145:10,1,360
8,158,71480,1,0,0:0:0:0:
239,340,71622,2,0,L|168:174,1,180
287,32,71907,1,0,0:0:0:0:
426,120,72049,1,0,0:0:0:0:
461,272,72191,6,0,L|281:255,2,180
126,300,72618,1,0,0:0:0:0:
325,133,72760,2,0,B|218:156|218:156|136:130,1,180
24,56,73044,1,0,0:0:0:0:
81,213,73186,1,0,0:0:0:0:
7,357,73329,2,0,L|104:379,1,67.5000025749208
178,372,73471,6,0,L|308:337,1,135.000005149842
428,108,73755,2,0,L|297:141,1,135.000005149842
448,369,74039,2,0,L|425:235,1,135.000005149842
158,119,74324,2,0,L|181:251,1,135.000005149842
448,369,74608,1,0,0:0:0:0:
428,108,74750,1,0,0:0:0:0:
158,119,74893,1,0,0:0:0:0:
178,372,75035,2,0,B|361:323|361:323|394:249,1,270.000010299683
14,180,75461,2,0,L|89:293,1,135.000005149842
428,108,75746,6,0,B|403:69|403:69|183:23,1,270.000010299683
315,253,76172,2,0,L|237:142,1,135.000005149842
33,220,76456,1,0,0:0:0:0:
121,384,76599,2,0,L|150:239,1,135.000005149842
0,0,76883,2,0,L|40:151,1,135.000005149842
33,220,77096,1,0,0:0:0:0:
0,292,77167,2,0,L|59:363,1,67.5000025749208
121,384,77310,1,0,0:0:0:0:
121,384,77381,1,0,0:0:0:0:
33,220,77452,6,0,L|123:231,1,90
144,152,77594,2,0,L|241:140,1,90
283,270,77736,2,0,L|383:282,1,90
351,115,77878,2,0,L|443:101,1,90
510,257,78020,6,0,B|498:93|498:93|460:40,1,225
286,26,78305,1,0,0:0:0:0:
391,331,78447,2,0,B|220:81|220:81|238:229,1,450
255,373,78874,1,0,0:0:0:0:
3,115,79016,6,0,B|10:171|10:171|134:291,1,225
255,373,79300,2,0,B|238:226|238:226|322:258,1,225
391,331,79584,2,0,B|530:371|530:371|476:297,1,225
415,178,79869,1,0,0:0:0:0:
415,178,80011,2,0,B|326:112|326:112|205:119,1,225
111,119,80224,1,0,0:0:0:0:
33,248,80295,6,0,B|205:226|205:226|409:39,1,450
205,225,80722,1,0,0:0:0:0:
474,377,80864,2,0,B|344:119|344:119|462:9,1,450
302,225,81291,1,0,0:0:0:0:
93,346,81433,2,0,B|405:274|405:274|345:158,1,450
16,22,81859,2,0,L|166:87,1,112.5
83,137,82002,6,0,L|208:151,1,112.5
175,221,82144,2,0,L|274:273,1,112.5
338,329,82286,1,0,0:0:0:0:
338,329,82357,1,0,0:0:0:0:
412,384,82428,2,0,L|571:301,1,112.5
481,160,82570,5,0,0:0:0:0:
175,221,82712,2,0,B|338:186|338:186|436:51,1,225
412,384,82997,2,0,B|371:138|371:138|141:56,1,450
75,237,83423,1,0,0:0:0:0:
232,345,83565,2,0,L|455:315,1,225
280,39,83850,2,0,L|57:69,1,225
409,216,84134,2,0,L|379:-7,1,225
103,168,84419,2,0,L|133:391,1,225
214,180,84703,6,0,L|67:163,1,112.5
8,56,84845,1,0,0:0:0:0:
8,56,84987,1,0,0:0:0:0:
12,307,85272,2,0,L|123:319,1,112.5
270,254,85414,1,0,0:0:0:0:
270,254,85556,1,0,0:0:0:0:
354,0,85840,6,0,L|341:111,1,112.5
267,141,85983,5,0,0:0:0:0:
267,141,86054,1,0,0:0:0:0:
188,111,86125,2,0,L|80:145,1,112.5
16,225,86267,1,0,0:0:0:0:
16,225,86338,1,0,0:0:0:0:
16,225,86409,1,0,0:0:0:0:
16,225,86480,1,0,0:0:0:0:
107,266,86551,6,0,L|215:300,1,112.5
442,272,86693,2,0,L|346:211,1,112.5
188,111,86836,2,0,L|301:115,1,112.5
409,74,86978,1,0,0:0:0:0:
409,74,87049,1,0,0:0:0:0:
481,173,87120,6,0,B|346:213|346:213|261:192,1,180
37,57,87404,2,0,B|172:17|172:17|210:26,1,180
115,289,87689,1,0,0:0:0:0:
188,111,87831,1,0,0:0:0:0:
366,55,87973,1,0,0:0:0:0:
279,367,88115,6,0,B|295:109|295:109|251:16,1,360
19,155,88471,1,0,0:0:0:0:
85,218,88542,2,0,L|175:210,1,90
257,234,88684,1,0,0:0:0:0:
257,234,88755,1,0,0:0:0:0:
395,272,88826,1,0,0:0:0:0:
395,272,88897,1,0,0:0:0:0:
474,378,88968,5,0,0:0:0:0:
