osu file format v14

[General]
AudioFilename: audio.mp3
AudioLeadIn: 0
PreviewTime:54620
Countdown: 0
SampleSet: Soft
StackLeniency: 1
Mode: 0
LetterboxInBreaks: 0
WidescreenStoryboard: 1

[Editor]
DistanceSpacing: 1.2
BeatDivisor: 4
GridSize: 4
TimelineZoom: 1.2

[Metadata]
Title:Hello,world! (TV Size)
TitleUnicode:Hello,world! (TV Size)
Artist:BUMP OF CHICKEN
ArtistUnicode:BUMP OF CHICKEN
Creator:Wanpachi
Version:Delis' Insane
Source:血界戦線
Tags:delis shirohamymommy pishifat ponbot kittyadventure gokugohan12468 kyouren addy2607 kaedeharakazuha Blood Blockade Battlefront Kekkai Sensen opening op cut ver version JAPANESE ROCK ANIME JROCK J-ROCK 1st first season 1 one
BeatmapID:3915986
BeatmapSetID:1899836

[Difficulty]
HPDrainRate:7
CircleSize:4
OverallDifficulty:7
ApproachRate:9
SliderMultiplier:1.7
SliderTickRate:1

[Events]
//Background and Video events
0,0,"f63a3996bdcfd1b3dbdb9a6a2a023e30.jpg",0,0
//Break Periods
//Storyboard Layer 0 (Background)
//Storyboard Layer 1 (Fail)
//Storyboard Layer 2 (Pass)
//Storyboard Layer 3 (Foreground)
//Storyboard Layer 4 (Overlay)
//Storyboard Sound Samples

[TimingPoints]
708,284.124541257251,4,2,1,40,1,0
708,-125,4,2,1,40,0,0
17400,-100,4,2,1,50,0,0
18891,-100,4,2,1,70,0,0
26989,-100,4,2,2,70,0,0
27060,-100,4,2,1,70,0,0
27415,-83.3333333333333,4,2,1,70,0,0
27557,-100,4,2,1,70,0,0
27983,-100,4,2,1,60,0,0
46167,-100,4,2,1,50,0,0
54691,-100,4,2,1,60,0,0
54833,-100,4,2,2,60,0,0
54904,-100,4,2,1,60,0,0
55259,-100,4,2,1,70,0,0
77563,-100,4,2,2,70,0,0
77634,-100,4,2,1,70,0,0
77989,-100,4,2,1,80,0,0
80760,-100,4,2,2,80,0,0
80902,-100,4,2,1,80,0,0
83033,-100,4,2,2,80,0,0
83175,-100,4,2,1,80,0,0
85306,-100,4,2,2,80,0,0
85448,-100,4,2,1,80,0,0
87081,-100,4,2,1,70,0,0
95179,-100,4,2,2,70,0,0
95250,-100,4,2,1,70,0,0

[Colours]
Combo1 : 117,0,117
Combo2 : 0,88,176
Combo3 : 92,121,49
Combo4 : 162,162,162

[HitObjects]
268,272,139,5,2,0:0:0:0:
324,200,281,2,0,B|364:114|306:18,1,170,2|2,0:0|0:0,0:0:0:0:
128,120,708,5,4,1:2:0:0:
160,208,850,1,0,1:0:0:0:
104,284,992,2,0,B|74:258|21:245,1,68,8|0,0:0|0:0,0:0:0:0:
172,352,1276,2,0,B|244:379|317:315,1,136,8|8,0:0|0:0,0:0:0:0:
289,188,1702,2,0,B|219:167|157:209,1,136,2|0,0:0|0:2,0:0:0:0:
228,268,2128,1,8,0:0:0:0:
384,116,2412,6,0,B|382:68|368:38,2,68,8|0|8,0:0|0:0|0:0,0:0:0:0:
368,208,2838,2,0,B|342:281|381:342,1,136,2|0,0:0|0:0,0:0:0:0:
448,264,3265,1,8,0:0:0:0:
272,300,3549,1,8,0:0:0:0:
272,300,3691,2,0,B|239:285|196:284,1,68,2|8,0:0|0:0,0:0:0:0:
116,280,3975,1,2,0:2:0:0:
180,84,4259,1,2,0:0:0:0:
180,84,4401,1,8,0:0:0:0:
344,168,4685,6,0,B|348:204|345:260,1,68,8|0,0:0|0:0,0:0:0:0:
356,332,4969,1,8,0:0:0:0:
448,360,5111,1,2,0:0:0:0:
448,264,5253,2,0,B|421:204|443:123,2,136,8|8|8,0:0|0:0|0:0,0:0:0:0:
232,208,6106,1,8,0:0:0:0:
252,124,6248,2,0,B|255:72|255:47,1,68,2|8,0:2|0:0,0:0:0:0:
144,208,6532,2,0,B|141:260|141:285,2,68,2|8|0,0:0|0:0|0:0,0:0:0:0:
164,112,6958,5,8,0:0:0:0:
232,208,7100,1,2,0:2:0:0:
164,112,7242,1,8,0:0:0:0:
336,80,7384,2,0,B|325:144|326:224,1,136,2|0,0:0|0:0,0:0:0:0:
404,256,7811,2,0,B|410:220|409:178,1,68,8|0,0:0|0:0,0:0:0:0:
320,296,8095,1,8,0:0:0:0:
320,296,8237,2,0,B|350:324|373:348,1,68,2|8,0:0|0:0,0:0:0:0:
232,208,8521,1,2,0:2:0:0:
148,280,8663,1,8,0:0:0:0:
244,336,8805,1,2,0:2:0:0:
228,128,9231,6,0,B|225:89|227:45,2,68,8|0|8,0:0|0:0|0:0,0:0:0:0:
312,160,9657,2,0,B|385:142|456:152,1,136,2|0,0:3|0:0,0:0:0:0:
356,248,10084,1,8,0:0:0:0:
256,244,10226,2,0,B|183:235|111:253,1,136,2|0,0:0|0:0,0:0:0:0:
200,328,10652,1,8,0:0:0:0:
296,332,10794,2,0,B|342:331|395:338,1,68,2|8,0:0|0:0,0:0:0:0:
456,340,11078,1,2,0:2:0:0:
456,340,11220,1,8,0:0:0:0:
404,116,11504,5,8,0:0:0:0:
472,188,11646,2,0,B|430:198|385:210,1,68,2|8,0:0|0:0,0:0:0:0:
328,228,11930,2,0,B|248:198|270:108,1,136,2|0,0:2|0:0,0:0:0:0:
384,32,12357,2,0,B|346:53|314:62,1,68,8|0,0:0|0:0,0:0:0:0:
124,64,12641,2,0,B|156:72|192:85,1,68,8|0,0:0|0:0,0:0:0:0:
188,248,12925,1,8,0:0:0:0:
188,248,13067,2,0,P|86:215|66:169,2,136,2|2|0,0:0|0:0|0:0,0:0:0:0:
264,296,13777,6,0,P|268:340|266:370,2,68,8|0|8,0:0|0:0|0:0,0:0:0:0:
284,208,14203,2,0,P|262:165|266:73,1,136,2|0,0:0|0:0,0:0:0:0:
360,140,14630,2,0,B|401:134|439:139,1,68,8|0,0:0|0:0,0:0:0:0:
424,224,14914,2,0,B|383:230|345:225,1,68,8|0,0:0|0:0,0:0:0:0:
252,116,15198,5,8,0:0:0:0:
184,176,15340,2,0,P|114:183|49:142,1,136,2|0,0:0|0:0,0:0:0:0:
164,36,15766,2,0,P|169:86|165:118,1,68,8|0,0:0|0:0,0:0:0:0:
276,220,16050,2,0,P|272:168|276:136,1,68,8|0,0:0|0:0,0:0:0:0:
372,196,16334,1,8,0:0:0:0:
208,268,16618,5,8,0:0:0:0:
128,248,16761,2,0,P|124:333|140:398,2,136,2|2|0,0:0|0:0|0:0,0:0:0:0:
144,88,17471,1,8,0:0:0:0:
220,200,17613,1,2,0:0:0:0:
88,156,17755,6,0,L|0:168,1,85,2|0,3:2|0:0,0:0:0:0:
276,128,18039,2,0,L|364:120,1,85,2|0,3:2|0:0,0:0:0:0:
128,248,18323,5,0,1:0:0:0:
216,36,18465,1,2,1:3:0:0:
208,44,18891,2,0,B|194:126|203:222,2,170,4|0|0,3:2|1:0|1:0,0:0:0:0:
112,64,19602,2,0,B|115:118|114:180,1,85,0|0,3:0|3:0,0:0:0:0:
284,116,19886,2,0,B|325:198|277:284,1,170,0|0,1:0|3:0,0:0:0:0:
104,248,20312,2,0,P|141:239|187:233,1,85,0|0,1:0|0:0,0:0:0:0:
448,208,20596,1,0,3:0:0:0:
384,136,20738,1,0,3:0:0:0:
320,240,20880,1,0,1:0:0:0:
284,116,21022,5,0,1:0:0:0:
284,116,21093,1,0,1:0:0:0:
284,116,21164,2,0,B|266:69|280:18,1,85,4|0,3:2|0:0,0:0:0:0:
392,272,21449,2,0,B|406:315|399:364,1,85,0|0,1:0|0:0,0:0:0:0:
176,324,21733,2,0,B|221:316|263:300,1,85,0|0,1:0|3:0,0:0:0:0:
180,128,22017,1,0,3:0:0:0:
72,212,22159,2,0,B|166:248|148:200|243:228,1,170,0|0,1:0|3:0,0:0:0:0:
332,200,22585,1,0,1:0:0:0:
384,120,22727,5,0,3:0:0:0:
384,120,22798,1,0,3:0:0:0:
384,120,22869,2,0,L|388:28,1,85,0|8,1:0|0:3,0:0:0:0:
244,60,23153,2,0,L|248:152,1,85,4|4,0:3|0:3,0:0:0:0:
248,320,23437,6,0,B|262:278|261:236,1,85,4|0,3:2|0:0,0:0:0:0:
168,192,23722,2,0,B|151:232|155:276,1,85,0|0,1:0|0:0,0:0:0:0:
68,336,24006,2,0,B|64:286|50:237,1,85,0|0,1:0|3:0,0:0:0:0:
88,168,24290,1,0,3:0:0:0:
156,100,24432,2,0,L|332:120,1,170,0|0,1:0|3:0,0:0:0:0:
440,196,24858,2,0,B|398:201|352:207,1,85,0|0,1:0|0:0,0:0:0:0:
264,220,25142,5,0,3:0:0:0:
192,296,25284,1,0,3:0:0:0:
208,160,25426,1,0,1:0:0:0:
88,168,25568,1,0,1:0:0:0:
88,168,25639,1,0,1:0:0:0:
88,168,25710,2,0,L|76:72,1,85,4|0,3:2|3:0,0:0:0:0:
88,272,25995,2,0,B|105:317|96:368,1,85,0|0,1:0|0:0,0:0:0:0:
192,296,26279,6,0,B|262:240|363:264,1,170,0|0,1:0|3:0,0:0:0:0:
440,108,26705,2,0,B|352:137|283:68,1,170,0|4,1:0|3:0,0:0:0:0:
196,96,27131,1,0,1:3:0:0:
168,208,27273,5,0,3:0:0:0:
168,208,27344,1,0,3:0:0:0:
168,208,27415,2,0,P|225:197|270:192,1,101.999996887207,0|2,1:0|1:3,0:0:0:0:
356,180,27983,5,4,1:2:0:0:
276,276,28126,1,0,1:0:0:0:
168,208,28268,2,0,B|117:189|106:139,1,85,8|0,0:0|0:0,0:0:0:0:
196,96,28552,2,0,B|212:53|263:35,1,85,8|0,0:0|0:0,0:0:0:0:
264,160,28836,1,8,0:0:0:0:
188,300,28978,6,0,L|104:308,1,85,2|8,0:0|0:0,0:0:0:0:
96,208,29262,2,0,L|8:200,2,85,2|8|0,0:0|0:0|0:0,0:0:0:0:
196,96,29688,5,8,0:0:0:0:
120,128,29830,1,2,0:0:0:0:
264,160,29972,1,8,0:0:0:0:
271,75,30114,1,2,0:0:0:0:
264,263,30256,6,0,B|227:280|185:300,1,85,8|0,0:0|1:0,0:0:0:0:
348,216,30541,2,0,L|432:264,1,85,0|0,1:2|0:0,0:0:0:0:
264,160,30825,2,0,L|272:68,1,85,8|0,0:0|0:0,0:0:0:0:
168,160,31109,1,8,0:0:0:0:
168,160,31251,2,0,B|155:250|154:337,1,170,2|0,0:0|0:0,0:0:0:0:
64,320,31677,2,0,B|70:277|75:218,1,85,8|0,0:0|0:0,0:0:0:0:
80,156,31961,1,8,0:0:0:0:
232,280,32103,5,0,1:0:0:0:
328,316,32245,1,8,0:0:0:0:
392,236,32387,1,2,0:2:0:0:
292,196,32529,6,0,P|280:160|285:129,2,56.6666666666667,0|0|0,1:0|1:0|1:0,0:0:0:0:
272,216,32814,2,0,B|248:263|246:307,1,85,8|0,0:0|0:0,0:0:0:0:
180,144,33098,2,0,B|168:193|158:232,1,85,8|0,0:0|0:0,0:0:0:0:
80,156,33382,1,8,0:0:0:0:
120,72,33524,2,0,B|188:16|284:52,1,170,2|0,0:0|0:0,0:0:0:0:
364,104,33950,2,0,P|355:156|352:197,1,85,8|0,0:0|0:0,0:0:0:0:
260,132,34234,1,8,0:0:0:0:
440,132,34376,5,2,0:0:0:0:
512,188,34518,1,2,1:0:0:0:
448,264,34660,1,2,0:0:0:0:
364,208,34802,2,0,B|356:252|373:302,1,85,8|0,0:0|0:0,0:0:0:0:
236,300,35087,2,0,B|250:258|244:206,1,85,8|0,0:0|0:0,0:0:0:0:
176,152,35371,1,8,0:0:0:0:
80,156,35513,2,0,P|32:160|-11:165,1,85,2|8,0:0|0:0,0:0:0:0:
156,60,35797,2,0,L|328:72,1,170,2|0,0:0|1:0,0:0:0:0:
256,196,36223,5,0,1:0:0:0:
256,196,36507,2,0,B|306:192|351:200,1,85,8|2,0:0|0:0,0:0:0:0:
136,344,36791,2,0,B|86:348|41:340,1,85,2|0,0:3|0:0,0:0:0:0:
260,296,37075,5,0,3:0:0:0:
260,296,37218,1,0,3:0:0:0:
260,296,37360,2,0,B|337:262|427:280,2,170,4|0|0,1:2|0:0|3:0,0:0:0:0:
168,256,38070,2,0,B|150:215|159:156,1,85,0|0,1:0|0:0,0:0:0:0:
312,64,38354,2,0,B|330:105|321:164,1,85,0|0,1:0|3:0,0:0:0:0:
232,112,38638,1,2,0:0:0:0:
249,211,38780,6,0,L|261:303,1,85,8|0,0:0|0:0,0:0:0:0:
344,232,39064,1,8,0:0:0:0:
168,256,39206,2,0,B|72:285|-4:204,1,170,2|0,0:0|0:0,0:0:0:0:
80,88,39633,2,0,B|99:133|96:198,1,85,8|0,0:0|0:0,0:0:0:0:
256,272,39917,2,0,B|237:227|240:162,1,85,8|0,0:0|0:0,0:0:0:0:
332,52,40201,5,8,0:0:0:0:
384,120,40343,1,0,1:0:0:0:
384,120,40485,2,0,P|390:200|384:236,1,85,0|0,1:0|0:0,0:0:0:0:
389,204,40911,1,0,1:0:0:0:
172,332,41053,2,0,P|161:290|165:236,1,85,0|0,1:0|0:0,0:0:0:0:
276,132,41337,2,0,P|285:175|286:223,1,85,8|0,0:0|0:0,0:0:0:0:
184,160,41621,5,0,1:0:0:0:
100,136,41763,1,0,1:0:0:0:
16,108,41906,1,8,0:0:0:0:
16,108,42190,5,8,0:0:0:0:
276,252,42474,5,8,0:0:0:0:
348,316,42616,2,0,P|408:308|463:206,1,170,0|0,1:0|0:0,0:0:0:0:
280,152,43042,1,0,1:0:0:0:
280,152,43326,5,8,0:0:0:0:
188,216,43610,6,0,B|161:276|186:344,1,127.5,8|0,0:0|0:0,0:0:0:0:
184,340,43894,1,8,0:0:0:0:
96,304,44036,2,0,L|8:288,1,85,0|8,1:0|0:0,0:0:0:0:
264,264,44321,2,0,L|348:304,1,85,2|0,0:0|0:0,0:0:0:0:
92,200,44605,2,0,L|104:112,1,85,2|8,0:0|0:0,0:0:0:0:
208,80,44889,5,0,3:0:0:0:
208,80,44960,1,0,3:0:0:0:
208,80,45031,1,0,1:0:0:0:
188,216,45173,1,0,1:0:0:0:
103,115,45315,1,0,3:0:0:0:
188,216,45457,1,0,3:0:0:0:
320,176,45599,5,0,1:0:0:0:
352,32,45741,1,8,0:3:0:0:
208,80,45883,1,4,0:3:0:0:
372,264,46025,1,4,0:3:0:0:
400,120,46167,1,4,3:2:0:0:
228,280,46452,5,0,3:0:0:0:
228,280,46594,2,0,P|148:285|75:227,1,170,0|0,1:0|0:0,0:0:0:0:
191,117,47020,2,0,P|267:70|371:97,1,170,0|0,3:0|0:0,0:0:0:0:
280,192,47446,1,0,1:0:0:0:
328,268,47588,1,0,3:0:0:0:
328,268,47872,2,0,B|376:272|410:250,1,85,0|0,3:0|3:0,0:0:0:0:
456,116,48156,5,0,1:0:0:0:
368,128,48298,1,0,1:0:0:0:
275,107,48440,2,0,L|171:119,1,85,4|0,3:2|0:0,0:0:0:0:
104,128,48725,1,0,3:0:0:0:
48,228,48867,2,0,L|144:236,1,85,0|0,1:0|0:0,0:0:0:0:
216,240,49151,1,0,3:0:0:0:
400,204,49293,2,0,L|220:188,1,170,0|0,3:0|3:0,0:0:0:0:
160,128,49719,2,0,P|154:80|147:39,2,85,0|0|0,1:0|0:0|3:0,0:0:0:0:
196,324,50145,5,0,1:0:0:0:
284,344,50287,1,0,1:0:0:0:
188,232,50429,1,8,0:3:0:0:
108,352,50571,1,4,0:3:0:0:
284,344,50713,6,0,B|381:366|443:284,1,170,4|0,3:2|3:0,0:0:0:0:
280,240,51140,2,0,P|204:246|110:202,1,170,0|0,1:0|3:0,0:0:0:0:
284,152,51566,2,0,P|374:148|440:100,1,170,0|0,3:0|0:0,0:0:0:0:
240,72,51992,2,0,B|192:74|148:84,1,85,0|0,3:0|1:0,0:0:0:0:
84,140,52276,1,2,0:0:0:0:
192,276,52418,2,0,P|199:222|196:180,1,85,0|0,3:0|0:0,0:0:0:0:
84,272,52702,2,0,B|80:324|101:369,1,85,0|0,1:0|0:0,0:0:0:0:
276,344,52986,6,0,B|310:250|286:173,1,170,4|0,3:2|1:0,0:0:0:0:
168,124,53413,2,0,B|156:176|157:226,1,85,4|0,3:2|0:0,0:0:0:0:
157,208,53697,1,0,1:0:0:0:
392,256,53839,2,0,P|387:171|380:76,1,170,4|0,3:2|3:0,0:0:0:0:
44,156,54407,1,0,1:0:0:0:
296,176,54691,5,0,1:0:0:0:
168,124,54833,1,6,1:3:0:0:
168,124,55259,2,0,P|241:81|337:85,1,170,4|0,3:1|1:0,0:0:0:0:
364,252,55686,2,0,P|287:294|197:286,1,170,0|0,3:0|3:0,0:0:0:0:
120,224,56112,1,0,1:0:0:0:
213,197,56254,2,0,B|258:191|300:174,1,85,0|2,3:0|0:1,0:0:0:0:
84,144,56538,2,0,B|41:132|-11:131,1,85,0|0,3:0|1:0,0:0:0:0:
168,120,56822,1,0,3:0:0:0:
232,68,56964,2,0,B|281:75|323:74,1,85,2|0,3:1|3:0,0:0:0:0:
380,272,57248,5,0,1:0:0:0:
468,216,57390,2,0,P|411:168|299:177,1,170,0|0,1:0|0:0,0:0:0:0:
264,240,57817,1,0,1:0:0:0:
184,288,57959,1,0,3:0:0:0:
184,288,58030,1,0,1:0:0:0:
184,288,58101,2,0,B|161:324|144:375,2,85,2|0|0,3:1|3:0|1:0,0:0:0:0:
188,192,58527,2,0,B|252:127|215:34,1,170,0|0,3:0|3:0,0:0:0:0:
112,144,58953,2,0,B|70:154|17:160,1,85,0|0,1:0|0:0,0:0:0:0:
264,240,59237,2,0,B|282:193|301:157,1,85,2|0,3:1|3:0,0:0:0:0:
104,236,59521,5,0,1:0:0:0:
184,288,59663,1,0,1:0:0:0:
104,236,59805,2,0,B|63:146|126:67,1,170,0|0,3:2|1:0,0:0:0:0:
216,112,60232,1,0,3:0:0:0:
216,112,60303,1,0,1:0:0:0:
216,112,60374,2,0,B|260:116|320:142,1,85,0|0,3:0|3:0,0:0:0:0:
464,188,60658,5,0,1:0:0:0:
444,284,60800,2,0,B|386:351|283:318,1,170,0|0,3:0|3:0,0:0:0:0:
220,212,61226,1,0,1:0:0:0:
144,152,61368,2,0,B|45:130|-15:200,1,170,0|0,3:0|3:0,0:0:0:0:
32,48,61794,2,0,B|72:65|122:71,1,85,0|0,1:0|1:0,0:0:0:0:
220,212,62078,2,0,B|219:168|229:122,1,85,0|0,3:0|0:0,0:0:0:0:
296,264,62363,2,0,B|300:308|288:366,1,85,0|0,1:0|3:0,0:0:0:0:
212,296,62647,5,0,3:0:0:0:
336,188,62789,1,0,3:0:0:0:
384,288,62931,1,0,1:0:0:0:
220,212,63073,1,0,3:0:0:0:
220,212,63357,5,0,3:0:0:0:
296,264,63499,1,0,1:0:0:0:
212,296,63641,1,0,3:0:0:0:
132,248,63783,6,0,B|118:206|128:147,1,85,0|0,3:0|3:0,0:0:0:0:
136,40,64067,2,0,B|96:59|46:51,1,85,0|0,1:0|1:0,0:0:0:0:
224,112,64351,2,0,P|303:94|394:112,1,170,4|0,3:2|1:0,0:0:0:0:
388,320,64778,2,0,P|304:344|210:324,1,170,0|0,3:0|3:0,0:0:0:0:
188,188,65204,1,0,1:0:0:0:
130,124,65346,2,0,B|138:80|135:34,1,85,0|2,3:0|0:1,0:0:0:0:
104,208,65630,2,0,B|63:232|32:257,1,85,0|0,3:0|1:0,0:0:0:0:
188,188,65914,1,0,3:0:0:0:
204,184,65985,1,0,1:0:0:0:
220,180,66056,2,0,B|278:175|312:186,1,85,2|0,3:1|3:0,0:0:0:0:
240,280,66340,5,0,1:0:0:0:
328,272,66482,2,0,B|379:268|421:266,1,85,0|0,1:0|3:0,0:0:0:0:
500,272,66766,1,2,0:0:0:0:
396,356,66909,1,0,1:0:0:0:
452,192,67051,2,0,P|396:188|345:184,1,85,0|2,3:0|3:1,0:0:0:0:
296,136,67335,1,0,3:0:0:0:
372,96,67477,1,0,1:0:0:0:
216,80,67619,2,0,P|146:37|57:44,1,170,0|0,3:0|3:0,0:0:0:0:
180,172,68045,2,0,B|193:216|188:264,1,85,0|0,1:0|3:0,0:0:0:0:
312,304,68329,2,0,P|306:253|303:203,1,85,2|0,3:1|3:0,0:0:0:0:
216,336,68613,5,0,1:0:0:0:
216,336,68755,2,0,B|119:362|54:280,1,170,0|0,1:0|0:0,0:0:0:0:
32,212,69182,1,0,1:0:0:0:
60,128,69324,2,0,B|73:82|76:42,2,85,0|0|0,3:0|3:0|3:0,0:0:0:0:
144,192,69750,5,0,1:0:0:0:
144,192,69892,2,0,B|225:188|313:184,1,170,0|0,3:0|3:0,0:0:0:0:
364,96,70318,1,0,1:0:0:0:
364,96,70460,2,0,B|283:100|195:104,1,170,0|0,3:0|3:0,0:0:0:0:
216,272,70886,2,0,B|257:269|312:267,1,85,0|0,1:0|1:0,0:0:0:0:
384,216,71170,5,0,3:0:0:0:
452,148,71312,1,2,0:0:0:0:
364,96,71455,1,0,1:0:0:0:
296,172,71597,1,0,3:0:0:0:
216,128,71739,2,0,B|225:92|229:44,1,85,0|0,3:0|3:0,0:0:0:0:
136,72,72023,1,0,1:0:0:0:
112,168,72165,2,0,B|92:253|113:346,1,170,0|0,3:0|3:0,0:0:0:0:
200,344,72591,5,0,1:0:0:0:
288,328,72733,1,0,3:0:0:0:
372,308,72875,2,0,B|464:286,1,85,0|0,3:0|3:0,0:0:0:0:
312,200,73159,2,0,B|414:209,1,85,4|0,1:2|1:0,0:0:0:0:
252,112,73443,6,0,B|446:97,2,170,4|0|0,3:1|1:0|3:0,0:0:0:0:
252,112,74296,2,0,B|224:154|215:195,1,85,0|0,1:0|0:0,0:0:0:0:
120,340,74580,1,4,3:2:0:0:
152,260,74722,1,0,0:0:0:0:
88,200,74864,1,0,1:0:0:0:
40,280,75006,2,0,B|-4:200|39:117,1,170,0|0,3:0|3:0,0:0:0:0:
140,36,75432,2,0,B|172:64|207:93,1,85,0|0,1:0|1:0,0:0:0:0:
328,240,75716,6,0,B|345:198|337:151,1,85,4|0,3:2|3:0,0:0:0:0:
226,237,76001,2,0,B|204:284|208:339,1,85,0|0,1:0|3:0,0:0:0:0:
248,156,76285,2,0,B|198:151|154:127,1,85,0|0,1:0|3:0,0:0:0:0:
320,328,76569,2,0,B|363:330|426:355,1,85,0|0,1:0|0:0,0:0:0:0:
424,216,76853,5,4,3:2:0:0:
416,132,76995,2,0,B|407:83|411:39,2,85,0|0|0,3:0|1:0|3:0,0:0:0:0:
316,216,77421,5,0,1:0:0:0:
164,104,77563,1,4,1:3:0:0:
226,237,77705,1,0,1:0:0:0:
256,116,77847,1,0,1:0:0:0:
104,168,77989,5,4,3:1:0:0:
104,168,78131,2,0,P|98:215|96:264,1,85,0|0,3:0|1:0,0:0:0:0:
184,328,78416,2,0,B|254:293|349:302,1,170,0|0,3:0|3:0,0:0:0:0:
432,336,78842,1,0,3:0:0:0:
360,192,78984,2,0,B|350:144|354:98,1,85,0|0,1:0|3:2,0:0:0:0:
512,112,79268,2,0,L|432:148,1,85,0|0,3:0|1:0,0:0:0:0:
300,260,79552,2,0,B|262:243|212:246,1,85,0|0,3:0|3:0,0:0:0:0:
80,76,79836,2,0,B|148:115|247:97,1,170,0|2,3:0|0:3,0:0:0:0:
116,184,80262,6,0,B|100:223|103:267,1,85,0|0,3:0|3:0,0:0:0:0:
276,178,80546,2,0,B|286:231|301:263,1,85,0|0,1:0|3:0,0:0:0:0:
212,256,80831,2,0,B|196:344,1,85,2|0,1:0|3:0,0:0:0:0:
368,208,81115,2,0,B|408:284,1,85,0|0,3:0|1:0,0:0:0:0:
440,164,81399,2,0,B|430:116|445:60,2,85,0|0|0,3:0|3:0|1:0,0:0:0:0:
348,112,81825,2,0,B|269:63|179:93,1,170,0|0,3:0|3:0,0:0:0:0:
156,296,82251,1,0,1:0:0:0:
252,312,82393,1,0,1:0:0:0:
456,204,82535,5,4,3:1:0:0:
360,188,82677,2,0,P|353:243|345:366,1,170,0|0,3:0|3:0,0:0:0:0:
432,312,83104,1,2,1:0:0:0:
252,312,83246,2,0,P|252:269|264:211,1,85,0|0,3:0|3:0,0:0:0:0:
344,272,83530,2,0,P|405:275|459:280,1,85,0|0,1:0|3:0,0:0:0:0:
168,260,83814,2,0,P|118:258|69:257,1,85,0|0,3:0|1:0,0:0:0:0:
212,184,84098,5,0,3:0:0:0:
124,156,84240,1,0,3:0:0:0:
212,64,84382,1,0,3:0:0:0:
296,204,84524,1,0,1:0:0:0:
408,124,84666,1,2,0:3:0:0:
408,124,84808,2,0,P|403:80|396:29,2,85,0|0|0,3:0|3:0|1:0,0:0:0:0:
448,204,85235,1,0,3:0:0:0:
432,284,85377,2,0,L|420:376,1,85,2|0,1:0|3:0,0:0:0:0:
268,328,85661,2,0,P|254:273|259:233,1,85,0|0,3:0|1:0,0:0:0:0:
284,96,85945,5,4,3:2:0:0:
240,168,86087,1,0,3:0:0:0:
240,168,86158,1,0,3:0:0:0:
240,168,86229,2,0,L|152:124,1,85,0|0,1:0|3:0,0:0:0:0:
336,176,86513,5,0,1:0:0:0:
160,232,86655,1,0,1:0:0:0:
332,256,86797,1,0,3:0:0:0:
216,304,86939,1,0,1:0:0:0:
301,338,87081,6,0,B|377:330|412:338|477:326,2,170,4|0|0,3:2|1:0|1:0,0:0:0:0:
216,304,87792,2,0,P|174:309|126:316,1,85,0|0,3:0|3:0,0:0:0:0:
68,256,88076,2,0,P|47:168|106:85,1,170,0|0,1:0|3:0,0:0:0:0:
228,176,88502,1,0,1:0:0:0:
228,176,88786,2,0,P|278:162|314:150,1,85,0|0,3:0|3:0,0:0:0:0:
288,260,89070,1,0,1:0:0:0:
184,268,89212,5,0,1:0:0:0:
184,268,89283,1,0,1:0:0:0:
184,268,89354,2,0,P|88:272|8:208,2,170,4|0|0,3:2|1:0|1:0,0:0:0:0:
160,356,90065,2,0,P|217:348|272:346,1,85,0|0,3:0|3:0,0:0:0:0:
344,340,90349,2,0,P|402:321|443:226,1,170,0|0,1:0|3:0,0:0:0:0:
368,164,90775,1,0,1:0:0:0:
316,236,90917,5,0,3:0:0:0:
316,236,90988,1,0,3:0:0:0:
316,236,91059,1,0,1:0:0:0:
340,80,91201,1,8,0:3:0:0:
464,196,91343,1,4,0:3:0:0:
316,236,91485,1,4,0:3:0:0:
272,132,91627,6,0,P|226:146|189:160,1,85,4|0,3:2|0:0,0:0:0:0:
96,100,91911,2,0,P|142:86|179:72,1,85,0|0,1:0|0:0,0:0:0:0:
132,224,92196,2,0,L|120:320,1,85,0|0,1:0|3:0,0:0:0:0:
32,248,92480,1,0,3:0:0:0:
180,152,92622,2,0,P|279:166|348:229,1,170,0|0,1:0|3:0,0:0:0:0:
248,332,93048,2,0,P|245:294|247:227,1,85,0|0,1:0|0:0,0:0:0:0:
472,236,93332,1,0,3:0:0:0:
384,204,93474,1,0,3:0:0:0:
336,284,93616,1,0,1:0:0:0:
420,312,93758,1,0,1:0:0:0:
340,120,93900,6,0,P|345:69|349:23,1,85,4|0,3:2|0:0,0:0:0:0:
256,168,94184,2,0,L|232:272,1,85,0|0,1:0|0:0,0:0:0:0:
160,144,94469,2,0,L|144:40,1,85,0|0,1:0|3:0,0:0:0:0:
240,64,94753,1,0,3:0:0:0:
72,168,94895,2,0,L|76:264,1,85,0|0,1:0|0:0,0:0:0:0:
144,308,95179,1,4,3:0:0:0:
288,252,95321,1,0,1:0:0:0:
180,216,95463,1,0,3:0:0:0:
248,344,95605,5,0,1:0:0:0:
424,264,95747,1,2,1:3:0:0:
