osu file format v14

[General]
AudioFilename: hello.mp3
AudioLeadIn: 1500
PreviewTime:54276
Countdown: 0
SampleSet: Soft
StackLeniency: 0.7
Mode: 0
LetterboxInBreaks: 0
WidescreenStoryboard: 1

[Editor]
Bookmarks: 18874,27973,41622,46172,55272,87120
DistanceSpacing: 0.6
BeatDivisor: 4
GridSize: 4
TimelineZoom: 2.7

[Metadata]
Title:Hello,world! (TV Size)
TitleUnicode:Hello,world! (TV Size)
Artist:BUMP OF CHICKEN
ArtistUnicode:BUMP OF CHICKEN
Creator:Nevo
Version:browiec's Extra
Source:血界戦線
Tags:blood blockade battlefront kekkai sensen opening aakki jian smokelind browiec kalibe kuki1537 maiev japanese rock anime xandit jrock j-rock
BeatmapID:2599455
BeatmapSetID:1166888

[Difficulty]
HPDrainRate:5.6
CircleSize:3.6
OverallDifficulty:9
ApproachRate:9.3
SliderMultiplier:1.8
SliderTickRate:1

[Events]
//Background and Video events
0,0,"d.jpg",0,0
Video,0,"Hellokotaikotokoro-1.mp4"
//Break Periods
//Storyboard Layer 0 (Background)
//Storyboard Layer 1 (Fail)
//Storyboard Layer 2 (Pass)
//Storyboard Layer 3 (Foreground)
//Storyboard Layer 4 (Overlay)
//Storyboard Sound Samples

[TimingPoints]
675,284.36018957346,4,2,1,55,1,0
675,-142.857142857143,4,2,1,55,0,0
1347,-142.857142857143,4,2,1,55,0,0
7670,-142.857142857143,4,2,1,55,0,0
8258,-142.857142857143,4,2,1,55,0,0
17817,-142.857142857143,4,2,1,55,0,0
18874,-105.263157894737,4,2,1,75,0,0
27229,-105.263157894737,4,2,1,75,0,0
27973,-133.333333333333,4,2,1,65,0,0
36641,-133.333333333333,4,2,1,65,0,0
45035,-105.263157894737,4,2,1,65,0,0
46052,-105.263157894737,4,2,1,65,0,0
46172,-133.333333333333,4,2,1,65,0,0
47523,-133.333333333333,4,2,1,65,0,0
48258,-133.333333333333,4,2,1,65,0,0
52997,-105.263157894737,4,2,1,65,0,0
54845,-133.333333333333,4,2,1,65,0,0
55272,-100,4,2,1,90,0,0
67229,-100,4,2,1,90,0,0
76641,-100,4,2,1,90,0,0
78994,-100,4,2,1,90,0,0
80170,-100,4,2,1,90,0,0
81347,-100,4,2,1,90,0,0
82523,-100,4,2,1,90,0,0
83699,-100,4,2,1,90,0,0
84876,-100,4,2,1,90,0,0
86052,-100,4,2,1,90,0,0
86126,-100,4,2,1,90,0,0
87120,-100,4,2,1,75,0,0

[Colours]
Combo1 : 240,170,38
Combo2 : 23,104,86
Combo3 : 150,5,81
Combo4 : 18,124,255

[HitObjects]
80,60,675,5,4,3:1:0:0:
132,296,817,1,0,3:0:0:0:
220,136,959,1,10,0:0:0:0:
220,136,1101,2,0,B|284:116|280:160|344:140,1,125.999996154785,2|0,0:0|0:0,0:0:0:0:
440,80,1528,1,10,0:0:0:0:
440,80,1670,6,0,L|428:220,1,125.999996154785,2|8,0:0|0:1,0:0:0:0:
356,268,2096,2,0,L|362:330,1,62.9999980773926,8|0,0:0|0:0,0:0:0:0:
276,376,2381,1,10,0:0:0:0:
276,376,2523,2,0,L|269:313,1,62.9999980773926,2|10,0:0|0:0,0:0:0:0:
276,196,2807,6,0,P|244:220|144:192,1,125.999996154785,2|0,0:0|0:0,0:0:0:0:
204,76,3234,2,0,L|211:138,1,62.9999980773926,10|0,0:0|0:0,0:0:0:0:
120,128,3518,1,10,0:1:0:0:
120,128,3660,2,0,L|113:65,1,62.9999980773926,2|8,0:0|0:0,0:0:0:0:
24,36,3945,6,0,L|36:184,1,125.999996154785,10|2,0:1|0:0,0:0:0:0:
8,264,4371,2,0,B|92:240|92:240|128:268,1,125.999996154785,10|8,0:0|0:0,0:0:0:0:
204,316,4798,1,2,0:0:0:0:
204,316,4940,2,0,L|212:228,1,62.9999980773926,10|10,0:1|0:0,0:0:0:0:
260,176,5224,6,0,P|228:160|200:160,1,62.9999980773926,10|0,0:0|0:0,0:0:0:0:
300,260,5509,2,0,P|329:240|343:216,1,62.9999980773926,10|0,0:0|0:0,0:0:0:0:
320,64,5793,2,0,P|322:99|336:123,1,62.9999980773926,10|0,0:0|0:0,0:0:0:0:
468,76,6077,1,10,0:0:0:0:
468,76,6220,6,0,L|392:68,1,62.9999980773926,10|8,0:0|0:0,0:0:0:0:
343,217,6504,2,0,L|475:205,1,125.999996154785,2|0,0:0|0:0,0:0:0:0:
512,308,6930,2,0,L|436:300,1,62.9999980773926,8|10,0:0|0:1,0:0:0:0:
388,372,7215,1,10,0:0:0:0:
308,304,7357,6,0,B|248:288|256:336|188:320,1,125.999996154785,2|0,0:0|0:0,0:0:0:0:
168,184,7784,2,0,P|196:208|208:244,1,62.9999980773926,10|8,0:0|0:0,0:0:0:0:
100,312,8068,1,10,0:1:0:0:
100,312,8210,2,0,P|72:288|60:252,1,62.9999980773926,2|8,0:0|0:0,0:0:0:0:
8,164,8494,6,0,L|80:172,1,62.9999980773926,10|8,0:1|0:0,0:0:0:0:
156,88,8779,2,0,L|93:81,1,62.9999980773926,10|0,0:1|0:0,0:0:0:0:
168,184,9063,1,8,0:0:0:0:
248,124,9205,2,0,L|252:84,4,31.4999990386963,10|8|10|8|8,0:0|0:0|0:0|0:0|0:0,0:0:0:0:
340,56,9632,6,0,L|328:192,1,125.999996154785,10|0,0:1|0:0,0:0:0:0:
384,248,10058,1,10,0:0:0:0:
384,248,10201,2,0,P|356:268|264:244,1,125.999996154785,2|0,0:0|0:0,0:0:0:0:
216,168,10627,1,10,0:0:0:0:
216,168,10769,6,0,P|188:148|96:172,1,125.999996154785,2|8,0:0|0:1,0:0:0:0:
48,240,11196,2,0,L|56:312,1,62.9999980773926,8|0,0:0|0:0,0:0:0:0:
140,352,11480,1,10,0:0:0:0:
140,352,11622,2,0,L|148:280,1,62.9999980773926,2|8,0:0|0:0,0:0:0:0:
208,184,11907,6,0,B|260:176|260:176|284:188|284:188|336:180,1,125.999996154785,10|8,0:1|0:0,0:0:0:0:
404,284,12333,2,0,L|340:276,1,62.9999980773926,10|0,0:0|0:0,0:0:0:0:
420,192,12618,2,0,L|484:184,1,62.9999980773926,10|0,0:0|0:0,0:0:0:0:
388,104,12902,1,10,0:0:0:0:
388,104,13044,6,0,P|356:120|336:152,1,62.9999980773926,10|8,0:1|0:0,0:0:0:0:
264,232,13329,2,0,P|266:196|184:144,1,125.999996154785,10|0,0:0|0:0,0:0:0:0:
116,184,13755,1,10,0:0:0:0:
116,184,13897,2,0,L|108:120,1,62.9999980773926,2|8,0:0|0:0,0:0:0:0:
176,28,14182,6,0,B|248:8|236:56|300:40,1,125.999996154785,10|0,0:1|0:0,0:0:0:0:
392,16,14608,2,0,L|384:88,1,62.9999980773926,10|0,0:0|0:0,0:0:0:0:
308,140,14893,2,0,L|316:212,1,62.9999980773926,8|0,0:0|0:0,0:0:0:0:
248,272,15177,1,10,0:0:0:0:
316,340,15319,6,0,P|356:360|428:320,1,125.999996154785,10|8,0:1|0:0,0:0:0:0:
476,232,15746,2,0,P|436:236|404:224,1,62.9999980773926,10|0,0:0|0:0,0:0:0:0:
424,88,16030,2,0,P|447:120|453:154,1,62.9999980773926,8|8,0:0|0:1,0:0:0:0:
320,216,16314,2,0,P|296:183|290:149,1,62.9999980773926,10|0,0:0|0:0,0:0:0:0:
332,72,16599,5,10,0:0:0:0:
256,16,16741,2,0,L|192:24,1,62.9999980773926,2|8,0:0|0:0,0:0:0:0:
84,108,17025,2,0,B|124:136|124:136|208:112,1,125.999996154785,2|2,0:0|0:0,0:0:0:0:
291,161,17452,1,8,0:0:0:0:
220,276,17594,6,0,L|212:208,1,62.9999980773926,10|8,0:0|0:1,0:0:0:0:
84,108,17878,2,0,L|72:244,1,125.999996154785,2|0,0:0|0:0,0:0:0:0:
240,368,18305,5,0,3:0:0:0:
198,114,18447,1,8,1:0:0:0:
208,96,18874,6,0,P|256:84|300:96,1,85.4999977169037,6|0,1:2|0:0,0:0:0:0:
440,272,19158,2,0,P|392:284|348:272,1,85.4999977169037,10|0,3:1|0:0,0:0:0:0:
198,114,19442,1,10,3:1:0:0:
456,172,19584,1,2,0:0:0:0:
224,296,19727,1,10,1:0:0:0:
376,72,19869,6,0,L|368:172,1,85.4999977169037,2|8,3:0|0:1,0:0:0:0:
312,364,20153,1,2,1:0:0:0:
198,114,20295,2,0,L|206:214,1,85.4999977169037,10|0,3:1|0:0,0:0:0:0:
96,384,20580,1,10,1:1:0:0:
36,144,20722,1,2,1:0:0:0:
212,316,20864,1,10,3:1:0:0:
80,60,21006,5,2,3:0:0:0:
80,60,21077,1,0,3:0:0:0:
80,60,21148,2,0,L|-8:52,1,85.4999977169037,6|0,1:2|0:0,0:0:0:0:
136,304,21433,2,0,L|224:296,1,85.4999977169037,10|0,3:1|0:0,0:0:0:0:
408,100,21717,1,10,3:1:0:0:
320,336,21859,1,2,0:0:0:0:
212,100,22002,1,10,1:1:0:0:
472,220,22144,6,0,B|388:192|400:268|308:240,1,170.999995433807,2|0,3:0|1:0,0:0:0:0:
104,64,22570,1,10,3:1:0:0:
216,292,22712,1,2,3:0:0:0:
216,292,22784,1,0,3:0:0:0:
216,292,22855,1,2,3:0:0:0:
296,64,22997,1,10,1:3:0:0:
92,164,23139,1,10,1:3:0:0:
309,240,23281,1,6,1:3:0:0:
152,12,23423,6,0,L|160:104,1,85.4999977169037,6|0,1:2|0:0,0:0:0:0:
320,316,23708,2,0,L|328:224,1,85.4999977169037,10|0,3:1|0:0,0:0:0:0:
508,32,23992,1,10,3:1:0:0:
424,264,24134,1,2,0:0:0:0:
304,44,24276,1,10,1:1:0:0:
508,228,24419,6,0,P|516:280|500:320,1,85.4999977169037,2|8,3:0|0:1,0:0:0:0:
256,368,24703,1,0,1:0:0:0:
428,152,24845,2,0,L|520:140,1,85.4999977169037,10|0,3:1|0:0,0:0:0:0:
404,376,25129,1,10,1:1:0:0:
312,132,25272,1,2,1:0:0:0:
244,380,25414,1,10,3:1:0:0:
152,136,25556,5,2,3:0:0:0:
152,136,25627,1,0,3:0:0:0:
152,136,25698,2,0,P|112:124|64:140,1,85.4999977169037,6|2,1:2|0:0,0:0:0:0:
0,352,25983,2,0,P|40:364|88:348,1,85.4999977169037,10|2,3:1|0:0,0:0:0:0:
232,192,26267,2,0,P|272:180|320:196,1,85.4999977169037,10|2,3:1|0:0,0:0:0:0:
424,376,26551,1,10,1:0:0:0:
428,112,26693,6,0,B|435:171|435:171|411:211|411:211|419:275,1,170.999995433807,2|2,3:0|1:0,0:0:0:0:
156,344,27120,1,2,3:0:0:0:
312,116,27262,1,2,3:0:0:0:
312,116,27333,1,0,3:0:0:0:
312,116,27404,1,2,3:0:0:0:
328,380,27547,1,0,3:0:0:0:
340,368,27973,5,0,3:0:0:0:
400,184,28115,1,0,3:0:0:0:
272,280,28257,2,0,P|236:288|192:276,1,67.5000025749208,2|8,1:0|0:0,0:0:0:0:
132,180,28542,2,0,P|168:188|212:176,1,67.5000025749208,10|8,1:2|0:0,0:0:0:0:
284,124,28826,1,10,1:2:0:0:
220,44,28968,6,0,B|152:24|164:76|76:52,1,135.000005149842,10|2,0:1|0:0,0:0:0:0:
40,144,29395,2,0,P|32:180|44:224,1,67.5000025749208,8|8,1:2|0:0,0:0:0:0:
187,215,29679,2,0,P|159:190|115:178,1,67.5000025749208,10|8,1:2|0:0,0:0:0:0:
28,236,29964,1,10,1:2:0:0:
108,348,30106,6,0,L|116:272,1,67.5000025749208,10|8,0:2|1:0,0:0:0:0:
196,128,30390,1,0,3:0:0:0:
196,128,30532,2,0,L|204:204,1,67.5000025749208,2|8,3:0|0:0,0:0:0:0:
268,288,30817,2,0,B|316:280|316:280|352:296|352:296|400:288,1,135.000005149842,10|10,1:2|1:2,0:0:0:0:
472,196,31243,6,0,L|396:188,1,67.5000025749208,10|8,0:1|1:2,0:0:0:0:
348,104,31528,1,10,0:2:0:0:
272,176,31670,2,0,B|188:192|188:192|144:164,1,135.000005149842,10|8,1:2|1:2,0:0:0:0:
104,76,32096,1,2,3:0:0:0:
216,28,32238,2,0,L|208:104,1,67.5000025749208,10|2,1:0|0:0,0:0:0:0:
288,196,32523,5,10,3:0:0:0:
291,225,32618,5,10,3:0:0:0:
295,255,32712,5,10,3:0:0:0:
299,285,32807,6,0,L|307:361,1,67.5000025749208,2|8,3:0|0:0,0:0:0:0:
184,384,33092,2,0,L|192:244,1,135.000005149842,10|10,1:2|1:2,0:0:0:0:
288,196,33518,6,0,P|328:204|360:192,1,67.5000025749208,2|8,0:1|1:2,0:0:0:0:
300,100,33802,2,0,B|236:80|244:132|168:112,1,135.000005149842,10|8,0:2|0:0,0:0:0:0:
100,36,34229,1,8,1:2:0:0:
44,124,34371,2,0,L|52:200,1,67.5000025749208,10|8,0:2|3:2,0:0:0:0:
104,272,34656,1,10,0:2:0:0:
176,200,34798,6,0,P|216:192|248:204,1,67.5000025749208,10|8,1:2|0:2,0:0:0:0:
312,296,35082,2,0,P|272:288|240:300,1,67.5000025749208,10|8,1:2|0:2,0:0:0:0:
180,364,35366,1,10,1:2:0:0:
104,272,35509,2,0,L|96:348,1,67.5000025749208,10|8,0:2|1:2,0:0:0:0:
8,276,35793,6,0,L|0:200,1,67.5000025749208,10|8,0:2|1:2,0:0:0:0:
100,104,36077,1,2,3:0:0:0:
100,104,36220,2,0,L|92:180,1,67.5000025749208,2|8,3:0|0:0,0:0:0:0:
104,272,36504,1,10,1:2:0:0:
184,212,36646,2,0,P|224:204|256:216,1,67.5000025749208,10|8,0:2|1:0,0:0:0:0:
356,272,36930,5,2,0:0:0:0:
356,272,37073,2,0,L|348:196,1,67.5000025749208,0|0,1:0|1:0,0:0:0:0:
285,79,37357,1,6,3:2:0:0:
368,31,37499,2,0,P|408:27|456:123,1,135.000005149842,10|8,0:2|0:2,0:0:0:0:
450,192,37926,1,10,1:2:0:0:
348,204,38068,6,0,P|308:196|276:208,1,67.5000025749208,10|8,3:2|0:2,0:0:0:0:
220,284,38352,1,8,3:2:0:0:
220,284,38494,2,0,P|180:292|148:280,1,67.5000025749208,8|8,1:2|0:2,0:0:0:0:
88,204,38779,2,0,L|96:120,1,67.5000025749208,10|8,1:2|0:2,0:0:0:0:
152,48,39063,1,10,1:2:0:0:
227,150,39205,6,0,B|279:142|279:142|311:162|311:162|363:154,1,135.000005149842,10|8,0:2|0:2,0:0:0:0:
454,107,39632,2,0,L|446:191,1,67.5000025749208,10|8,1:2|0:2,0:0:0:0:
362,258,39916,2,0,L|370:342,1,67.5000025749208,10|8,1:2|0:2,0:0:0:0:
284,384,40201,1,2,1:0:0:0:
216,236,40343,5,2,3:2:0:0:
216,236,40485,2,0,B|136:256|136:256|80:228,1,135.000005149842,0|8,3:2|1:0,0:0:0:0:
120,76,40911,1,0,3:2:0:0:
120,76,41054,2,0,B|144:72|164:60|164:60|148:156,1,135.000005149842,2|10,3:2|1:0,0:0:0:0:
216,236,41480,1,2,0:0:0:0:
296,72,41622,5,0,3:2:0:0:
296,72,41765,1,0,3:2:0:0:
360,153,41907,2,0,P|352:189|363:233,1,67.5000025749208,10|8,1:2|0:2,0:0:0:0:
352,332,42191,2,0,P|325:306|281:294,1,67.5000025749208,8|8,1:2|0:2,0:0:0:0:
216,368,42475,1,10,1:2:0:0:
200,220,42618,6,0,B|192:168|192:168|208:136|208:136|200:80,1,135.000005149842,10|8,3:2|0:2,0:0:0:0:
108,24,43044,2,0,L|100:108,1,67.5000025749208,10|8,3:2|0:0,0:0:0:0:
36,196,43329,2,0,P|76:184|116:196,1,67.5000025749208,8|8,1:2|0:2,0:0:0:0:
116,336,43613,2,0,P|85:307|76:266,1,67.5000025749208,10|8,1:2|0:2,0:0:0:0:
192,160,43897,5,10,1:2:0:0:
232,256,44039,2,0,L|224:340,1,67.5000025749208,10|8,3:2|0:0,0:0:0:0:
336,376,44324,2,0,L|328:292,1,67.5000025749208,10|8,0:2|1:2,0:0:0:0:
244,236,44608,1,10,0:2:0:0:
344,188,44750,2,0,P|388:200|428:188,1,67.5000025749208,10|0,1:2|3:0,0:0:0:0:
360,8,45035,5,0,3:0:0:0:
252,150,45177,2,0,L|243:242,1,85.4999977169037,0|0,3:0|1:0,0:0:0:0:
436,176,45461,1,0,3:0:0:0:
272,44,45603,1,0,3:0:0:0:
340,212,45746,1,8,1:3:0:0:
428,68,45888,1,10,1:3:0:0:
268,136,46030,1,4,1:3:0:0:
436,176,46172,6,0,B|528:184|528:184|500:196|484:216,1,135.000005149842,14|10,1:2|0:2,0:0:0:0:
432,348,46599,2,0,L|420:272,1,67.5000025749208,2|8,3:0|0:2,0:0:0:0:
340,212,46883,1,2,0:0:0:0:
296,312,47025,6,0,P|256:336|164:280,1,135.000005149842,10|8,1:2|0:0,0:0:0:0:
128,208,47452,1,0,3:0:0:0:
128,208,47594,2,0,P|168:216|200:208,1,67.5000025749208,8|0,1:2|0:0,0:0:0:0:
164,56,47878,2,0,L|156:140,1,67.5000025749208,10|0,3:2|1:0,0:0:0:0:
216,304,48163,1,10,3:2:0:0:
288,152,48305,1,0,3:0:0:0:
112,224,48447,6,0,B|84:304|84:304|120:360,1,135.000005149842,6|10,1:2|0:2,0:0:0:0:
209,371,48874,2,0,L|215:303,1,67.5000025749208,2|8,3:0|1:2,0:0:0:0:
268,216,49158,1,2,1:2:0:0:
328,296,49300,6,0,B|404:280|388:332|460:312,1,135.000005149842,10|8,3:2|1:2,0:0:0:0:
508,208,49727,1,0,3:0:0:0:
508,208,49869,2,0,P|468:216|436:204,1,67.5000025749208,8|0,0:0|3:0,0:0:0:0:
348,96,50153,1,10,1:3:0:0:
480,124,50295,1,8,1:3:0:0:
336,76,50438,1,6,1:3:0:0:
456,28,50580,1,4,1:3:0:0:
352,192,50722,6,0,B|304:184|304:184|272:200|272:200|200:192,1,135.000005149842,6|10,1:2|3:2,0:0:0:0:
128,256,51148,2,0,L|121:188,1,67.5000025749208,2|8,0:0|1:2,0:0:0:0:
176,96,51433,1,2,1:0:0:0:
221,194,51575,1,10,0:2:0:0:
276,56,51717,6,0,B|324:24|324:24|408:56,1,135.000005149842,0|0,3:0|1:0,0:0:0:0:
460,148,52144,2,0,L|392:154,1,67.5000025749208,8|0,3:2|0:0,0:0:0:0:
296,216,52428,1,10,1:2:0:0:
388,264,52570,1,0,1:0:0:0:
300,116,52712,2,0,L|232:109,1,67.5000025749208,10|0,3:1|0:0,0:0:0:0:
64,80,52997,6,0,B|96:68|116:40|116:40|96:160,1,170.999995433807,6|2,3:2|1:0,0:0:0:0:
184,256,53423,6,0,B|92:228|108:300|20:268,1,170.999995433807,6|2,3:2|1:0,0:0:0:0:
216,352,53850,6,0,P|256:328|268:208,1,170.999995433807,6|0,3:2|1:0,0:0:0:0:
98,142,54276,1,0,3:2:0:0:
276,84,54419,1,2,3:2:0:0:
184,256,54561,1,0,3:2:0:0:
164,0,54703,5,2,3:2:0:0:
352,156,54845,1,10,1:0:0:0:
368,180,55272,6,0,L|264:168,1,90,4|0,1:2|0:0,0:0:0:0:
140,352,55556,1,8,3:1:0:0:
176,80,55698,2,0,L|188:184,1,90,2|8,0:0|1:1,0:0:0:0:
280,376,55983,1,0,0:0:0:0:
368,180,56125,1,10,3:1:0:0:
140,252,56267,6,0,P|188:268|236:252,1,90,2|8,1:2|0:1,0:0:0:0:
400,88,56551,1,2,1:2:0:0:
184,164,56693,1,8,3:1:0:0:
396,280,56836,1,0,0:0:0:0:
396,280,56907,1,0,3:0:0:0:
396,280,56978,1,8,1:1:0:0:
288,56,57120,1,0,1:2:0:0:
216,284,57262,1,10,3:1:0:0:
400,88,57404,6,0,P|460:76|508:172,1,180,2|0,0:0|0:0,0:0:0:0:
416,376,57831,1,10,3:1:0:0:
328,168,57973,2,0,P|272:156|236:168,1,90,2|8,0:0|1:1,0:0:0:0:
156,368,58257,1,0,1:2:0:0:
360,256,58400,1,10,3:1:0:0:
136,160,58542,6,0,L|148:264,1,90,2|8,1:2|0:1,0:0:0:0:
312,376,58826,1,2,1:2:0:0:
252,112,58968,2,0,L|240:216,1,90,10|0,3:1|0:0,0:0:0:0:
144,384,59253,1,8,1:1:0:0:
40,160,59395,1,0,1:2:0:0:
228,328,59537,1,10,3:1:0:0:
176,60,59679,6,0,B|120:96|120:96|160:220,1,180,2|0,0:0|0:0,0:0:0:0:
360,296,60106,1,10,3:1:0:0:
144,384,60248,2,0,L|40:372,1,90,2|8,0:0|1:1,0:0:0:0:
104,132,60532,1,0,1:2:0:0:
228,328,60675,1,10,3:1:0:0:
264,84,60817,6,0,B|368:60|344:136|440:108,1,180,2|0,1:2|1:2,0:0:0:0:
512,304,61243,1,10,3:1:0:0:
308,264,61385,2,0,P|292:216|300:164,1,90,2|8,0:0|1:1,0:0:0:0:
496,40,61670,1,0,1:2:0:0:
408,248,61812,1,10,3:1:0:0:
272,40,61954,6,0,B|208:28|208:28|168:52|168:52|88:40,1,180,2|0,0:0|0:0,0:0:0:0:
40,252,62381,1,10,3:1:0:0:
228,144,62523,2,0,L|332:132,1,90,2|8,0:0|1:1,0:0:0:0:
260,364,62807,1,0,1:2:0:0:
124,160,62949,1,10,3:1:0:0:
348,312,63092,6,0,P|400:320|444:208,1,180,2|0,1:2|1:2,0:0:0:0:
296,40,63518,1,8,3:1:0:0:
248,276,63660,1,0,0:0:0:0:
448,132,63802,1,10,1:1:0:0:
192,76,63945,2,0,L|204:180,1,90,2|8,1:2|3:1,0:0:0:0:
272,384,64229,1,2,0:0:0:0:
376,184,64371,6,0,P|332:172|289:179,1,90,4|0,1:2|0:0,0:0:0:0:
176,364,64656,1,10,3:1:0:0:
96,120,64798,2,0,P|139:108|182:115,1,90,2|8,0:0|1:1,0:0:0:0:
332,276,65082,1,0,0:0:0:0:
300,36,65224,1,10,3:1:0:0:
140,208,65366,6,0,B|104:316|104:316|148:376,1,180,2|2,1:2|1:2,0:0:0:0:
344,256,65793,2,0,L|240:268,1,90,10|0,3:1|0:0,0:0:0:0:
32,104,66077,1,8,1:1:0:0:
280,160,66220,1,0,1:2:0:0:
68,292,66362,1,10,3:1:0:0:
248,64,66504,6,0,B|352:40|328:112|424:84,1,180,2|0,0:0|0:0,0:0:0:0:
464,300,66930,1,10,3:1:0:0:
280,160,67073,2,0,P|236:148|193:155,1,90,2|8,0:0|1:1,0:0:0:0:
264,384,67357,1,0,1:2:0:0:
384,196,67499,1,10,3:1:0:0:
148,268,67641,6,0,L|160:372,1,90,2|8,1:2|0:1,0:0:0:0:
264,144,67926,1,2,1:2:0:0:
364,344,68068,2,0,P|407:355|450:348,1,90,10|0,3:1|0:0,0:0:0:0:
404,80,68352,1,8,1:1:0:0:
272,280,68494,1,0,1:2:0:0:
508,200,68637,1,10,3:1:0:0:
288,56,68779,6,0,B|228:48|228:48|184:72|184:72|108:64,1,180,2|0,0:0|0:0,0:0:0:0:
52,272,69205,1,10,3:1:0:0:
264,144,69347,2,0,L|276:248,1,90,2|8,0:0|1:1,0:0:0:0:
72,376,69632,1,0,1:2:0:0:
136,152,69774,1,10,3:1:0:0:
276,364,69916,6,0,B|328:376|360:344|360:344|400:376|448:360,1,180,2|0,1:2|1:2,0:0:0:0:
448,104,70343,1,10,3:1:0:0:
260,264,70485,2,0,P|212:276|168:264,1,90,2|8,0:0|1:1,0:0:0:0:
260,32,70769,1,0,1:2:0:0:
360,248,70911,1,10,3:1:0:0:
432,16,71054,6,0,B|488:52|488:52|448:176,1,180,2|0,0:0|0:0,0:0:0:0:
380,376,71480,1,10,3:1:0:0:
249,174,71622,2,0,L|261:278,1,90,2|8,0:0|1:1,0:0:0:0:
472,356,71907,2,0,L|484:252,1,90,0|10,1:2|3:1,0:0:0:0:
280,84,72191,6,0,P|212:84|160:200,1,180,2|0,1:2|1:2,0:0:0:0:
248,376,72618,1,10,3:1:0:0:
344,156,72760,2,0,P|396:144|432:156,1,90,2|8,0:0|1:1,0:0:0:0:
344,384,73044,1,0,1:2:0:0:
249,174,73186,1,10,3:1:0:0:
452,280,73328,1,2,0:0:0:0:
232,360,73471,6,0,L|128:372,1,90,4|0,1:2|0:0,0:0:0:0:
32,220,73755,2,0,L|136:232,1,90,8|0,3:1|0:0,0:0:0:0:
340,168,74039,1,8,1:1:0:0:
216,344,74182,1,0,1:2:0:0:
152,132,74324,2,0,P|204:120|248:136,1,90,10|0,3:1|0:0,0:0:0:0:
476,248,74608,6,0,B|380:216|404:296|300:268,1,180,6|10,1:2|3:1,0:0:0:0:
350,78,75035,2,0,L|338:182,1,90,2|8,0:0|1:1,0:0:0:0:
288,368,75319,1,0,1:2:0:0:
196,176,75461,2,0,L|208:280,1,90,10|0,3:1|1:2,0:0:0:0:
436,192,75746,5,6,3:2:0:0:
192,80,75888,1,0,1:2:0:0:
352,288,76030,1,0,3:0:0:0:
372,28,76172,1,2,1:2:0:0:
176,264,76314,1,4,3:2:0:0:
452,176,76456,1,0,1:2:0:0:
172,56,76599,2,0,P|132:44|76:64,1,90,2|0,3:0|1:2,0:0:0:0:
160,360,76883,5,6,1:2:0:0:
264,96,77025,1,0,3:0:0:0:
264,96,77096,1,0,3:0:0:0:
264,96,77167,1,0,3:0:0:0:
316,368,77310,1,0,3:0:0:0:
128,140,77452,1,2,3:0:0:0:
388,308,77594,1,0,3:0:0:0:
88,228,77736,1,0,3:0:0:0:
364,96,77878,1,0,3:0:0:0:
172,344,78020,5,6,1:0:0:0:
240,76,78163,2,0,L|252:180,1,90,2|8,0:0|3:1,0:0:0:0:
404,328,78447,2,0,L|416:224,1,90,2|8,0:0|3:1,0:0:0:0:
164,196,78731,1,2,1:0:0:0:
316,380,78874,1,8,1:1:0:0:
340,96,79016,6,0,P|296:84|244:100,1,90,2|8,3:0|0:1,0:0:0:0:
120,280,79300,2,0,P|164:292|216:276,1,90,2|8,1:0|3:1,0:0:0:0:
16,88,79584,2,0,L|28:192,1,90,2|8,0:0|1:1,0:0:0:0:
76,384,79869,1,2,1:0:0:0:
164,196,80011,2,0,P|208:184|260:200,1,90,8|0,3:1|0:0,0:0:0:0:
416,372,80295,6,0,B|456:320|456:320|416:212,1,180,8|8,1:1|0:1,0:0:0:0:
336,8,80722,1,0,3:0:0:0:
256,224,80864,2,0,L|244:328,1,90,10|0,1:1|0:0,0:0:0:0:
68,156,81148,1,8,1:1:0:0:
340,96,81291,6,0,B|332:164|332:164|356:208|356:208|344:280,1,180,0|0,3:0|1:0,0:0:0:0:
200,384,81717,1,8,3:1:0:0:
164,136,81859,2,0,P|212:120|260:136,1,90,0|8,0:0|1:1,0:0:0:0:
312,376,82144,1,0,1:0:0:0:
108,220,82286,2,0,P|60:204|12:220,1,90,8|0,3:1|0:0,0:0:0:0:
200,384,82570,5,6,1:0:0:0:
264,144,82712,1,2,0:0:0:0:
60,300,82855,1,8,3:1:0:0:
340,268,82997,2,0,L|350:178,1,90,2|8,0:0|3:1,0:0:0:0:
132,60,83281,1,2,1:0:0:0:
228,288,83423,1,8,1:1:0:0:
340,64,83565,6,0,P|388:52|432:64,1,90,2|8,3:0|0:1,0:0:0:0:
512,284,83850,2,0,P|464:296|420:284,1,90,2|8,1:0|3:1,0:0:0:0:
264,144,84134,2,0,P|216:132|172:144,1,90,2|8,0:0|1:1,0:0:0:0:
248,384,84419,1,2,1:0:0:0:
360,188,84561,2,0,L|370:98,1,90,8|0,3:1|0:0,0:0:0:0:
96,96,84845,5,8,1:1:0:0:
292,260,84987,2,0,P|336:284|452:228,1,180,0|0,1:0|3:0,0:0:0:0:
368,4,85414,1,10,0:1:0:0:
228,184,85556,2,0,P|180:196|136:184,1,90,0|8,1:0|1:1,0:0:0:0:
369,98,85840,6,0,L|359:188,1,90,0|10,3:0|0:1,0:0:0:0:
260,372,86125,1,0,3:0:0:0:
260,372,86196,1,0,3:0:0:0:
260,372,86267,1,0,3:0:0:0:
140,152,86409,1,0,3:0:0:0:
376,276,86551,1,0,3:0:0:0:
128,344,86693,1,0,1:0:0:0:
328,184,86836,2,0,P|376:172|420:184,1,90,8|4,1:3|1:3,0:0:0:0:
244,384,87120,6,0,L|234:294,1,90,6|0,1:2|0:0,0:0:0:0:
52,140,87404,2,0,L|42:230,1,90,10|0,3:1|0:0,0:0:0:0:
260,104,87689,1,10,3:1:0:0:
128,296,87831,1,2,0:0:0:0:
92,52,87973,1,10,1:0:0:0:
304,220,88115,6,0,P|352:232|396:220,1,90,2|8,3:0|0:1,0:0:0:0:
292,8,88400,1,2,1:0:0:0:
200,228,88542,1,10,3:1:0:0:
424,124,88684,1,2,3:0:0:0:
424,124,88755,1,0,3:0:0:0:
424,124,88826,1,2,3:0:0:0:
172,16,88968,1,10,1:0:0:0:
