osu file format v14

[General]
AudioFilename: hello.mp3
AudioLeadIn: 1500
PreviewTime:54276
Countdown: 0
SampleSet: Soft
StackLeniency: 0.7
Mode: 0
LetterboxInBreaks: 0
WidescreenStoryboard: 1

[Editor]
Bookmarks:18874,27973,37073,46172,55272,87120
DistanceSpacing: 1
BeatDivisor: 2
GridSize: 32
TimelineZoom: 1.5

[Metadata]
Title:Hello,world! (TV Size)
TitleUnicode:Hello,world! (TV Size)
Artist:BUMP OF CHICKEN
ArtistUnicode:BUMP OF CHICKEN
Creator:Nevo
Version:Xandit's Easy
Source:血界戦線
Tags:blood blockade battlefront kekkai sensen opening aakki jian smokelind browiec kalibe kuki1537 maiev japanese rock anime xandit jrock j-rock
BeatmapID:2949730
BeatmapSetID:1166888

[Difficulty]
HPDrainRate:2.5
CircleSize:3
OverallDifficulty:3
ApproachRate:4
SliderMultiplier:0.9
SliderTickRate:1

[Events]
//Background and Video events
0,0,"d.jpg",0,0
Video,0,"Hellokotaikotokoro-1.mp4"
//Break Periods
//Storyboard Layer 0 (Background)
//Storyboard Layer 1 (Fail)
//Storyboard Layer 2 (Pass)
//Storyboard Layer 3 (Foreground)
//Storyboard Layer 4 (Overlay)
//Storyboard Sound Samples

[TimingPoints]
675,284.36018957346,4,2,1,55,1,0
18874,-100,4,2,1,75,0,0
27973,-100,4,2,1,65,0,0
55272,-100,4,2,1,90,0,1
87120,-100,4,2,1,75,0,0

[Colours]
Combo1 : 240,170,38
Combo2 : 23,104,86
Combo3 : 150,5,81
Combo4 : 18,124,255

[HitObjects]
459,240,18305,6,0,L|468:175,1,45,0|8,3:0|1:0,0:0:0:0:
450,61,18874,6,0,P|379:40|331:51,1,90,6|10,1:2|3:1,0:0:0:0:
310,109,19442,2,0,L|325:262,2,135,10|2|10,3:1|3:0|3:1,0:0:0:0:
250,41,20580,1,10,1:1:0:0:
177,94,20864,1,10,3:1:0:0:
103,42,21148,6,0,B|84:83|84:83|97:156,1,90,6|10,1:2|3:1,0:0:0:0:
152,194,21717,2,0,P|105:165|18:184,2,135,10|2|10,3:1|3:0|3:1,0:0:0:0:
193,274,22855,2,0,L|178:379,1,90,2|10,3:0|1:3,0:0:0:0:
268,381,23423,6,0,L|283:276,1,90,6|10,1:2|3:1,0:0:0:0:
351,236,23992,2,0,B|403:228|403:228|435:239|435:239|494:230,2,135,10|2|10,3:1|3:0|3:1,0:0:0:0:
364,147,25129,1,10,1:1:0:0:
381,58,25414,1,10,3:1:0:0:
305,8,25698,6,0,P|233:5|198:20,1,90,6|10,1:2|3:1,0:0:0:0:
150,71,26267,2,0,B|61:55|61:55|27:19,2,135,10|2|2,3:1|3:0|3:0,0:0:0:0:
191,150,27404,2,0,L|196:221,1,45,2|0,3:0|3:0,0:0:0:0:
306,270,27973,6,0,P|287:330|300:374,1,90,0|2,3:0|1:0,0:0:0:0:
201,348,28542,2,0,L|56:367,2,135,10|10|8,1:2|0:1|1:2,0:0:0:0:
201,259,29679,1,10,1:2:0:0:
89,183,30106,6,0,P|90:115|79:42,1,135,10|2,0:2|3:0,0:0:0:0:
166,9,30817,2,0,L|305:25,1,135,10|10,1:2|0:1,0:0:0:0:
427,68,31670,2,0,B|377:109|377:109|355:205,1,135,10|2,1:2|3:0,0:0:0:0:
415,299,32523,6,0,P|466:326|492:370,2,90,10|10|10,3:0|3:0|1:2,0:0:0:0:
294,360,33518,2,0,B|205:290|205:290|115:358,1,225,2|8,0:1|1:2,0:0:0:0:
37,313,34513,1,8,3:2:0:0:
58,223,34798,6,0,L|50:115,1,90,10|10,1:2|1:2,0:0:0:0:
126,84,35366,2,0,P|73:45|7:53,2,135,10|10|2,1:2|0:2|3:0,0:0:0:0:
202,36,36504,1,10,1:2:0:0:
329,162,37073,6,0,L|336:290,1,90,0|6,1:0|3:2,0:0:0:0:
290,330,37641,2,0,P|204:349|152:306,2,135,8|10|8,1:2|3:2|1:2,0:0:0:0:
333,251,38779,1,10,1:2:0:0:
432,159,39205,6,0,B|392:127|392:127|305:142,1,135,10|10,0:2|1:2,0:0:0:0:
266,61,39916,2,0,P|205:105|128:98,1,135,10|2,1:2|3:2,0:0:0:0:
50,199,40769,1,8,1:0:0:0:
69,286,41054,2,0,L|84:383,1,90,2|10,3:2|1:0,0:0:0:0:
155,322,41622,6,0,P|212:333|239:366,1,90,0|10,3:2|1:2,0:0:0:0:
312,311,42191,2,0,P|369:346|447:329,2,135,8|10|10,1:2|3:2|3:2,0:0:0:0:
391,259,43329,1,8,1:2:0:0:
415,80,43897,6,0,L|324:93,1,90,10|8,1:2|0:0,0:0:0:0:
248,46,44466,2,0,B|186:24|186:24|95:49,2,135,8|0|0,1:2|3:0|1:0,0:0:0:0:
187,112,45603,1,0,3:0:0:0:
220,195,45888,1,10,1:3:0:0:
253,278,46172,6,0,B|197:287|197:287|163:274|163:274|103:281,1,135,14|2,1:2|3:0,0:0:0:0:
40,171,47025,2,0,P|32:95|81:42,1,135,10|0,1:2|3:0,0:0:0:0:
197,21,47878,1,10,3:2:0:0:
280,54,48163,1,10,3:2:0:0:
365,26,48447,6,0,L|346:193,1,135,6|2,1:2|3:0,0:0:0:0:
393,288,49300,2,0,P|333:274|266:312,1,135,10|0,3:2|3:0,0:0:0:0:
151,370,50153,1,10,1:3:0:0:
89,304,50438,1,6,1:3:0:0:
133,225,50722,6,0,L|151:100,1,90,6|10,1:2|3:2,0:0:0:0:
161,47,51291,2,0,L|9:68,2,135,8|0|8,1:2|3:0|3:2,0:0:0:0:
248,25,52428,1,10,1:2:0:0:
336,10,52712,1,10,3:1:0:0:
402,71,52997,6,0,P|422:131|403:199,1,135,6|6,3:2|3:2,0:0:0:0:
310,296,53850,2,0,L|198:285,1,90,6|0,3:2|1:0,0:0:0:0:
218,197,54419,1,2,3:2:0:0:
223,107,54703,1,2,3:2:0:0:
386,30,55272,6,0,L|407:139,1,90,4|8,1:2|3:1,0:0:0:0:
330,171,55840,2,0,P|394:212|460:190,2,135,8|2|8,1:1|1:2|3:1,0:0:0:0:
309,82,56978,1,8,1:1:0:0:
243,143,57262,1,10,3:1:0:0:
173,86,57547,6,0,L|77:76,1,90,8|10,1:1|3:1,0:0:0:0:
37,153,58115,2,0,L|13:21,2,135,8|2|10,1:1|1:2|3:1,0:0:0:0:
4,237,59253,1,8,1:1:0:0:
163,319,59821,6,0,P|229:293|328:348,1,180,8|8,1:1|1:1,0:0:0:0:
410,373,60675,1,10,3:1:0:0:
410,373,60959,2,0,L|420:266,1,90,8|10,0:1|3:1,0:0:0:0:
482,219,61528,2,0,L|473:129,1,90,8|10,1:1|3:1,0:0:0:0:
408,66,62096,6,0,B|321:40|321:40|224:68,1,180,8|8,1:1|1:1,0:0:0:0:
150,34,62949,1,10,3:1:0:0:
64,4,63234,1,8,0:1:0:0:
18,177,63802,2,0,P|71:190|110:174,1,90,10|8,1:1|3:1,0:0:0:0:
179,131,64371,6,0,L|194:229,1,90,4|10,1:2|3:1,0:0:0:0:
205,309,64940,2,0,B|154:304|154:304|115:317|115:317|63:311,2,135,8|2|10,1:1|1:2|3:1,0:0:0:0:
287,273,66077,2,0,P|334:294|375:292,1,90,8|10,1:1|3:1,0:0:0:0:
442,236,66646,6,0,L|449:142,1,90,8|10,1:1|3:1,0:0:0:0:
382,85,67215,2,0,B|426:99|426:99|474:87|488:34,2,135,8|2|10,1:1|1:2|3:1,0:0:0:0:
314,26,68352,1,8,1:1:0:0:
142,82,68921,6,0,L|123:269,1,180,8|8,1:1|1:1,0:0:0:0:
107,349,69774,1,10,3:1:0:0:
195,332,70058,2,0,P|262:362|374:316,1,180,8|8,0:1|1:1,0:0:0:0:
406,254,70911,1,10,3:1:0:0:
337,195,71196,6,0,L|348:82,1,90,8|10,1:1|3:1,0:0:0:0:
355,15,71765,1,8,1:1:0:0:
271,48,72049,2,0,L|206:54,1,45,10|2,3:1|1:2,0:0:0:0:
94,21,72618,2,0,B|114:68|114:68|102:136,1,90,10|8,3:1|1:1,0:0:0:0:
99,195,73186,1,10,3:1:0:0:
133,278,73471,6,0,B|230:305|197:229|318:258,1,180,4|8,1:2|1:1,0:0:0:0:
370,316,74324,1,10,3:1:0:0:
457,294,74608,2,0,B|472:252|472:252|459:191,1,90,6|10,1:2|3:1,0:0:0:0:
416,130,75177,1,8,1:1:0:0:
330,103,75461,1,10,3:1:0:0:
244,74,75746,6,0,L|125:87,1,90,6|0,3:2|3:0,0:0:0:0:
76,39,76314,1,4,3:2:0:0:
42,123,76599,1,2,3:0:0:0:
96,194,76883,2,0,P|107:239|97:288,1,90,6|0,1:2|3:0,0:0:0:0:
169,339,77452,2,0,P|214:328|263:338,1,90,2|0,3:0|3:0,0:0:0:0:
251,245,78020,6,0,L|239:125,1,90,6|8,1:0|3:1,0:0:0:0:
296,83,78589,2,0,P|235:64|158:112,2,135,8|2|8,3:1|3:0|3:1,0:0:0:0:
376,41,79727,1,8,1:1:0:0:
443,100,80011,1,8,3:1:0:0:
419,186,80295,6,0,L|435:292,1,90,8|8,1:1|0:1,0:0:0:0:
383,350,80864,2,0,P|331:365|284:348,1,90,10|8,1:1|1:1,0:0:0:0:
223,305,81433,2,0,B|163:294|163:294|111:316|111:316|40:300,1,180,10|8,0:1|1:1,0:0:0:0:
100,129,82570,6,0,L|202:114,1,90,6|8,1:0|3:1,0:0:0:0:
255,55,83139,2,0,P|327:32|402:65,2,135,8|2|8,3:1|3:0|3:1,0:0:0:0:
280,141,84276,2,0,L|268:235,1,90,8|8,1:1|3:1,0:0:0:0:
238,315,84845,6,0,B|131:291|131:291|59:325,1,180,8|10,1:1|0:1,0:0:0:0:
13,249,85698,1,8,1:1:0:0:
13,249,85983,2,0,L|28:144,1,90,10|0,0:1|3:0,0:0:0:0:
39,71,86551,1,0,3:0:0:0:
210,15,87120,6,0,P|283:46|320:36,1,90,6|10,1:2|3:1,0:0:0:0:
378,25,87689,2,0,P|451:70|459:123,2,135,10|2|10,3:1|3:0|3:1,0:0:0:0:
370,114,88826,2,0,L|366:185,1,45,2|10,3:0|1:0,0:0:0:0:
