osu file format v14

[General]
AudioFilename: hello.mp3
AudioLeadIn: 1500
PreviewTime:54276
Countdown: 0
SampleSet: Soft
StackLeniency: 0.7
Mode: 0
LetterboxInBreaks: 0
WidescreenStoryboard: 1

[Editor]
Bookmarks: 87120
DistanceSpacing: 0.6
BeatDivisor: 4
GridSize: 32
TimelineZoom: 1.9

[Metadata]
Title:Hello,world! (TV Size)
TitleUnicode:Hello,world! (TV Size)
Artist:BUMP OF CHICKEN
ArtistUnicode:BUMP OF CHICKEN
Creator:Nevo
Version:SMOKELIND's Expert
Source:血界戦線
Tags:blood blockade battlefront kekkai sensen opening aakki jian smokelind browiec kalibe kuki1537 maiev japanese rock anime xandit jrock j-rock
BeatmapID:2455670
BeatmapSetID:1166888

[Difficulty]
HPDrainRate:5.5
CircleSize:3.9
OverallDifficulty:8.2
ApproachRate:9.2
SliderMultiplier:1.77
SliderTickRate:1

[Events]
//Background and Video events
0,0,"d.jpg",0,0
Video,0,"Hellokotaikotokoro-1.mp4"
//Break Periods
//Storyboard Layer 0 (Background)
//Storyboard Layer 1 (Fail)
//Storyboard Layer 2 (Pass)
//Storyboard Layer 3 (Foreground)
//Storyboard Layer 4 (Overlay)
//Storyboard Sound Samples

[TimingPoints]
675,284.36018957346,4,2,1,55,1,0
675,-129.87012987013,4,2,1,55,0,0
1347,-129.87012987013,4,2,1,55,0,0
7670,-129.87012987013,4,2,1,55,0,0
8258,-129.87012987013,4,2,1,55,0,0
17817,-129.87012987013,4,2,1,55,0,0
18874,-103.092783505155,4,2,1,75,0,0
27229,-103.092783505155,4,2,1,75,0,0
27973,-114.942528735632,4,2,1,65,0,0
36641,-114.942528735632,4,2,1,65,0,0
46052,-114.942528735632,4,2,1,65,0,0
47523,-114.942528735632,4,2,1,65,0,0
48258,-114.942528735632,4,2,1,65,0,0
52997,-103.092783505155,4,2,1,65,0,0
55272,-93.4579439252336,4,2,1,90,0,0
67229,-93.4579439252336,4,2,1,90,0,0
76641,-93.4579439252336,4,2,1,90,0,0
78020,-85.4700854700855,4,2,1,90,0,0
78994,-85.4700854700855,4,2,1,90,0,0
80170,-85.4700854700855,4,2,1,90,0,0
81347,-85.4700854700855,4,2,1,90,0,0
82523,-85.4700854700855,4,2,1,90,0,0
83699,-85.4700854700855,4,2,1,90,0,0
84876,-85.4700854700855,4,2,1,90,0,0
86052,-85.4700854700855,4,2,1,90,0,0
86126,-85.4700854700855,4,2,1,90,0,0
87120,-85.4700854700855,4,2,1,75,0,0

[Colours]
Combo1 : 240,170,38
Combo2 : 23,104,86
Combo3 : 150,5,81
Combo4 : 18,124,255

[HitObjects]
90,45,675,5,4,3:1:0:0:
175,230,817,2,0,L|262:213,1,68.1449986482468,0|10,3:0|0:0,0:0:0:0:
326,266,1101,2,0,P|278:229|326:156,1,136.289997296494,2|0,0:0|0:0,0:0:0:0:
402,134,1528,1,10,0:0:0:0:
402,134,1670,2,0,P|424:159|431:210,2,68.1449986482468,2|8|8,0:0|0:0|0:1,0:0:0:0:
315,68,2096,2,0,P|351:40|382:38,1,68.1449986482468,8|0,0:0|0:0,0:0:0:0:
290,161,2381,1,10,0:0:0:0:
290,161,2523,2,0,P|254:133|223:131,1,68.1449986482468,2|10,0:0|0:0,0:0:0:0:
135,183,2807,6,0,P|163:113|172:25,1,136.289997296494,2|0,0:0|0:0,0:0:0:0:
50,34,3234,2,0,P|75:69|76:100,1,68.1449986482468,10|0,0:0|0:0,0:0:0:0:
11,191,3518,1,10,0:1:0:0:
11,191,3660,2,0,P|-4:231|1:261,1,68.1449986482468,2|8,0:0|0:0,0:0:0:0:
102,325,3945,2,0,P|135:302|176:297,1,68.1449986482468,10|8,0:1|0:0,0:0:0:0:
273,360,4229,1,2,0:0:0:0:
273,360,4371,2,0,P|306:353|356:268,1,136.289997296494,10|8,0:0|0:0,0:0:0:0:
323,159,4798,1,2,0:0:0:0:
323,159,4940,2,0,P|345:183|409:190,1,68.1449986482468,10|10,0:1|0:0,0:0:0:0:
277,76,5224,6,0,P|245:86|222:111,1,68.1449986482468,10|0,0:0|0:0,0:0:0:0:
154,236,5509,2,0,P|120:233|92:214,1,68.1449986482468,10|0,0:0|0:0,0:0:0:0:
82,65,5793,2,0,P|99:94|102:132,1,68.1449986482468,10|0,0:0|0:0,0:0:0:0:
164,256,6077,1,10,0:0:0:0:
164,256,6220,2,0,P|147:285|144:323,1,68.1449986482468,10|8,0:0|0:0,0:0:0:0:
257,374,6504,2,0,B|329:337|271:316|354:265,1,136.289997296494,2|0,0:0|0:0,0:0:0:0:
459,339,6930,2,0,P|429:310|419:269,1,68.1449986482468,8|10,0:0|0:1,0:0:0:0:
478,164,7215,5,10,0:0:0:0:
478,164,7357,2,0,P|447:136|403:130,2,68.1449986482468,2|8|0,0:0|0:0|0:0,0:0:0:0:
363,186,7784,2,0,P|334:204|317:233,1,68.1449986482468,10|8,0:0|0:0,0:0:0:0:
250,340,8068,1,10,0:1:0:0:
250,340,8210,2,0,P|221:321|204:292,1,68.1449986482468,2|8,0:0|0:0,0:0:0:0:
224,162,8494,6,0,P|186:149|143:142,1,68.1449986482468,10|8,0:1|0:0,0:0:0:0:
77,298,8779,2,0,P|126:274|215:267,1,136.289997296494,10|8,0:1|0:0,0:0:0:0:
317,314,9205,2,0,L|311:280,4,34.0724993241234,10|8|10|8|8,0:0|0:0|0:0|0:0|0:0,0:0:0:0:
348,156,9632,6,0,P|384:141|463:212,1,136.289997296494,10|0,0:1|0:0,0:0:0:0:
505,308,10058,1,10,0:0:0:0:
505,308,10201,2,0,L|491:159,1,136.289997296494,2|0,0:0|0:0,0:0:0:0:
430,50,10627,1,10,0:0:0:0:
430,50,10769,2,0,P|461:38|484:13,2,68.1449986482468,2|8|8,0:0|0:0|0:1,0:0:0:0:
321,78,11196,2,0,P|298:53|266:41,1,68.1449986482468,8|0,0:0|0:0,0:0:0:0:
195,155,11480,1,10,0:0:0:0:
195,155,11622,2,0,P|217:130|249:118,1,68.1449986482468,2|8,0:0|0:0,0:0:0:0:
236,239,11907,6,0,P|186:197|97:190,1,136.289997296494,10|8,0:1|0:0,0:0:0:0:
62,305,12333,2,0,L|73:376,1,68.1449986482468,10|0,0:0|0:0,0:0:0:0:
210,261,12618,2,0,L|199:332,1,68.1449986482468,10|0,0:0|0:0,0:0:0:0:
332,298,12902,1,10,0:0:0:0:
332,298,13044,2,0,L|343:369,1,68.1449986482468,10|8,0:1|0:0,0:0:0:0:
464,309,13329,2,0,P|436:279|340:277,1,136.289997296494,10|0,0:0|0:0,0:0:0:0:
247,192,13755,1,10,0:0:0:0:
247,192,13897,2,0,P|280:187|308:168,1,68.1449986482468,2|8,0:0|0:0,0:0:0:0:
183,54,14182,6,0,P|215:105|226:195,1,136.289997296494,10|0,0:1|0:0,0:0:0:0:
127,275,14608,2,0,P|69:244|-12:236,2,136.289997296494,10|8|10,0:0|0:0|0:0,0:0:0:0:
228,349,15319,2,0,L|223:269,2,68.1449986482468,10|8|8,0:1|0:0|0:0,0:0:0:0:
342,240,15746,2,0,L|330:375,1,136.289997296494,10|8,0:0|0:0,0:0:0:0:
425,264,16172,1,8,0:1:0:0:
425,264,16314,2,0,P|401:239|360:224,1,68.1449986482468,10|0,0:0|0:0,0:0:0:0:
497,354,16599,5,10,0:0:0:0:
497,354,16741,2,0,L|479:197,1,136.289997296494,2|2,0:0|0:0,0:0:0:0:
465,58,17167,1,8,0:0:0:0:
465,58,17310,2,0,P|439:84|384:96,1,68.1449986482468,2|8,0:0|0:0,0:0:0:0:
291,27,17594,1,10,0:0:0:0:
291,27,17736,1,8,0:1:0:0:
161,93,17878,2,0,P|178:143|190:247,1,136.289997296494,2|0,0:0|0:0,0:0:0:0:
207,11,18305,5,0,3:0:0:0:
26,268,18447,1,8,1:0:0:0:
26,268,18874,6,0,P|65:235|125:239,1,85.8450020303307,6|0,1:2|0:0,0:0:0:0:
256,335,19158,2,0,P|214:327|183:297,1,85.8450020303307,10|0,3:1|0:0,0:0:0:0:
319,118,19442,1,10,3:1:0:0:
359,275,19584,1,2,0:0:0:0:
202,161,19727,1,10,1:0:0:0:
437,76,19869,6,0,P|479:98|440:217,1,171.690004060661,2|2,3:0|1:0,0:0:0:0:
351,360,20295,2,0,L|358:274,1,85.8450020303307,10|0,3:1|0:0,0:0:0:0:
184,151,20580,1,10,1:1:0:0:
233,259,20722,1,2,1:0:0:0:
244,49,20864,1,10,3:1:0:0:
82,207,21006,5,2,3:0:0:0:
82,207,21077,1,0,3:0:0:0:
82,207,21148,2,0,P|105:131|116:49,1,128.767503045496,6|0,1:2|0:0,0:0:0:0:
97,54,21433,2,0,P|63:28|7:27,1,85.8450020303307,10|0,3:1|0:0,0:0:0:0:
192,168,21717,1,10,3:1:0:0:
306,11,21859,2,0,P|348:15|381:41,1,85.8450020303307,2|10,0:0|1:1,0:0:0:0:
400,234,22144,6,0,B|315:205|384:144|272:115,1,171.690004060661,2|0,3:0|1:0,0:0:0:0:
156,296,22570,1,10,3:1:0:0:
113,83,22712,1,2,3:0:0:0:
113,83,22784,1,0,3:0:0:0:
113,83,22855,1,2,3:0:0:0:
99,228,22997,1,10,1:3:0:0:
196,112,23139,1,10,1:3:0:0:
100,207,23281,1,6,1:3:0:0:
265,332,23423,6,0,P|303:309|380:298,1,85.8450020303307,6|0,1:2|0:0,0:0:0:0:
480,151,23708,2,0,P|438:139|402:117,1,85.8450020303307,10|0,3:1|0:0,0:0:0:0:
219,234,23992,1,10,3:1:0:0:
300,99,24134,1,2,0:0:0:0:
226,262,24276,1,10,1:1:0:0:
165,37,24419,6,0,P|105:7|10:93,1,171.690004060661,2|0,3:0|1:0,0:0:0:0:
64,239,24845,2,0,P|109:197|169:201,1,85.8450020303307,10|0,3:1|0:0,0:0:0:0:
257,337,25129,1,10,1:1:0:0:
131,281,25272,1,2,1:0:0:0:
358,182,25414,1,10,3:1:0:0:
244,312,25556,5,2,3:0:0:0:
244,312,25627,1,0,3:0:0:0:
244,312,25698,2,0,L|261:145,1,128.767503045496,6|0,1:2|0:0,0:0:0:0:
242,156,25983,2,0,P|200:140|142:129,1,85.8450020303307,10|2,3:1|0:0,0:0:0:0:
356,299,26267,2,0,P|398:283|456:272,1,85.8450020303307,10|2,3:1|0:0,0:0:0:0:
263,181,26551,1,10,1:0:0:0:
468,115,26693,6,0,P|427:99|386:90,1,85.8450020303307,2|8,3:0|0:1,0:0:0:0:
334,279,26978,1,2,1:0:0:0:
205,105,27120,1,2,3:0:0:0:
148,285,27262,1,2,3:0:0:0:
148,285,27333,1,0,3:0:0:0:
148,285,27404,1,2,3:0:0:0:
156,32,27547,1,0,3:0:0:0:
307,368,27973,5,0,3:0:0:0:
385,135,28115,1,0,3:0:0:0:
385,135,28257,2,0,L|397:233,1,76.9950006461678,2|8,1:0|0:0,0:0:0:0:
264,264,28542,2,0,L|273:187,1,76.9950006461678,10|8,1:2|0:0,0:0:0:0:
217,63,28826,1,10,1:2:0:0:
217,63,28968,2,0,P|182:34|136:29,1,76.9950006461678,10|0,0:1|1:0,0:0:0:0:
92,156,29253,2,0,P|127:127|173:122,2,76.9950006461678,2|8|8,0:0|1:2|0:0,0:0:0:0:
61,257,29679,1,10,1:2:0:0:
61,257,29821,1,8,0:0:0:0:
134,335,29964,1,10,1:2:0:0:
134,335,30106,2,0,P|178:317|226:313,1,76.9950006461678,10|8,0:2|1:0,0:0:0:0:
392,362,30390,5,0,3:0:0:0:
330,128,30532,2,0,L|314:240,1,76.9950006461678,2|8,3:0|0:0,0:0:0:0:
445,285,30817,2,0,P|415:261|370:263,1,76.9950006461678,10|8,1:2|0:2,0:0:0:0:
286,353,31101,1,10,1:2:0:0:
286,353,31243,2,0,P|256:377|211:375,1,76.9950006461678,10|8,0:1|1:2,0:0:0:0:
124,246,31528,1,10,0:2:0:0:
124,246,31670,2,0,L|138:330,1,76.9950006461678,10|8,1:2|0:2,0:0:0:0:
202,191,31954,1,8,1:2:0:0:
8,56,32096,1,2,3:0:0:0:
192,0,32238,2,0,L|178:101,1,76.9950006461678,10|2,1:0|0:0,0:0:0:0:
163,318,32523,6,0,P|208:325|251:299,1,51.3300004307785,10|10,3:0|3:0,0:0:0:0:
284,289,32712,1,10,3:0:0:0:
311,217,32807,2,0,P|356:210|402:248,1,76.9950006461678,10|8,3:0|0:0,0:0:0:0:
497,334,33092,2,0,P|461:348|424:340,1,76.9950006461678,10|8,1:2|0:2,0:0:0:0:
484,176,33376,1,10,1:2:0:0:
484,176,33518,2,0,L|473:267,2,76.9950006461678,2|8|10,0:1|1:2|0:2,0:0:0:0:
386,109,33945,2,0,L|397:200,1,76.9950006461678,8|8,1:2|0:0,0:0:0:0:
302,108,34229,1,8,1:2:0:0:
302,108,34371,1,10,0:2:0:0:
236,321,34513,2,0,P|189:353|117:323,1,115.492500969252,8|0,3:2|0:0,0:0:0:0:
127,315,34798,6,0,P|142:275|148:232,1,76.9950006461678,10|8,1:2|0:2,0:0:0:0:
49,146,35082,2,0,P|34:106|28:63,1,76.9950006461678,10|8,1:2|0:2,0:0:0:0:
194,62,35366,1,10,1:2:0:0:
194,62,35509,2,0,P|164:88|105:89,1,76.9950006461678,10|8,0:2|1:2,0:0:0:0:
261,4,35793,2,0,P|298:11|326:36,1,76.9950006461678,10|8,0:2|1:2,0:0:0:0:
383,284,36077,5,2,3:0:0:0:
453,50,36220,2,0,L|464:148,1,76.9950006461678,2|8,3:0|0:0,0:0:0:0:
473,303,36504,1,10,1:2:0:0:
473,303,36646,2,0,P|423:271|385:267,1,76.9950006461678,10|8,0:2|1:0,0:0:0:0:
303,360,36930,1,2,0:0:0:0:
239,157,37073,5,0,1:0:0:0:
239,157,37215,1,0,1:0:0:0:
134,378,37357,2,0,P|173:366|305:348,1,153.990001292336,6|8,3:2|1:2,0:0:0:0:
67,100,37926,5,10,1:2:0:0:
97,233,38068,2,0,P|135:245|185:244,1,76.9950006461678,10|8,3:2|0:2,0:0:0:0:
272,61,38352,1,8,3:2:0:0:
272,61,38494,2,0,L|259:170,1,76.9950006461678,8|8,1:2|0:2,0:0:0:0:
361,38,38779,2,0,P|389:14|442:14,1,76.9950006461678,10|8,1:2|0:2,0:0:0:0:
407,203,39063,1,10,1:2:0:0:
407,203,39205,2,0,P|369:198|340:174,2,76.9950006461678,10|8|8,0:2|1:2|0:2,0:0:0:0:
492,107,39632,2,0,L|481:194,1,76.9950006461678,10|8,1:2|0:2,0:0:0:0:
354,271,39916,2,0,L|365:358,1,76.9950006461678,10|8,1:2|0:2,0:0:0:0:
260,240,40201,1,2,1:0:0:0:
475,99,40343,5,2,3:2:0:0:
268,216,40485,2,0,L|164:197,1,76.9950006461678,0|2,3:2|0:0,0:0:0:0:
225,333,40769,1,8,1:0:0:0:
160,93,40911,1,0,3:2:0:0:
367,210,41053,2,0,L|471:191,1,76.9950006461678,2|0,3:2|0:0,0:0:0:0:
311,93,41338,2,0,L|386:106,1,76.9950006461678,10|2,1:0|0:0,0:0:0:0:
252,260,41622,5,0,3:2:0:0:
116,22,41765,1,0,3:2:0:0:
116,22,41907,2,0,P|91:57|87:117,1,76.9950006461678,10|8,1:2|0:2,0:0:0:0:
186,173,42191,2,0,P|235:152|276:157,1,76.9950006461678,8|8,1:2|0:2,0:0:0:0:
308,346,42475,1,10,1:2:0:0:
472,124,42618,6,0,P|393:80|318:93,1,153.990001292336,10|8,3:2|0:2,0:0:0:0:
328,358,43044,2,0,P|403:361|467:320,1,153.990001292336,10|8,3:2|1:2,0:0:0:0:
105,161,43613,6,0,L|116:259,1,76.9950006461678,10|8,1:2|0:2,0:0:0:0:
200,66,43897,1,10,1:2:0:0:
89,318,44039,2,0,P|51:310|22:286,1,76.9950006461678,10|8,3:2|0:0,0:0:0:0:
186,293,44324,2,0,P|223:300|252:324,1,76.9950006461678,10|8,0:2|1:2,0:0:0:0:
384,357,44608,1,10,0:2:0:0:
384,357,44750,2,0,P|354:301|355:271,1,76.9950006461678,10|0,1:2|3:0,0:0:0:0:
380,260,44964,1,0,3:0:0:0:
380,260,45035,1,0,3:0:0:0:
492,92,45177,6,0,P|448:63|399:60,1,76.9950006461678,0|0,3:0|1:0,0:0:0:0:
488,220,45461,1,0,3:0:0:0:
280,62,45603,2,0,P|243:72|212:95,1,76.9950006461678,0|8,3:0|1:3,0:0:0:0:
210,294,45888,1,10,1:3:0:0:
281,165,46030,1,4,1:3:0:0:
107,326,46172,6,0,B|41:279|114:227|9:190,1,153.990001292336,14|10,1:2|0:2,0:0:0:0:
181,146,46599,2,0,P|169:180|162:233,1,76.9950006461678,2|8,3:0|0:2,0:0:0:0:
292,137,46883,1,2,0:0:0:0:
385,316,47025,2,0,B|451:269|378:217|483:180,1,153.990001292336,10|8,1:2|0:0,0:0:0:0:
322,144,47452,2,0,P|334:178|355:306,1,153.990001292336,0|0,3:0|0:0,0:0:0:0:
398,109,47878,2,0,P|441:83|493:93,1,76.9950006461678,10|0,3:2|1:0,0:0:0:0:
270,244,48163,1,10,3:2:0:0:
205,33,48305,1,0,3:0:0:0:
137,304,48447,6,0,P|105:331|45:325,1,76.9950006461678,6|0,1:2|0:0,0:0:0:0:
177,155,48731,1,10,0:2:0:0:
322,305,48874,2,0,P|359:299|387:274,1,76.9950006461678,2|8,3:0|1:2,0:0:0:0:
433,137,49158,1,2,1:2:0:0:
242,42,49300,2,0,P|256:85|273:201,1,153.990001292336,10|8,3:2|1:2,0:0:0:0:
95,267,49727,1,0,3:0:0:0:
56,118,49869,2,0,P|106:100|135:113,1,76.9950006461678,8|0,0:0|3:0,0:0:0:0:
209,229,50153,1,10,1:3:0:0:
209,229,50295,1,8,1:3:0:0:
312,123,50438,2,0,P|274:116|241:133,1,76.9950006461678,6|4,1:3|1:3,0:0:0:0:
443,301,50722,6,0,L|456:184,1,115.492500969252,6|0,1:2|0:0,0:0:0:0:
437,157,51006,1,10,3:2:0:0:
337,339,51148,2,0,L|328:262,1,76.9950006461678,2|8,0:0|1:2,0:0:0:0:
215,201,51433,1,2,1:0:0:0:
246,377,51575,2,0,L|254:300,1,76.9950006461678,10|0,0:2|3:0,0:0:0:0:
208,174,51859,1,8,0:0:0:0:
358,125,52002,1,0,1:0:0:0:
160,26,52144,2,0,L|171:112,1,76.9950006461678,8|0,3:2|0:0,0:0:0:0:
72,249,52428,2,0,L|61:335,1,76.9950006461678,10|0,1:2|1:0,0:0:0:0:
20,76,52712,2,0,L|9:162,1,76.9950006461678,10|0,3:1|0:0,0:0:0:0:
143,324,52997,6,0,P|188:296|239:288,1,85.8450020303307,6|0,3:2|0:0,0:0:0:0:
406,358,53281,1,2,1:0:0:0:
226,177,53423,2,0,P|267:188|302:212,1,85.8450020303307,6|0,3:2|1:0,0:0:0:0:
400,384,53708,1,2,1:0:0:0:
364,101,53850,2,0,P|389:135|402:176,1,85.8450020303307,6|0,3:2|0:0,0:0:0:0:
243,331,54134,2,0,P|268:296|281:255,1,85.8450020303307,0|0,1:0|3:2,0:0:0:0:
127,14,54419,5,2,3:2:0:0:
191,248,54561,1,0,3:2:0:0:
301,8,54703,1,2,3:2:0:0:
44,117,54845,1,10,1:0:0:0:
44,117,55272,6,0,P|105:50|192:107,1,189.389994220276,4|8,1:2|3:1,0:0:0:0:
179,342,55698,2,0,P|97:377|39:311,1,189.389994220276,2|0,0:0|0:0,0:0:0:0:
187,167,56125,1,10,3:1:0:0:
313,334,56267,2,0,P|354:356|423:337,1,94.694997110138,2|8,1:2|0:1,0:0:0:0:
512,177,56551,1,2,1:2:0:0:
283,27,56693,2,0,L|300:133,1,94.694997110138,8|0,3:1|0:0,0:0:0:0:
352,185,56907,1,0,3:0:0:0:
352,185,56978,2,0,L|335:291,1,94.694997110138,8|0,1:1|1:2,0:0:0:0:
412,95,57262,1,10,3:1:0:0:
151,2,57404,6,0,P|167:85|180:219,1,189.389994220276,2|0,0:0|0:0,0:0:0:0:
52,336,57831,1,10,3:1:0:0:
243,95,57973,2,0,P|225:189|214:312,1,189.389994220276,2|0,0:0|1:2,0:0:0:0:
128,83,58400,1,10,3:1:0:0:
306,242,58542,2,0,P|352:214|401:206,1,94.694997110138,2|8,1:2|0:1,0:0:0:0:
276,358,58826,1,2,1:2:0:0:
373,102,58968,2,0,P|418:112|460:247,1,189.389994220276,10|8,3:1|1:1,0:0:0:0:
286,324,59395,1,0,1:2:0:0:
226,130,59537,2,0,P|183:87|80:77,1,142.042495665207,10|0,3:1|0:0,0:0:0:0:
53,128,59821,6,0,P|71:178|75:226,1,94.694997110138,8|0,1:1|0:0,0:0:0:0:
325,79,60106,2,0,P|308:123|302:170,1,94.694997110138,10|2,3:1|0:0,0:0:0:0:
367,219,60319,1,0,3:0:0:0:
367,219,60390,2,0,P|417:197|463:198,1,94.694997110138,8|0,1:1|1:2,0:0:0:0:
297,325,60675,1,10,3:1:0:0:
220,114,60817,2,0,P|170:92|37:76,1,189.389994220276,2|0,1:2|1:2,0:0:0:0:
259,237,61243,1,10,3:1:0:0:
24,273,61385,2,0,P|67:239|192:191,1,189.389994220276,2|0,0:0|1:2,0:0:0:0:
352,359,61812,1,10,3:1:0:0:
207,303,61954,1,2,0:0:0:0:
369,127,62096,6,0,L|351:255,1,94.694997110138,8|0,1:1|0:0,0:0:0:0:
217,51,62381,1,10,3:1:0:0:
459,166,62523,2,0,L|483:361,1,189.389994220276,2|0,0:0|1:2,0:0:0:0:
351,118,62949,1,10,3:1:0:0:
180,288,63092,2,0,L|198:416,1,94.694997110138,2|8,1:2|0:1,0:0:0:0:
274,195,63376,1,0,1:2:0:0:
79,344,63518,2,0,L|93:211,1,94.694997110138,8|0,3:1|0:0,0:0:0:0:
211,54,63802,1,10,1:1:0:0:
55,147,63945,1,2,1:2:0:0:
297,203,64087,1,8,3:1:0:0:
159,132,64229,1,2,0:0:0:0:
304,346,64371,6,0,P|360:320|376:194,1,189.389994220276,4|10,1:2|3:1,0:0:0:0:
145,147,64798,2,0,P|185:227|198:349,1,189.389994220276,2|0,0:0|0:0,0:0:0:0:
256,133,65225,1,10,3:1:0:0:
179,340,65367,2,0,P|132:344|91:322,1,94.694997110138,2|8,1:2|0:1,0:0:0:0:
284,232,65651,1,2,1:2:0:0:
52,153,65793,2,0,P|44:106|31:60,1,94.694997110138,10|0,3:1|0:0,0:0:0:0:
113,33,66006,1,0,3:0:0:0:
113,33,66077,2,0,P|100:79|93:126,1,94.694997110138,8|0,1:1|1:2,0:0:0:0:
173,311,66362,1,10,3:1:0:0:
316,100,66504,6,0,B|424:130|338:180|467:220,1,189.389994220276,2|0,0:0|0:0,0:0:0:0:
195,299,66931,1,10,3:1:0:0:
255,34,67073,2,0,P|288:120|298:237,1,189.389994220276,2|0,0:0|1:2,0:0:0:0:
112,368,67500,1,10,3:1:0:0:
29,177,67642,2,0,P|75:149|126:157,1,94.694997110138,2|8,1:2|0:1,0:0:0:0:
91,337,67926,1,2,1:2:0:0:
335,180,68068,2,0,P|302:266|292:383,1,189.389994220276,10|8,3:1|1:1,0:0:0:0:
220,166,68494,1,0,1:2:0:0:
452,203,68637,1,10,3:1:0:0:
265,350,68779,6,0,P|166:327|41:311,1,189.389994220276,2|0,0:0|0:0,0:0:0:0:
331,219,69205,2,0,P|289:242|220:249,1,94.694997110138,10|2,3:1|0:0,0:0:0:0:
193,190,69419,1,0,3:0:0:0:
193,190,69490,2,0,P|151:167|82:160,1,94.694997110138,8|0,1:1|1:2,0:0:0:0:
265,350,69774,1,10,3:1:0:0:
371,136,69916,2,0,P|354:228|344:352,1,189.389994220276,2|0,1:2|1:2,0:0:0:0:
218,102,70343,1,10,3:1:0:0:
374,262,70485,2,0,P|451:262|507:138,1,189.389994220276,2|0,0:0|1:2,0:0:0:0:
405,35,70911,1,10,3:1:0:0:
137,152,71054,6,0,P|154:244|164:368,1,189.389994220276,2|0,0:0|0:0,0:0:0:0:
296,92,71480,1,10,3:1:0:0:
139,311,71622,2,0,B|34:288|106:221|-27:189,1,189.389994220276,2|0,0:0|1:2,0:0:0:0:
216,119,72049,1,10,3:1:0:0:
308,340,72191,2,0,P|376:343|408:222,1,189.389994220276,2|0,1:2|1:2,0:0:0:0:
299,65,72618,1,10,3:1:0:0:
213,274,72760,2,0,P|145:277|113:156,1,189.389994220276,2|0,0:0|1:2,0:0:0:0:
213,36,73186,1,10,3:1:0:0:
259,174,73329,1,2,0:0:0:0:
434,22,73471,6,0,P|412:69|407:145,1,94.694997110138,4|0,1:2|0:0,0:0:0:0:
355,339,73755,2,0,P|346:292|326:250,1,94.694997110138,8|0,3:1|0:0,0:0:0:0:
108,187,74039,2,0,P|151:220|211:225,1,94.694997110138,8|0,1:1|1:2,0:0:0:0:
310,19,74324,2,0,P|264:29|228:59,1,94.694997110138,10|0,3:1|0:0,0:0:0:0:
327,227,74608,2,0,P|333:169|349:112,1,94.694997110138,6|0,1:2|0:0,0:0:0:0:
151,11,74893,1,10,3:1:0:0:
83,227,75035,2,0,P|72:125|54:40,1,189.389994220276,2|0,0:0|1:2,0:0:0:0:
274,104,75461,2,0,P|263:150|259:197,1,94.694997110138,10|0,3:1|1:2,0:0:0:0:
448,339,75746,5,6,3:2:0:0:
197,254,75888,1,0,1:2:0:0:
492,235,76030,5,0,3:0:0:0:
244,318,76172,1,2,1:2:0:0:
348,92,76314,5,4,3:2:0:0:
425,339,76456,1,0,1:2:0:0:
437,34,76599,5,2,3:0:0:0:
363,281,76741,1,0,1:2:0:0:
247,25,76883,6,0,L|130:3,1,94.694997110138,6|0,1:2|3:0,0:0:0:0:
83,54,77096,1,2,3:0:0:0:
83,54,77167,1,0,3:0:0:0:
274,155,77310,1,0,3:0:0:0:
107,290,77452,1,2,3:0:0:0:
144,161,77594,1,0,3:0:0:0:
321,307,77736,1,0,3:0:0:0:
241,241,77878,1,0,3:0:0:0:
494,312,78020,5,6,1:0:0:0:
386,131,78163,2,0,L|399:245,1,103.545000394993,2|8,0:0|3:1,0:0:0:0:
99,384,78447,2,0,L|110:281,1,103.545000394993,2|8,0:0|3:1,0:0:0:0:
353,32,78731,2,0,L|366:146,1,103.545000394993,2|8,1:0|1:1,0:0:0:0:
348,368,79016,2,0,P|297:368|255:339,1,103.545000394993,2|8,3:0|0:1,0:0:0:0:
340,138,79300,2,0,L|364:352,1,207.090000789986,2|2,1:0|0:0,0:0:0:0:
231,183,79727,1,8,1:1:0:0:
389,265,79869,1,2,1:0:0:0:
96,245,80011,2,0,L|112:45,1,155.317500592489,8|0,3:1|0:0,0:0:0:0:
163,31,80295,6,0,P|216:8|317:139,1,207.090000789986,8|8,1:1|0:1,0:0:0:0:
221,247,80722,1,0,3:0:0:0:
412,59,80864,2,0,P|332:132|350:252,1,207.090000789986,10|8,1:1|1:1,0:0:0:0:
493,286,81291,1,0,3:0:0:0:
281,384,81433,2,0,P|208:349|74:330,1,207.090000789986,10|8,0:1|3:1,0:0:0:0:
272,220,81859,1,0,0:0:0:0:
67,342,82002,2,0,L|50:215,1,103.545000394993,8|0,1:1|1:0,0:0:0:0:
180,38,82286,2,0,L|166:140,1,103.545000394993,8|0,3:1|0:0,0:0:0:0:
354,284,82570,1,6,1:0:0:0:
475,133,82712,6,0,P|439:97|359:100,1,103.545000394993,2|8,0:0|3:1,0:0:0:0:
274,271,82997,2,0,P|238:307|158:304,1,103.545000394993,2|8,0:0|3:1,0:0:0:0:
88,87,83281,2,0,P|138:94|174:130,1,103.545000394993,2|8,1:0|1:1,0:0:0:0:
65,324,83565,2,0,P|77:265|82:198,1,103.545000394993,2|8,3:0|0:1,0:0:0:0:
285,70,83850,2,0,P|298:171|310:306,1,207.090000789986,2|2,1:0|0:0,0:0:0:0:
477,357,84276,1,8,1:1:0:0:
333,255,84419,1,2,1:0:0:0:
476,107,84561,2,0,P|463:162|454:278,1,155.317500592489,8|0,3:1|0:0,0:0:0:0:
396,325,84845,6,0,P|327:298|196:284,1,207.090000789986,8|8,1:1|0:1,0:0:0:0:
79,113,85272,1,0,3:0:0:0:
334,157,85414,2,0,P|236:190|133:197,1,207.090000789986,10|8,0:1|1:1,0:0:0:0:
226,53,85840,1,0,3:0:0:0:
40,193,85983,2,0,P|85:273|110:393,1,207.090000789986,10|0,0:1|3:0,0:0:0:0:
234,153,86409,1,0,3:0:0:0:
43,278,86551,1,0,3:0:0:0:
257,281,86693,1,0,1:0:0:0:
147,202,86836,1,8,1:3:0:0:
328,102,86978,1,4,1:3:0:0:
86,53,87120,6,0,L|75:155,1,103.545000394993,6|0,1:2|0:0,0:0:0:0:
281,299,87404,2,0,L|270:197,1,103.545000394993,10|0,3:1|0:0,0:0:0:0:
354,15,87688,1,10,3:1:0:0:
413,177,87830,1,2,0:0:0:0:
261,44,87973,1,10,1:0:0:0:
185,256,88115,6,0,P|142:293|33:196,1,207.090000789986,2|2,3:0|1:0,0:0:0:0:
102,38,88542,2,0,P|123:96|126:154,1,103.545000394993,10|2,3:1|3:0,0:0:0:0:
114,163,88755,1,0,3:0:0:0:
114,163,88826,1,2,3:0:0:0:
345,38,88968,1,10,1:0:0:0:
