osu file format v14

[General]
AudioFilename: hello.mp3
AudioLeadIn: 1500
PreviewTime:54276
Countdown: 0
SampleSet: Soft
StackLeniency: 0.5
Mode: 0
LetterboxInBreaks: 0
WidescreenStoryboard: 1

[Editor]
Bookmarks: 18874,41338,46172,87120
DistanceSpacing: 0.3
BeatDivisor: 3
GridSize: 8
TimelineZoom: 1.8

[Metadata]
Title:Hello,world! (TV Size)
TitleUnicode:Hello,world! (TV Size)
Artist:BUMP OF CHICKEN
ArtistUnicode:BUMP OF CHICKEN
Creator:Nevo
Version:Maiev's Insane
Source:血界戦線
Tags:blood blockade battlefront kekkai sensen opening aakki jian smokelind browiec kalibe kuki1537 maiev japanese rock anime xandit jrock j-rock
BeatmapID:2480630
BeatmapSetID:1166888

[Difficulty]
HPDrainRate:5
CircleSize:3.7
OverallDifficulty:7.6
ApproachRate:8.8
SliderMultiplier:1.4
SliderTickRate:1

[Events]
//Background and Video events
0,0,"d.jpg",0,0
Video,0,"Hellokotaikotokoro-1.mp4"
//Break Periods
//Storyboard Layer 0 (Background)
//Storyboard Layer 1 (Fail)
//Storyboard Layer 2 (Pass)
//Storyboard Layer 3 (Foreground)
//Storyboard Layer 4 (Overlay)
//Storyboard Sound Samples

[TimingPoints]
675,284.36018957346,4,2,1,55,1,0
675,-129.87012987013,4,2,1,55,0,0
1347,-129.87012987013,4,2,1,55,0,0
7670,-129.87012987013,4,2,1,55,0,0
8258,-129.87012987013,4,2,1,55,0,0
17817,-129.87012987013,4,2,1,55,0,0
17878,-175.438596491228,4,2,1,55,0,0
18874,-103.092783505155,4,2,1,75,0,0
27229,-103.092783505155,4,2,1,75,0,0
27973,-114.942528735632,4,2,1,65,0,0
36641,-114.942528735632,4,2,1,65,0,0
46052,-114.942528735632,4,2,1,65,0,0
47523,-114.942528735632,4,2,1,65,0,0
48258,-114.942528735632,4,2,1,65,0,0
52997,-103.092783505155,4,2,1,65,0,0
55272,-93.4579439252336,4,2,1,90,0,1
67229,-93.4579439252336,4,2,1,90,0,1
76641,-93.4579439252336,4,2,1,90,0,1
78020,-85.4700854700855,4,2,1,90,0,0
78994,-85.4700854700855,4,2,1,90,0,0
80170,-85.4700854700855,4,2,1,90,0,0
81347,-85.4700854700855,4,2,1,90,0,0
82523,-85.4700854700855,4,2,1,90,0,0
83699,-85.4700854700855,4,2,1,90,0,0
84876,-85.4700854700855,4,2,1,90,0,0
86052,-85.4700854700855,4,2,1,90,0,0
86126,-85.4700854700855,4,2,1,90,0,0
87120,-85.4700854700855,4,2,1,75,0,0

[Colours]
Combo1 : 240,170,38
Combo2 : 23,104,86
Combo3 : 150,5,81
Combo4 : 18,124,255

[HitObjects]
347,18,675,5,4,3:1:0:0:
502,19,817,2,0,L|499:91,1,53.8999989308167,0|10,3:0|0:0,0:0:0:0:
422,53,1101,2,0,L|418:172,1,107.799997861633,2|0,0:0|0:0,0:0:0:0:
364,269,1528,1,10,0:0:0:0:
364,269,1670,2,0,P|404:244|448:335,1,161.69999679245,2|8,0:0|0:0,0:0:0:0:
203,352,2381,1,10,0:0:0:0:
203,352,2523,2,0,L|204:298,1,53.8999989308167,2|10,0:0|0:0,0:0:0:0:
5,211,2807,6,0,B|71:235|52:188|125:206,1,107.799997861633,2|0,0:0|0:0,0:0:0:0:
194,219,3234,2,0,L|192:165,1,53.8999989308167,10|0,0:0|0:0,0:0:0:0:
125,74,3518,1,10,0:1:0:0:
125,74,3660,2,0,L|123:127,1,53.8999989308167,2|8,0:0|0:0,0:0:0:0:
212,20,3945,2,0,P|210:71|255:98,1,107.799997861633,10|2,0:1|0:0,0:0:0:0:
344,14,4371,2,0,B|425:22|425:22|433:13|433:13|520:20,1,161.69999679245,10|2,0:0|0:0,0:0:0:0:
512,112,4940,1,10,0:1:0:0:
512,112,5082,1,10,0:0:0:0:
399,201,5224,6,0,P|396:145|438:101,1,107.799997861633,10|10,0:0|0:0,0:0:0:0:
489,203,5651,1,0,0:0:0:0:
489,203,5793,2,0,L|482:309,1,107.799997861633,10|10,0:0|0:0,0:0:0:0:
392,359,6220,2,0,L|388:305,1,53.8999989308167,10|8,0:0|0:0,0:0:0:0:
304,212,6504,2,0,P|299:260|248:274,2,107.799997861633,2|0|10,0:0|0:0|0:1,0:0:0:0:
199,123,7215,1,10,0:0:0:0:
199,123,7357,6,0,B|136:142|146:112|76:134,1,107.799997861633,2|0,0:0|0:0,0:0:0:0:
40,53,7784,2,0,L|109:47,1,53.8999989308167,10|8,0:0|0:0,0:0:0:0:
213,4,8068,1,10,0:1:0:0:
213,4,8210,2,0,L|144:-2,1,53.8999989308167,2|8,0:0|0:0,0:0:0:0:
297,115,8494,2,0,L|293:51,1,53.8999989308167,10|8,0:1|0:0,0:0:0:0:
430,52,8779,2,0,L|420:181,1,107.799997861633,10|8,0:1|0:0,0:0:0:0:
297,115,9205,1,10,0:0:0:0:
297,115,9347,1,10,0:0:0:0:
445,371,9632,1,10,0:1:0:0:
445,371,9774,6,0,P|455:335|470:318,1,53.8999989308167,8|0,0:0|0:0,0:0:0:0:
453,231,10058,1,10,0:0:0:0:
453,231,10201,2,0,P|402:235|349:190,1,107.799997861633,2|0,0:0|0:0,0:0:0:0:
191,244,10627,1,10,0:0:0:0:
191,244,10769,2,0,P|245:264|256:309,1,107.799997861633,2|8,0:0|0:1,0:0:0:0:
186,378,11196,1,8,0:0:0:0:
21,186,11480,1,10,0:0:0:0:
21,186,11622,2,0,L|91:180,1,53.8999989308167,2|8,0:0|0:0,0:0:0:0:
254,126,11907,6,0,P|236:164|277:218,1,107.799997861633,10|8,0:1|0:0,0:0:0:0:
167,100,12333,2,0,L|97:94,1,53.8999989308167,10|0,0:0|0:0,0:0:0:0:
21,186,12618,2,0,L|91:180,1,53.8999989308167,10|0,0:0|0:0,0:0:0:0:
27,84,12902,1,10,0:0:0:0:
27,84,13044,2,0,P|39:49|42:18,1,53.8999989308167,10|8,0:1|0:0,0:0:0:0:
160,11,13329,2,0,P|164:37|174:62,1,53.8999989308167,10|8,0:0|0:0,0:0:0:0:
439,40,13755,1,10,0:0:0:0:
439,40,13897,2,0,L|376:37,1,53.8999989308167,2|8,0:0|0:0,0:0:0:0:
254,126,14182,6,0,P|287:108|337:200,1,161.69999679245,10|10,0:1|0:0,0:0:0:0:
336,197,14750,1,0,0:0:0:0:
435,256,14893,2,0,P|431:227|437:197,1,53.8999989308167,8|0,0:0|0:0,0:0:0:0:
337,310,15177,1,10,0:0:0:0:
337,310,15319,2,0,B|246:338|267:269|172:290,1,161.69999679245,10|10,0:1|0:0,0:0:0:0:
173,293,15888,1,0,0:0:0:0:
77,359,16030,2,0,P|81:330|75:300,1,53.8999989308167,8|8,0:0|0:1,0:0:0:0:
0,246,16314,2,0,P|-4:219|0:192,1,53.8999989308167,10|0,0:0|0:0,0:0:0:0:
75,109,16599,5,10,0:0:0:0:
75,109,16741,2,0,P|108:115|135:116,1,53.8999989308167,2|8,0:0|0:0,0:0:0:0:
229,42,17025,2,0,P|202:43|175:49,1,53.8999989308167,2|8,0:0|0:0,0:0:0:0:
202,178,17310,2,0,L|206:118,1,53.8999989308167,2|8,0:0|0:0,0:0:0:0:
308,9,17594,2,0,L|311:62,1,53.8999989308167,10|8,0:0|0:1,0:0:0:0:
308,166,17878,6,0,P|350:130|374:124,1,79.7999990258789,2|0,0:0|0:0,0:0:0:0:
461,148,18305,1,0,3:0:0:0:
355,272,18447,1,8,1:0:0:0:
512,364,18874,6,0,P|462:357|435:340,1,67.9000016059113,6|0,1:2|0:0,0:0:0:0:
355,272,19158,2,0,P|386:258|419:257,1,67.9000016059113,10|0,3:1|0:0,0:0:0:0:
364,384,19442,2,0,L|292:378,1,67.9000016059113,10|2,3:1|0:0,0:0:0:0:
169,292,19727,1,10,1:0:0:0:
169,292,19869,6,0,P|231:301|259:244,1,135.800003211823,2|2,3:0|1:0,0:0:0:0:
168,135,20295,2,0,P|178:168|179:206,1,67.9000016059113,10|0,3:1|0:0,0:0:0:0:
129,359,20580,1,10,1:1:0:0:
73,306,20722,2,0,P|74:272|84:239,1,67.9000016059113,2|10,1:0|3:1,0:0:0:0:
259,244,21006,1,2,3:0:0:0:
259,244,21077,1,0,3:0:0:0:
259,244,21148,6,0,L|346:239,1,67.9000016059113,6|0,1:2|0:0,0:0:0:0:
405,134,21433,2,0,L|318:129,1,67.9000016059113,10|0,3:1|0:0,0:0:0:0:
235,62,21717,2,0,P|228:127|162:131,1,135.800003211823,10|10,3:1|1:1,0:0:0:0:
29,32,22144,6,0,B|86:32|86:32|94:22|94:22|159:21,1,135.800003211823,2|0,3:0|1:0,0:0:0:0:
235,62,22570,1,10,3:1:0:0:
167,134,22712,2,0,L|165:101,2,33.9500008029557,2|0|2,3:0|3:0|3:0,0:0:0:0:
58,157,22997,1,10,1:3:0:0:
58,157,23139,2,0,L|56:224,1,67.9000016059113,10|6,1:3|1:3,0:0:0:0:
185,278,23423,6,0,L|183:188,1,67.9000016059113,6|0,1:2|0:0,0:0:0:0:
95,317,23708,2,0,L|93:384,1,67.9000016059113,10|0,3:1|0:0,0:0:0:0:
241,380,23992,2,0,P|212:367|161:371,1,67.9000016059113,10|2,3:1|0:0,0:0:0:0:
336,331,24276,1,10,1:1:0:0:
336,331,24419,6,0,P|278:303|276:230,1,135.800003211823,2|0,3:0|1:0,0:0:0:0:
393,180,24845,2,0,P|382:215|382:249,1,67.9000016059113,10|0,3:1|0:0,0:0:0:0:
409,384,25129,1,10,1:1:0:0:
478,333,25272,2,0,P|477:299|466:267,1,67.9000016059113,2|10,1:0|3:1,0:0:0:0:
271,237,25556,1,2,3:0:0:0:
271,237,25627,1,0,3:0:0:0:
271,237,25698,6,0,P|266:191|270:152,1,67.9000016059113,6|2,1:2|0:0,0:0:0:0:
399,92,25983,2,0,P|361:106|326:110,1,67.9000016059113,10|2,3:1|0:0,0:0:0:0:
179,89,26267,2,0,P|243:91|264:32,1,135.800003211823,10|10,3:1|1:0,0:0:0:0:
92,8,26693,6,0,B|98:66|98:66|91:84|91:84|97:154,1,135.800003211823,2|2,3:0|1:0,0:0:0:0:
18,296,27120,1,2,3:0:0:0:
113,229,27262,2,0,L|60:231,2,33.9500008029557,2|0|2,3:0|3:0|3:0,0:0:0:0:
13,171,27547,1,0,3:0:0:0:
13,171,27973,5,0,3:0:0:0:
201,171,28115,1,0,3:0:0:0:
113,229,28257,2,0,P|141:240|171:243,1,60.9000005110931,2|8,1:0|0:0,0:0:0:0:
293,301,28542,2,0,P|262:304|234:315,1,60.9000005110931,10|8,1:2|0:0,0:0:0:0:
100,355,28826,1,10,1:2:0:0:
100,355,28968,6,0,P|136:331|173:327,1,60.9000005110931,10|0,0:1|1:0,0:0:0:0:
259,218,29253,2,0,B|310:211|310:211|390:255,1,121.800001022186,2|8,0:0|0:0,0:0:0:0:
446,372,29679,2,0,P|448:329|521:299,1,121.800001022186,10|10,1:2|1:2,0:0:0:0:
481,213,30106,6,0,P|481:181|492:148,1,60.9000005110931,10|8,0:2|1:0,0:0:0:0:
385,0,30390,1,0,3:0:0:0:
426,70,30532,2,0,P|391:77|350:78,1,60.9000005110931,2|8,3:0|0:0,0:0:0:0:
255,146,30817,2,0,P|288:138|328:137,1,60.9000005110931,10|8,1:2|0:2,0:0:0:0:
393,224,31101,1,10,1:2:0:0:
393,224,31243,6,0,L|397:157,1,60.9000005110931,10|8,0:1|1:2,0:0:0:0:
258,265,31528,1,10,0:2:0:0:
258,265,31670,2,0,B|267:181|267:181|250:133,1,121.800001022186,10|8,1:2|1:2,0:0:0:0:
88,64,32096,1,2,3:0:0:0:
52,135,32238,2,0,P|100:144|136:136,1,60.9000005110931,10|2,1:0|0:0,0:0:0:0:
293,79,32523,6,0,L|302:19,3,40.6000003407288,10|10|10|10,3:0|3:0|3:0|3:3,0:0:0:0:
188,195,33092,2,0,P|189:161|179:123,1,60.9000005110931,10|8,1:2|0:2,0:0:0:0:
74,229,33376,1,10,1:2:0:0:
41,343,33518,6,0,L|160:319,1,121.800001022186,2|0,0:1|0:0,0:0:0:0:
307,218,33945,2,0,L|187:194,1,121.800001022186,8|8,1:2|1:2,0:0:0:0:
266,352,34371,1,10,0:2:0:0:
266,352,34513,2,0,P|253:322|256:278,1,60.9000005110931,8|10,3:2|0:2,0:0:0:0:
439,277,34798,6,0,P|418:296|370:302,1,60.9000005110931,10|8,1:2|0:2,0:0:0:0:
307,218,35082,2,0,L|387:223,1,60.9000005110931,10|8,1:2|0:2,0:0:0:0:
451,131,35366,1,10,1:2:0:0:
451,131,35509,2,0,L|371:136,1,60.9000005110931,10|8,0:2|1:2,0:0:0:0:
275,37,35793,2,0,P|303:60|320:88,1,60.9000005110931,10|8,0:2|1:2,0:0:0:0:
153,169,36077,5,2,3:0:0:0:
172,60,36220,1,2,3:0:0:0:
227,318,36504,2,0,P|207:276|129:284,1,121.800001022186,10|8,1:2|1:0,0:0:0:0:
0,320,36930,1,2,0:0:0:0:
56,381,37073,6,0,P|76:349|79:304,1,60.9000005110931,0|0,1:0|1:0,0:0:0:0:
0,191,37357,2,0,B|56:195|56:195|67:187|67:187|135:192,1,121.800001022186,6|8,3:2|1:2,0:0:0:0:
170,262,37784,1,8,0:2:0:0:
255,245,37926,1,10,1:2:0:0:
188,104,38068,6,0,L|111:106,1,60.9000005110931,10|8,3:2|0:2,0:0:0:0:
262,163,38352,2,0,L|339:165,1,60.9000005110931,8|8,3:2|1:2,0:0:0:0:
391,28,38637,1,8,0:2:0:0:
391,28,38779,2,0,P|368:53|363:85,1,60.9000005110931,10|8,1:2|0:2,0:0:0:0:
485,40,39063,1,10,1:2:0:0:
512,135,39205,6,0,B|439:112|464:171|372:140,1,121.800001022186,10|8,0:2|0:2,0:0:0:0:
359,283,39632,2,0,P|381:240|383:208,1,60.9000005110931,10|8,1:2|0:2,0:0:0:0:
485,345,39916,2,0,P|463:302|461:270,1,60.9000005110931,10|8,1:2|0:2,0:0:0:0:
512,218,40201,1,2,1:0:0:0:
359,283,40343,1,2,3:2:0:0:
394,146,40485,5,0,3:2:0:0:
394,146,40627,2,0,L|478:149,1,60.9000005110931,2|8,0:0|1:0,0:0:0:0:
247,232,40911,1,0,3:2:0:0:
214,128,41054,2,0,L|148:122,1,60.9000005110931,2|0,3:2|0:0,0:0:0:0:
247,232,41338,2,0,L|313:226,1,60.9000005110931,10|2,1:0|0:0,0:0:0:0:
474,0,41622,5,0,3:2:0:0:
384,34,41765,2,0,L|318:28,1,60.9000005110931,0|10,3:2|1:2,0:0:0:0:
96,119,42191,2,0,B|165:98|155:150|225:124,1,121.800001022186,8|10,1:2|1:2,0:0:0:0:
259,313,42618,6,0,P|241:280|285:213,1,121.800001022186,10|8,3:2|0:2,0:0:0:0:
419,282,43044,2,0,L|352:283,1,60.9000005110931,10|8,3:2|0:0,0:0:0:0:
333,143,43329,2,0,B|393:143|393:143|404:151|404:151|460:150,1,121.800001022186,8|10,1:2|1:2,0:0:0:0:
339,360,43897,5,10,1:2:0:0:
246,372,44039,2,0,P|251:334|263:304,1,60.9000005110931,10|8,3:2|0:0,0:0:0:0:
165,217,44324,2,0,P|174:245|121:315,1,121.800001022186,10|10,0:2|0:2,0:0:0:0:
54,361,44750,1,10,1:2:0:0:
16,253,44893,6,0,L|17:291,2,30.4500002555466,0|0|0,3:0|3:0|3:0,0:0:0:0:
165,217,45177,1,0,3:0:0:0:
0,60,45461,1,0,3:0:0:0:
151,97,45603,1,0,3:0:0:0:
46,140,45746,1,8,1:3:0:0:
254,87,45888,2,0,P|248:130|245:169,1,60.9000005110931,10|4,1:3|1:3,0:0:0:0:
419,282,46172,6,0,P|400:237|325:227,1,121.800001022186,14|10,1:2|0:2,0:0:0:0:
377,370,46599,2,0,P|406:331|377:261,1,121.800001022186,2|2,3:0|0:0,0:0:0:0:
501,216,47025,6,0,P|483:172|525:97,1,121.800001022186,10|8,1:2|0:0,0:0:0:0:
419,13,47452,2,0,B|360:10|360:10|348:16|348:16|278:11,1,121.800001022186,0|0,3:0|0:0,0:0:0:0:
200,100,47878,2,0,P|202:54|194:28,1,60.9000005110931,10|0,3:2|1:0,0:0:0:0:
298,110,48163,1,10,3:2:0:0:
298,110,48305,1,0,3:0:0:0:
152,192,48447,6,0,P|147:143|209:99,1,121.800001022186,6|10,1:2|0:2,0:0:0:0:
230,249,48874,2,0,P|185:228|178:153,1,121.800001022186,2|2,3:0|1:2,0:0:0:0:
333,223,49300,6,0,B|331:283|331:283|335:296|335:296|334:357,1,121.800001022186,10|8,3:2|1:2,0:0:0:0:
469,384,49727,1,0,3:0:0:0:
469,384,49869,2,0,P|459:350|430:320,1,60.9000005110931,8|0,0:0|3:0,0:0:0:0:
334,343,50153,2,0,P|300:352|258:348,1,60.9000005110931,10|8,1:3|1:3,0:0:0:0:
230,249,50438,1,6,1:3:0:0:
230,249,50580,1,4,1:3:0:0:
144,349,50722,6,0,P|146:285|77:259,1,121.800001022186,6|10,1:2|3:2,0:0:0:0:
70,381,51148,2,0,P|126:350|114:277,1,121.800001022186,2|2,0:0|1:0,0:0:0:0:
124,157,51575,1,10,0:2:0:0:
35,169,51717,2,0,P|33:105|102:79,1,121.800001022186,0|0,3:0|1:0,0:0:0:0:
213,143,52144,2,0,B|284:169|272:120|355:148,1,121.800001022186,8|10,3:2|1:2,0:0:0:0:
441,0,52570,1,0,1:0:0:0:
441,0,52712,2,0,P|443:40|458:70,1,60.9000005110931,10|0,3:1|0:0,0:0:0:0:
333,142,52997,6,0,P|361:96|308:36,1,135.800003211823,6|2,3:2|1:0,0:0:0:0:
284,216,53423,2,0,P|332:172|411:177,1,135.800003211823,6|2,3:2|1:0,0:0:0:0:
304,318,53850,2,0,P|289:254|339:192,1,135.800003211823,6|0,3:2|1:0,0:0:0:0:
408,348,54276,5,0,3:2:0:0:
284,216,54419,1,2,3:2:0:0:
477,266,54561,1,0,3:2:0:0:
304,318,54703,1,2,3:2:0:0:
399,171,54845,1,10,1:0:0:0:
399,171,55272,6,0,B|311:135|347:213|241:178,1,149.799995428467,4|8,1:2|3:1,0:0:0:0:
84,155,55698,1,2,0:0:0:0:
115,65,55840,2,0,P|152:69|186:96,1,74.8999977142335,8|0,1:1|0:0,0:0:0:0:
133,245,56125,1,10,3:1:0:0:
10,154,56267,6,0,L|96:156,1,74.8999977142335,2|8,1:2|0:1,0:0:0:0:
199,270,56551,1,2,1:2:0:0:
199,270,56693,2,0,P|162:266|128:239,1,74.8999977142335,8|0,3:1|0:0,0:0:0:0:
372,237,56978,2,0,P|412:245|453:225,1,74.8999977142335,8|0,1:1|1:2,0:0:0:0:
285,267,57262,1,10,3:1:0:0:
273,158,57404,6,0,P|351:129|405:176,1,149.799995428467,2|0,0:0|0:0,0:0:0:0:
285,267,57831,1,10,3:1:0:0:
452,107,57973,2,0,P|480:185|433:239,1,149.799995428467,2|0,0:0|1:2,0:0:0:0:
285,267,58400,1,10,3:1:0:0:
297,88,58542,6,0,P|278:123|272:161,1,74.8999977142335,2|8,1:2|0:1,0:0:0:0:
155,111,58826,1,2,1:2:0:0:
155,111,58968,2,0,P|148:74|131:42,1,74.8999977142335,10|0,3:1|0:0,0:0:0:0:
49,185,59253,2,0,B|138:146|114:224|209:174,1,149.799995428467,8|10,1:1|3:1,0:0:0:0:
163,356,59679,6,0,P|117:346|85:249,1,149.799995428467,2|0,0:0|0:0,0:0:0:0:
234,309,60106,1,10,3:1:0:0:
2,262,60248,2,0,P|12:216|109:184,1,149.799995428467,2|0,0:0|1:2,0:0:0:0:
234,309,60675,1,10,3:1:0:0:
163,356,60817,6,0,P|148:309|156:270,1,74.8999977142335,2|8,1:2|0:1,0:0:0:0:
323,278,61101,1,0,1:2:0:0:
323,278,61243,2,0,P|324:315|310:349,1,74.8999977142335,10|2,3:1|0:0,0:0:0:0:
212,229,61528,2,0,B|205:152|205:152|222:71,1,149.799995428467,8|10,1:1|3:1,0:0:0:0:
49,4,61954,6,0,P|107:10|133:99,1,149.799995428467,2|0,0:0|0:0,0:0:0:0:
15,134,62381,1,10,3:1:0:0:
219,81,62523,2,0,P|213:139|127:171,1,149.799995428467,2|0,0:0|1:2,0:0:0:0:
15,134,62949,1,10,3:1:0:0:
210,0,63092,6,0,B|308:4|256:63|371:59,1,149.799995428467,2|0,1:2|1:2,0:0:0:0:
461,2,63518,2,0,L|378:-1,1,74.8999977142335,8|0,3:1|0:0,0:0:0:0:
389,149,63802,1,10,1:1:0:0:
389,149,63945,2,0,P|417:109|419:69,1,74.8999977142335,2|8,1:2|3:1,0:0:0:0:
265,207,64229,6,0,B|348:181|325:254|428:223,1,149.799995428467,2|0,0:0|0:0,0:0:0:0:
493,123,64656,1,10,3:1:0:0:
389,149,64798,1,2,0:0:0:0:
466,283,64940,2,0,P|489:233|475:192,1,74.8999977142335,8|0,1:1|0:0,0:0:0:0:
389,149,65224,1,10,3:1:0:0:
365,314,65366,6,0,L|268:303,1,74.8999977142335,2|8,1:2|0:1,0:0:0:0:
224,179,65651,1,2,1:2:0:0:
224,179,65793,2,0,L|321:168,1,74.8999977142335,10|0,3:1|0:0,0:0:0:0:
152,364,66077,2,0,P|133:325|136:281,1,74.8999977142335,8|0,1:1|1:2,0:0:0:0:
0,148,66362,1,10,3:1:0:0:
159,51,66504,6,0,P|148:121|69:143,1,149.799995428467,2|0,0:0|0:0,0:0:0:0:
0,23,66930,1,10,3:1:0:0:
94,227,67073,2,0,P|24:216|2:137,1,149.799995428467,2|0,0:0|1:2,0:0:0:0:
0,23,67499,1,10,3:1:0:0:
159,51,67641,6,0,B|232:58|232:58|242:52|242:52|319:60,1,149.799995428467,2|2,1:2|1:2,0:0:0:0:
414,187,68068,2,0,P|401:139|406:102,1,74.8999977142335,10|0,3:1|0:0,0:0:0:0:
512,0,68352,2,0,P|512:37|500:72,1,74.8999977142335,8|0,1:1|1:2,0:0:0:0:
330,193,68637,1,10,3:1:0:0:
503,274,68779,6,0,P|485:208|411:187,1,149.799995428467,2|0,0:0|0:0,0:0:0:0:
431,329,69205,1,10,3:1:0:0:
418,104,69348,2,0,P|352:122|331:196,1,149.799995428467,2|0,0:0|1:2,0:0:0:0:
431,329,69774,1,10,3:1:0:0:
503,274,69916,2,0,P|473:244|424:237,1,74.8999977142335,2|8,1:2|0:1,0:0:0:0:
337,352,70201,1,0,1:2:0:0:
337,352,70343,2,0,P|299:354|265:341,1,74.8999977142335,10|2,3:1|0:0,0:0:0:0:
246,185,70627,2,0,P|313:206|313:280,1,149.799995428467,8|10,1:1|3:1,0:0:0:0:
128,24,71054,6,0,P|74:67|100:147,1,149.799995428467,2|0,0:0|0:0,0:0:0:0:
232,108,71479,1,10,3:1:0:0:
15,173,71622,2,0,P|58:227|138:201,1,149.799995428467,2|0,0:0|1:2,0:0:0:0:
232,108,72049,1,10,3:1:0:0:
128,24,72191,6,0,B|195:18|195:18|219:30|219:30|294:26,1,149.799995428467,2|0,1:2|1:2,0:0:0:0:
397,122,72618,1,10,3:1:0:0:
397,122,72760,2,0,P|387:71|359:46,1,74.8999977142335,2|8,0:0|1:1,0:0:0:0:
232,108,73044,1,0,1:2:0:0:
232,108,73186,2,0,P|219:142|225:179,1,74.8999977142335,10|2,3:1|0:0,0:0:0:0:
419,262,73471,6,0,P|378:231|338:232,1,74.8999977142335,4|0,1:2|0:0,0:0:0:0:
248,383,73755,2,0,P|294:363|313:327,1,74.8999977142335,8|0,3:1|0:0,0:0:0:0:
227,174,74039,2,0,P|220:224|242:258,1,74.8999977142335,8|0,1:1|1:2,0:0:0:0:
397,122,74324,2,0,L|307:115,1,74.8999977142335,10|0,3:1|0:0,0:0:0:0:
95,32,74608,6,0,B|195:65|157:-8|254:19,1,149.799995428467,6|10,1:2|3:1,0:0:0:0:
397,122,75035,2,0,P|359:82|360:40,1,74.8999977142335,2|8,0:0|1:1,0:0:0:0:
512,180,75319,1,0,1:2:0:0:
512,180,75461,2,0,P|500:215|470:237,1,74.8999977142335,10|0,3:1|1:2,0:0:0:0:
230,245,75746,5,6,3:2:0:0:
356,305,75888,1,0,1:2:0:0:
170,320,76030,1,0,3:0:0:0:
313,230,76172,1,2,1:2:0:0:
104,148,76314,1,4,3:2:0:0:
230,245,76456,1,0,1:2:0:0:
278,46,76599,2,0,P|242:32|191:35,1,74.8999977142335,2|0,3:0|1:2,0:0:0:0:
58,199,76883,6,0,P|92:179|103:136,1,74.8999977142335,6|0,1:2|3:0,0:0:0:0:
93,110,77096,1,0,3:0:0:0:
93,110,77167,1,0,3:0:0:0:
262,163,77310,1,0,3:0:0:0:
179,25,77452,2,0,P|178:61|182:102,1,74.8999977142335,2|0,3:0|3:0,0:0:0:0:
362,221,77736,2,0,P|365:183|364:146,1,74.8999977142335,0|0,3:0|3:0,0:0:0:0:
170,320,78020,6,0,B|258:368|255:287|350:347,1,163.800000624847,6|8,1:0|3:1,0:0:0:0:
496,284,78447,2,0,P|457:281|409:311,1,81.9000003124237,2|8,0:0|3:1,0:0:0:0:
285,206,78731,2,0,P|321:224|361:221,1,81.9000003124237,2|8,1:0|1:1,0:0:0:0:
371,65,79016,6,0,P|298:84|267:15,1,163.800000624847,2|2,3:0|1:0,0:0:0:0:
100,77,79442,1,8,3:1:0:0:
164,21,79584,2,0,P|182:64|180:106,1,81.9000003124237,2|8,0:0|1:1,0:0:0:0:
126,253,79869,1,2,1:0:0:0:
40,276,80011,2,0,P|40:235|57:198,1,81.9000003124237,8|0,3:1|0:0,0:0:0:0:
286,207,80295,6,0,B|356:284|271:348|271:348|219:347|212:304,1,245.700000937271,8|0,1:1|3:0,0:0:0:0:
56,198,80864,2,0,L|63:116,1,81.9000003124237,10|0,1:1|0:0,0:0:0:0:
133,0,81148,2,0,L|140:81,1,81.9000003124237,8|0,1:1|3:0,0:0:0:0:
314,97,81433,6,0,B|407:69|383:139|490:106,1,163.800000624847,10|8,0:1|3:1,0:0:0:0:
63,116,82002,2,0,P|93:78|144:66,1,81.9000003124237,8|0,1:1|1:0,0:0:0:0:
64,306,82286,2,0,P|34:268|-17:256,1,81.9000003124237,8|0,3:1|0:0,0:0:0:0:
251,288,82570,6,0,P|264:238|162:203,1,163.800000624847,6|8,1:0|3:1,0:0:0:0:
131,372,82997,2,0,P|181:372|226:346,1,81.9000003124237,2|8,0:0|3:1,0:0:0:0:
329,300,83281,2,0,P|291:285|250:287,1,81.9000003124237,2|8,1:0|1:1,0:0:0:0:
371,372,83565,6,0,P|360:298|432:278,1,163.800000624847,2|2,3:0|1:0,0:0:0:0:
451,119,83992,1,8,3:1:0:0:
477,197,84134,2,0,P|432:197|387:175,1,81.9000003124237,2|8,0:0|1:1,0:0:0:0:
285,9,84419,1,2,1:0:0:0:
259,81,84561,2,0,P|300:82|338:67,1,81.9000003124237,8|0,3:1|0:0,0:0:0:0:
179,192,84845,6,0,B|102:203|27:227|27:227|64:201|89:163,1,245.700000937271,8|0,1:0|3:0,0:0:0:0:
211,22,85414,2,0,P|245:42|258:80,1,81.9000003124237,10|0,0:1|0:0,0:0:0:0:
269,189,85698,2,0,P|268:229|241:259,1,81.9000003124237,8|0,0:1|3:0,0:0:0:0:
87,304,85983,6,0,P|130:308|185:314,1,81.9000003124237,10|0,0:1|3:0,0:0:0:0:
194,338,86196,1,0,3:0:0:0:
194,338,86267,1,0,3:0:0:0:
241,259,86409,1,0,3:0:0:0:
354,352,86551,2,0,P|304:369|266:357,1,81.9000003124237,0|0,3:0|1:0,0:0:0:0:
135,171,86836,2,0,P|175:165|212:181,1,81.9000003124237,8|4,1:3|1:3,0:0:0:0:
14,191,87120,6,0,P|7:143|10:97,1,81.9000003124237,6|0,1:2|0:0,0:0:0:0:
107,0,87404,2,0,P|107:40|101:81,1,81.9000003124237,10|0,3:1|0:0,0:0:0:0:
212,181,87689,2,0,P|197:130|198:82,1,81.9000003124237,10|2,3:1|0:0,0:0:0:0:
360,5,87973,1,10,1:0:0:0:
360,5,88115,6,0,P|336:46|417:102,1,163.800000624847,2|2,3:0|1:0,0:0:0:0:
506,212,88542,2,0,L|422:204,1,81.9000003124237,10|2,3:1|3:0,0:0:0:0:
393,219,88755,1,0,3:0:0:0:
393,219,88826,1,2,3:0:0:0:
510,323,88968,1,10,1:0:0:0:
