osu file format v14

[General]
AudioFilename: hello.mp3
AudioLeadIn: 1500
PreviewTime:54276
Countdown: 0
SampleSet: Soft
StackLeniency: 0.7
Mode: 0
LetterboxInBreaks: 0
WidescreenStoryboard: 1

[Editor]
Bookmarks: 18874,27973,41622,46172,55272,87120
DistanceSpacing: 0.6
BeatDivisor: 4
GridSize: 4
TimelineZoom: 2.7

[Metadata]
Title:Hello,world! (TV Size)
TitleUnicode:Hello,world! (TV Size)
Artist:BUMP OF CHICKEN
ArtistUnicode:BUMP OF CHICKEN
Creator:Nevo
Version:Despair
Source:血界戦線
Tags:blood blockade battlefront kekkai sensen opening aakki jian smokelind browiec kalibe kuki1537 maiev japanese rock anime xandit jrock j-rock
BeatmapID:2434035
BeatmapSetID:1166888

[Difficulty]
HPDrainRate:6
CircleSize:4
OverallDifficulty:9
ApproachRate:9.3
SliderMultiplier:1.7
SliderTickRate:1

[Events]
//Background and Video events
0,0,"d.jpg",0,0
Video,0,"Hellokotaikotokoro-1.mp4"
//Break Periods
//Storyboard Layer 0 (Background)
//Storyboard Layer 1 (Fail)
//Storyboard Layer 2 (Pass)
//Storyboard Layer 3 (Foreground)
//Storyboard Layer 4 (Overlay)
//Storyboard Sound Samples

[TimingPoints]
675,284.36018957346,4,2,1,55,1,0
675,-133.333333333333,4,2,1,55,0,0
1347,-133.333333333333,4,2,1,55,0,0
7670,-133.333333333333,4,2,1,55,0,0
8258,-133.333333333333,4,2,1,55,0,0
17817,-133.333333333333,4,2,1,55,0,0
18874,-100,4,2,1,75,0,0
27229,-100,4,2,1,75,0,0
27973,-117.647058823529,4,2,1,65,0,0
36641,-117.647058823529,4,2,1,65,0,0
37357,-100,4,2,1,65,0,0
38779,-117.647058823529,4,2,1,65,0,0
46052,-117.647058823529,4,2,1,65,0,0
47523,-117.647058823529,4,2,1,65,0,0
48258,-117.647058823529,4,2,1,65,0,0
52997,-90.9090909090909,4,2,1,65,0,0
54845,-166.666666666667,4,2,1,65,0,0
55272,-76.9230769230769,4,2,1,90,0,1
67229,-76.9230769230769,4,2,1,90,0,1
76641,-76.9230769230769,4,2,1,90,0,1
78994,-76.9230769230769,4,2,1,90,0,1
80170,-76.9230769230769,4,2,1,90,0,1
81347,-76.9230769230769,4,2,1,90,0,1
82523,-76.9230769230769,4,2,1,90,0,1
83699,-76.9230769230769,4,2,1,90,0,1
84876,-76.9230769230769,4,2,1,90,0,1
86052,-76.9230769230769,4,2,1,90,0,1
86126,-76.9230769230769,4,2,1,90,0,1
87120,-111.111111111111,4,2,1,75,0,0

[Colours]
Combo1 : 240,170,38
Combo2 : 23,104,86
Combo3 : 150,5,81
Combo4 : 18,124,255

[HitObjects]
177,93,675,5,4,3:1:0:0:
304,293,817,1,0,3:0:0:0:
204,354,959,2,0,P|195:294|205:242,1,95.6250036478044,10|0,0:0|0:0,0:0:0:0:
217,175,1243,2,0,P|223:233|206:281,1,95.6250036478044,8|0,0:0|0:0,0:0:0:0:
118,317,1528,1,10,0:0:0:0:
305,373,1670,6,0,P|376:376|446:335,1,127.500004863739,2|8,0:0|0:1,0:0:0:0:
476,288,2096,1,2,0:0:0:0:
144,55,2381,2,0,L|67:42,1,63.7500024318696,10|2,0:0|0:0,0:0:0:0:
3,87,2665,1,10,0:0:0:0:
202,146,2807,6,0,P|267:109|338:104,1,127.500004863739,2|0,0:0|0:0,0:0:0:0:
214,240,3234,2,0,L|138:227,1,63.7500024318696,10|0,0:0|0:0,0:0:0:0:
15,302,3518,2,0,L|77:291,1,63.7500024318696,10|2,0:1|0:0,0:0:0:0:
307,243,3802,1,8,0:0:0:0:
8,322,3945,6,0,L|94:308,1,63.7500024318696,10|8,0:1|0:0,0:0:0:0:
256,366,4229,1,2,0:0:0:0:
354,344,4371,1,10,0:0:0:0:
170,95,4798,2,0,L|158:157,1,63.7500024318696,2|10,0:0|0:1,0:0:0:0:
240,53,5082,1,10,0:0:0:0:
294,196,5224,6,0,P|354:205|397:171,1,95.6250036478044,10|0,0:0|0:0,0:0:0:0:
467,153,5509,2,0,L|452:257,1,95.6250036478044,10|0,0:0|0:0,0:0:0:0:
401,320,5793,2,0,L|330:308,1,63.7500024318696,10|0,0:0|0:0,0:0:0:0:
173,334,6077,1,10,0:0:0:0:
73,267,6220,6,0,L|70:204,1,63.7500024318696,10|8,0:0|0:0,0:0:0:0:
294,196,6504,2,0,P|241:224|159:214,1,127.500004863739,2|0,0:0|0:0,0:0:0:0:
278,99,6930,2,0,L|363:111,1,63.7500024318696,8|10,0:0|0:1,0:0:0:0:
405,184,7215,1,10,0:0:0:0:
259,86,7357,6,0,L|124:96,1,127.500004863739,2|0,0:0|0:0,0:0:0:0:
106,236,7784,2,0,P|135:180|136:165,1,63.7500024318696,10|8,0:0|0:0,0:0:0:0:
25,276,8068,2,0,L|34:345,1,63.7500024318696,10|2,0:1|0:0,0:0:0:0:
247,324,8352,1,8,0:0:0:0:
187,268,8494,2,0,L|176:197,1,63.7500024318696,10|8,0:1|0:0,0:0:0:0:
445,236,8779,6,0,P|381:235|322:257,1,127.500004863739,10|8,0:1|0:0,0:0:0:0:
108,328,9205,2,0,L|102:360,4,31.8750012159348,10|8|10|8|8,0:0|0:0|0:0|0:0|0:0,0:0:0:0:
28,157,9632,6,0,P|24:220|34:283,1,127.500004863739,10|0,0:1|0:0,0:0:0:0:
171,116,10058,1,10,0:0:0:0:
171,116,10201,2,0,P|174:179|164:242,1,127.500004863739,2|0,0:0|0:0,0:0:0:0:
3,39,10627,1,10,0:0:0:0:
3,39,10770,2,0,P|0:102|9:165,1,127.500004863739,2|8,0:0|0:1,0:0:0:0:
41,241,11196,1,2,0:0:0:0:
262,341,11480,6,0,L|342:325,1,63.7500024318696,10|2,0:0|0:0,0:0:0:0:
410,366,11765,1,8,0:0:0:0:
504,246,11907,2,0,P|428:244|363:211,1,127.500004863739,10|8,0:1|0:0,0:0:0:0:
312,96,12333,2,0,P|330:148|334:176,1,63.7500024318696,10|0,0:0|0:0,0:0:0:0:
213,209,12618,2,0,P|229:181|241:152,1,63.7500024318696,10|0,0:0|0:0,0:0:0:0:
123,46,12902,1,10,0:0:0:0:
123,46,13044,6,0,P|136:85|148:150,1,95.6250036478044,10|0,0:1|0:0,0:0:0:0:
102,212,13329,2,0,L|36:198,1,63.7500024318696,10|8,0:0|0:0,0:0:0:0:
280,348,13755,2,0,L|373:331,1,63.7500024318696,10|2,0:0|0:0,0:0:0:0:
405,269,14039,1,8,0:0:0:0:
142,384,14182,6,0,P|80:347|61:287,1,127.500004863739,10|0,0:1|0:0,0:0:0:0:
146,138,14608,1,10,0:0:0:0:
150,163,14893,1,8,0:0:0:0:
355,230,15177,1,10,0:0:0:0:
135,62,15319,6,0,P|73:99|54:159,1,127.500004863739,10|8,0:1|0:0,0:0:0:0:
403,111,15745,1,10,0:0:0:0:
411,89,16030,1,8,0:0:0:0:
150,163,16314,2,0,L|162:232,1,63.7500024318696,10|0,0:0|0:0,0:0:0:0:
366,355,16599,5,10,0:0:0:0:
137,334,16741,2,0,L|223:319,1,63.7500024318696,2|8,0:0|0:0,0:0:0:0:
295,213,17025,2,0,L|381:198,1,63.7500024318696,2|8,0:0|0:0,0:0:0:0:
142,113,17310,2,0,L|228:98,1,63.7500024318696,2|8,0:0|0:0,0:0:0:0:
98,245,17594,6,0,P|77:188|80:165,1,63.7500024318696,10|8,0:0|0:1,0:0:0:0:
278,38,17878,2,0,P|299:95|296:118,1,63.7500024318696,2|8,0:0|0:1,0:0:0:0:
136,350,18305,5,0,3:0:0:0:
292,24,18447,1,8,1:0:0:0:
278,38,18874,6,0,P|217:15|119:22,1,127.5,6|0,1:2|0:0,0:0:0:0:
50,119,19158,2,0,L|39:232,1,85,10|0,3:1|0:0,0:0:0:0:
206,384,19442,1,10,3:1:0:0:
147,221,19584,1,2,0:0:0:0:
7,316,19727,1,10,1:0:0:0:
250,285,19869,6,0,B|294:260|342:273|342:273|397:289|448:257,1,170,2|2,3:0|1:0,0:0:0:0:
362,104,20295,2,0,P|361:157|373:188,1,85,10|0,3:1|0:0,0:0:0:0:
509,50,20580,1,10,1:1:0:0:
410,19,20722,1,2,1:0:0:0:
281,124,20864,1,10,3:1:0:0:
169,95,21006,1,2,3:0:0:0:
141,84,21077,1,0,3:0:0:0:
114,79,21148,6,0,P|134:129|163:228,1,127.5,6|0,1:2|0:0,0:0:0:0:
98,281,21433,2,0,P|117:210|122:159,1,85,10|0,3:1|0:0,0:0:0:0:
30,358,21717,1,10,3:1:0:0:
179,330,21859,1,2,0:0:0:0:
300,203,22002,1,10,1:1:0:0:
452,239,22144,6,0,P|437:305|328:360,1,170,2|0,3:0|1:0,0:0:0:0:
210,234,22570,2,0,L|199:113,1,85,10|2,3:1|3:0,0:0:0:0:
204,120,22784,1,0,3:0:0:0:
211,91,22855,1,2,3:0:0:0:
307,288,22997,2,0,P|217:279|121:283,1,170,10|6,1:3|1:3,0:0:0:0:
323,278,23423,6,0,P|364:239|350:153,1,127.5,6|0,1:2|0:0,0:0:0:0:
330,83,23708,2,0,P|373:146|409:162,1,85,10|0,3:1|0:0,0:0:0:0:
259,12,23992,1,10,3:1:0:0:
214,126,24134,1,2,0:0:0:0:
323,278,24276,1,10,1:1:0:0:
363,171,24419,6,0,P|299:209|175:197,1,170,2|0,3:0|1:0,0:0:0:0:
7,93,24845,2,0,P|56:77|110:71,1,85,10|0,3:1|0:0,0:0:0:0:
78,285,25129,1,10,1:1:0:0:
13,205,25272,1,2,1:0:0:0:
256,266,25414,1,10,3:1:0:0:
202,363,25556,1,2,3:0:0:0:
184,331,25627,1,0,3:0:0:0:
171,294,25698,6,0,P|172:240|200:136,1,127.5,6|0,1:2|0:0,0:0:0:0:
234,92,25983,2,0,P|233:144|243:178,1,85,10|2,3:1|0:0,0:0:0:0:
464,278,26267,1,10,3:1:0:0:
378,169,26409,1,2,0:0:0:0:
369,368,26551,1,10,1:0:0:0:
191,240,26693,6,0,P|103:243|4:278,1,170,2|2,3:0|1:0,0:0:0:0:
279,291,27120,1,2,3:0:0:0:
119,370,27262,1,2,3:0:0:0:
103,375,27333,1,0,3:0:0:0:
86,384,27404,6,0,L|96:316,1,42.5,2|0,3:0|0:0,0:0:0:0:
291,125,27547,2,0,L|301:193,1,42.5,0|0,3:0|0:0,0:0:0:0:
300,114,27973,5,0,3:0:0:0:
82,18,28115,1,0,3:0:0:0:
6,109,28257,2,0,P|48:116|97:99,1,72.2500013780594,2|8,1:0|0:0,0:0:0:0:
191,27,28542,2,0,P|226:20|261:27,1,72.2500013780594,10|8,1:2|0:0,0:0:0:0:
385,102,28826,1,10,1:2:0:0:
241,256,28968,6,0,L|222:118,1,108.375002067089,10|0,0:1|0:0,0:0:0:0:
218,113,29253,2,0,L|198:198,1,72.2500013780594,2|8,0:0|1:2,0:0:0:0:
464,348,29679,2,0,P|422:331|387:329,1,72.2500013780594,10|8,1:2|0:0,0:0:0:0:
303,369,29964,1,10,1:2:0:0:
457,243,30106,6,0,L|473:151,1,72.2500013780594,10|8,0:2|1:0,0:0:0:0:
253,25,30390,5,0,3:0:0:0:
309,267,30532,1,2,3:0:0:0:
46,143,30817,6,0,P|99:137|148:159,1,108.375002067089,10|0,1:2|0:0,0:0:0:0:
206,212,31101,1,10,1:2:0:0:
97,300,31243,2,0,L|82:213,1,72.2500013780594,10|8,0:1|1:2,0:0:0:0:
269,377,31528,1,10,0:2:0:0:
269,377,31670,2,0,L|284:290,1,72.2500013780594,10|8,1:2|0:2,0:0:0:0:
367,252,31954,1,8,1:2:0:0:
228,127,32096,1,2,3:0:0:0:
298,74,32238,2,0,P|307:95|313:151,1,72.2500013780594,10|2,1:0|0:0,0:0:0:0:
164,340,32523,5,10,3:0:0:0:
128,335,32618,1,10,3:0:0:0:
92,331,32712,1,10,3:0:0:0:
56,327,32807,1,10,3:0:0:0:
394,167,33092,6,0,L|494:145,1,72.2500013780594,10|8,1:2|0:2,0:0:0:0:
376,77,33376,1,10,1:2:0:0:
249,263,33518,2,0,P|272:191|272:144,1,108.375002067089,2|0,0:1|0:0,0:0:0:0:
249,74,33802,2,0,L|262:156,1,72.2500013780594,10|8,0:2|1:2,0:0:0:0:
110,366,34229,5,8,1:2:0:0:
133,277,34371,1,10,0:2:0:0:
467,263,34513,6,0,B|481:239|481:239|440:252|399:240,1,108.375002067089,8|0,3:2|0:0,0:0:0:0:
355,182,34798,6,0,P|350:146|342:111,1,72.2500013780594,10|8,1:2|0:2,0:0:0:0:
179,28,35082,2,0,P|160:58|137:87,1,72.2500013780594,10|8,1:2|0:2,0:0:0:0:
72,134,35366,1,10,1:2:0:0:
126,242,35509,2,0,P|166:243|214:224,1,72.2500013780594,10|8,0:2|1:2,0:0:0:0:
311,113,35793,2,0,L|292:193,1,72.2500013780594,10|8,0:2|1:2,0:0:0:0:
399,366,36077,5,2,3:0:0:0:
216,122,36220,1,2,3:0:0:0:
199,109,36504,2,0,L|163:112,4,36.1250006890297,10|0|10|0|8,1:2|0:0|0:2|0:0|1:0,0:0:0:0:
293,177,36930,1,2,0:0:0:0:
508,79,37073,5,0,1:0:0:0:
380,70,37215,1,0,1:0:0:0:
341,294,37357,6,0,B|297:249|247:260|247:260|213:295|213:295|158:315|106:266,1,255,6|8,3:2|0:2,0:0:0:0:
59,197,37926,1,10,1:2:0:0:
317,164,38068,5,10,3:2:0:0:
29,362,38352,1,8,3:2:0:0:
145,56,38779,2,0,L|154:128,1,72.2500013780594,10|8,1:2|0:2,0:0:0:0:
207,250,39063,1,10,1:2:0:0:
207,250,39205,6,0,P|260:212|359:208,1,144.500002756119,10|8,0:2|0:2,0:0:0:0:
378,317,39632,2,0,L|290:303,1,72.2500013780594,10|8,1:2|0:2,0:0:0:0:
400,130,39916,2,0,P|431:200|430:219,1,72.2500013780594,10|8,1:2|0:2,0:0:0:0:
311,110,40201,1,2,1:0:0:0:
478,285,40343,5,2,3:2:0:0:
152,356,40485,1,0,3:2:0:0:
161,209,40627,2,0,P|221:183|257:180,1,72.2500013780594,2|8,0:0|1:0,0:0:0:0:
64,103,40911,5,0,3:2:0:0:
345,265,41054,2,0,P|297:266|259:254,1,72.2500013780594,2|0,3:2|0:0,0:0:0:0:
425,171,41338,1,10,1:0:0:0:
16,329,41622,5,0,3:2:0:0:
383,259,41765,1,0,3:2:0:0:
143,77,41907,2,0,P|100:128|124:212,1,144.500002756119,10|8,1:2|1:2,0:0:0:0:
113,200,42475,1,10,1:2:0:0:
410,358,42618,6,0,L|257:342,1,144.500002756119,10|8,3:2|0:2,0:0:0:0:
54,315,43044,2,0,L|128:296,1,72.2500013780594,10|8,3:2|0:0,0:0:0:0:
228,147,43329,2,0,P|206:205|206:229,1,72.2500013780594,8|8,1:2|0:2,0:0:0:0:
346,279,43613,2,0,P|310:255|270:251,1,72.2500013780594,10|8,1:2|0:2,0:0:0:0:
178,362,43897,1,10,1:2:0:0:
377,188,44039,5,10,3:2:0:0:
438,282,44182,1,8,0:0:0:0:
260,234,44324,2,0,L|246:163,1,72.2500013780594,10|8,0:2|1:2,0:0:0:0:
392,99,44608,2,0,L|379:170,1,72.2500013780594,10|10,0:2|1:2,0:0:0:0:
465,31,44893,5,0,3:0:0:0:
262,134,45035,1,0,3:0:0:0:
486,219,45177,1,0,3:0:0:0:
497,236,45461,5,0,3:0:0:0:
243,147,45603,1,0,3:0:0:0:
453,47,45746,1,8,1:3:0:0:
225,158,45888,1,10,1:3:0:0:
509,256,46030,1,4,1:3:0:0:
158,354,46172,6,0,P|86:316|2:315,1,144.500002756119,14|10,1:2|0:2,0:0:0:0:
356,266,46599,2,0,P|421:236|493:236,1,144.500002756119,2|2,3:0|0:0,0:0:0:0:
213,108,47025,2,0,P|216:164|227:268,1,144.500002756119,10|8,1:2|0:0,0:0:0:0:
270,339,47452,1,0,3:0:0:0:
176,373,47594,2,0,P|141:364|105:367,1,72.2500013780594,8|0,1:2|0:0,0:0:0:0:
28,282,47878,2,0,P|92:285|149:241,1,108.375002067089,10|0,3:2|0:0,0:0:0:0:
213,196,48163,1,10,3:2:0:0:
176,373,48305,1,0,3:0:0:0:
110,179,48447,6,0,P|99:102|116:24,1,144.500002756119,6|10,1:2|0:2,0:0:0:0:
354,279,48874,2,0,P|365:202|348:124,1,144.500002756119,2|2,3:0|1:2,0:0:0:0:
42,285,49300,2,0,P|11:213|7:133,1,144.500002756119,10|8,3:2|1:2,0:0:0:0:
138,342,49727,1,0,3:0:0:0:
277,71,50011,1,0,3:0:0:0:
296,73,50082,1,0,3:0:0:0:
317,77,50153,1,10,1:3:0:0:
432,136,50295,1,8,1:3:0:0:
464,256,50438,1,6,1:3:0:0:
67,190,50722,6,0,P|132:147|225:140,1,144.500002756119,6|10,1:2|3:2,0:0:0:0:
451,355,51148,2,0,P|386:312|293:305,1,144.500002756119,2|2,0:0|1:0,0:0:0:0:
411,76,51575,2,0,B|442:99|442:99|462:164|441:209,1,144.500002756119,10|8,0:2|0:0,0:0:0:0:
164,326,52144,2,0,L|72:310,1,72.2500013780594,8|0,3:2|0:0,0:0:0:0:
234,93,52428,6,0,P|267:135|264:221,1,108.375002067089,10|0,1:2|0:0,0:0:0:0:
216,252,52712,2,0,L|118:235,1,72.2500013780594,10|0,3:1|0:0,0:0:0:0:
313,373,52997,6,0,L|430:353,1,93.5000028533936,6|0,3:2|0:0,0:0:0:0:
465,288,53281,1,2,1:0:0:0:
199,373,53423,6,0,L|82:353,1,93.5000028533936,6|0,3:2|1:0,0:0:0:0:
47,288,53708,1,2,1:0:0:0:
319,107,53850,6,0,P|349:152|328:283,1,187.000005706787,6|0,3:2|1:0,0:0:0:0:
47,288,54276,1,0,3:2:0:0:
254,200,54419,1,2,3:2:0:0:
57,139,54561,1,0,3:2:0:0:
129,364,54703,1,2,3:2:0:0:
234,96,54845,6,0,B|335:87|335:87|311:115,1,127.499996109009,10|0,1:0|0:0,0:0:0:0:
419,46,55272,6,0,L|296:57,1,110.499994941712,4|0,1:2|0:0,0:0:0:0:
164,11,55556,1,8,3:1:0:0:
30,261,55698,2,0,P|111:208|265:188,1,220.999989883423,2|0,0:0|0:0,0:0:0:0:
432,223,56125,1,10,3:1:0:0:
195,383,56267,6,0,P|175:315|193:244,1,110.499994941712,2|8,1:2|0:1,0:0:0:0:
265,145,56551,1,2,1:2:0:0:
451,341,56693,2,0,P|381:317|331:310,1,110.499994941712,8|0,3:1|0:0,0:0:0:0:
317,316,56907,1,0,3:0:0:0:
290,331,56978,1,8,1:1:0:0:
450,216,57120,1,0,1:2:0:0:
275,37,57262,2,0,P|217:50|170:89,1,110.499994941712,10|2,3:1|0:0,0:0:0:0:
80,260,57547,6,0,P|81:176|49:73,1,165.749992412568,8|0,1:1|0:0,0:0:0:0:
10,22,57831,1,10,3:1:0:0:
12,369,57973,2,0,P|86:306|256:272,1,220.999989883423,2|0,0:0|1:2,0:0:0:0:
384,367,58400,1,10,3:1:0:0:
469,191,58542,2,0,B|481:152|481:152|446:72,1,110.499994941712,2|8,1:2|0:1,0:0:0:0:
332,21,58826,1,2,1:2:0:0:
230,201,58968,6,0,P|162:224|92:193,1,110.499994941712,10|0,3:1|0:0,0:0:0:0:
105,205,59182,1,0,3:0:0:0:
86,187,59253,1,8,1:1:0:0:
263,79,59395,1,0,1:2:0:0:
412,186,59537,1,10,3:1:0:0:
272,384,59679,6,0,P|239:293|312:146,1,220.999989883423,2|0,0:0|0:0,0:0:0:0:
511,198,60106,1,10,3:1:0:0:
446,297,60248,2,0,L|320:272,1,110.499994941712,2|8,0:0|1:1,0:0:0:0:
263,79,60532,1,0,1:2:0:0:
165,306,60675,1,10,3:1:0:0:
0,219,60817,6,0,B|166:183|166:183|233:196,1,220.999989883423,2|0,1:2|1:2,0:0:0:0:
429,270,61243,1,10,3:1:0:0:
391,115,61385,2,0,P|319:170|328:320,1,220.999989883423,2|0,0:0|1:2,0:0:0:0:
418,379,61812,2,0,L|429:267,1,110.499994941712,10|2,3:1|0:0,0:0:0:0:
183,151,62096,6,0,P|167:241|205:323,1,165.749992412568,8|0,1:1|0:0,0:0:0:0:
255,372,62381,1,10,3:1:0:0:
308,43,62523,2,0,P|248:104|96:106,1,220.999989883423,2|0,0:0|1:2,0:0:0:0:
13,34,62949,1,10,3:1:0:0:
267,190,63092,6,0,B|319:218|381:190|381:190|443:202|430:265,1,220.999989883423,2|0,1:2|1:2,0:0:0:0:
199,379,63518,2,0,L|64:358,1,110.499994941712,8|0,3:1|0:0,0:0:0:0:
309,333,63802,1,10,1:1:0:0:
61,371,63945,1,2,1:2:0:0:
236,266,64087,1,8,3:1:0:0:
91,114,64229,1,2,0:0:0:0:
91,114,64300,1,0,0:0:0:0:
91,114,64371,6,0,B|67:132|67:132|51:180|105:234,1,110.499994941712,4|0,1:2|0:0,0:0:0:0:
314,198,64656,1,10,3:1:0:0:
190,365,64798,2,0,P|221:285|258:241,1,110.499994941712,2|8,0:0|1:1,0:0:0:0:
413,186,65082,1,0,0:0:0:0:
491,255,65224,1,10,3:1:0:0:
172,184,65366,6,0,B|108:154|10:143|10:143|41:160|65:185,1,220.999989883423,2|2,1:2|1:2,0:0:0:0:
167,164,65793,2,0,B|103:134|5:123|5:123|36:140|60:165,1,220.999989883423,10|8,3:1|1:1,0:0:0:0:
219,293,66220,1,0,1:2:0:0:
101,320,66362,1,10,3:1:0:0:
288,164,66504,6,0,P|312:262|336:390,1,220.999989883423,2|0,0:0|0:0,0:0:0:0:
141,233,66930,1,10,3:1:0:0:
377,89,67073,2,0,P|401:187|425:315,1,220.999989883423,2|0,0:0|1:2,0:0:0:0:
186,149,67499,1,10,3:1:0:0:
466,14,67641,2,0,P|490:112|514:240,1,220.999989883423,2|2,1:2|1:2,0:0:0:0:
233,58,68068,2,0,B|169:28|71:17|71:17|102:34|126:59,1,220.999989883423,10|8,3:1|1:1,0:0:0:0:
292,245,68494,1,0,1:2:0:0:
416,166,68637,1,10,3:1:0:0:
186,149,68779,6,0,P|161:213|185:376,1,220.999989883423,2|0,0:0|0:0,0:0:0:0:
406,276,69205,1,10,3:1:0:0:
122,260,69347,1,2,0:0:0:0:
122,260,69419,1,0,3:0:0:0:
122,260,69490,2,0,P|91:154|95:117,1,110.499994941712,8|0,1:1|1:2,0:0:0:0:
195,38,69774,1,10,3:1:0:0:
473,176,69916,6,0,B|405:197|337:155|337:155|285:163|266:230,1,220.999989883423,2|0,1:2|1:2,0:0:0:0:
229,311,70343,1,10,3:1:0:0:
469,153,70485,2,0,B|401:174|333:132|333:132|281:140|262:207,1,220.999989883423,2|0,0:0|1:2,0:0:0:0:
220,331,70911,1,10,3:1:0:0:
15,183,71054,6,0,P|89:106|218:96,1,220.999989883423,2|0,0:0|0:0,0:0:0:0:
347,235,71480,1,10,3:1:0:0:
116,337,71622,2,0,P|96:253|132:105,1,220.999989883423,2|0,0:0|1:2,0:0:0:0:
406,170,72049,1,10,3:1:0:0:
293,346,72191,2,0,P|208:306|142:188,1,220.999989883423,2|0,1:2|1:2,0:0:0:0:
462,106,72618,1,10,3:1:0:0:
267,17,72760,2,0,L|255:126,1,110.499994941712,2|8,0:0|1:1,0:0:0:0:
389,303,73044,1,0,1:2:0:0:
358,183,73186,1,10,3:1:0:0:
188,344,73329,1,2,0:0:0:0:
28,144,73471,6,0,P|79:125|133:134,1,110.499994941712,4|0,1:2|0:0,0:0:0:0:
33,356,73755,2,0,L|7:230,1,110.499994941712,8|0,3:1|0:0,0:0:0:0:
255,126,74039,2,0,L|229:252,1,110.499994941712,8|0,1:1|1:2,0:0:0:0:
477,94,74324,2,0,B|425:73|425:73|371:87,1,110.499994941712,10|0,3:1|0:0,0:0:0:0:
291,352,74608,6,0,P|324:279|313:217,1,110.499994941712,6|0,1:2|0:0,0:0:0:0:
145,61,74893,1,10,3:1:0:0:
145,61,75035,2,0,P|142:148|174:289,1,220.999989883423,2|0,0:0|1:2,0:0:0:0:
442,214,75461,2,0,P|374:172|317:161,1,110.499994941712,10|0,3:1|1:2,0:0:0:0:
116,359,75746,5,6,3:2:0:0:
376,282,75888,1,0,1:2:0:0:
98,225,76030,1,0,3:0:0:0:
283,367,76172,1,2,1:2:0:0:
358,141,76314,1,4,3:2:0:0:
169,278,76456,1,0,1:2:0:0:
397,376,76599,2,0,P|458:361|491:325,1,110.499994941712,2|0,3:0|1:2,0:0:0:0:
246,121,76883,5,6,1:2:0:0:
164,304,77025,1,0,3:0:0:0:
164,304,77096,1,0,3:0:0:0:
164,304,77167,1,0,3:0:0:0:
342,258,77310,1,0,3:0:0:0:
119,191,77452,5,2,3:0:0:0:
365,165,77594,1,0,3:0:0:0:
119,45,77736,1,0,3:0:0:0:
396,74,77878,1,0,3:0:0:0:
101,277,78020,6,0,P|40:281|-5:250,1,110.499994941712,6|2,1:0|0:0,0:0:0:0:
225,113,78305,1,8,3:1:0:0:
326,307,78447,6,0,P|344:249|346:189,1,110.499994941712,2|8,0:0|3:1,0:0:0:0:
407,331,78731,2,0,P|425:273|431:212,1,110.499994941712,2|8,1:0|1:1,0:0:0:0:
125,61,79016,6,0,P|129:116|146:169,1,110.499994941712,2|8,3:0|0:1,0:0:0:0:
41,85,79300,2,0,P|48:140|65:193,1,110.499994941712,2|8,1:0|3:1,0:0:0:0:
494,131,79584,2,0,P|429:104|387:110,1,110.499994941712,2|8,0:0|1:1,0:0:0:0:
124,346,79869,2,0,P|179:367|270:336,1,110.499994941712,2|8,1:0|3:1,0:0:0:0:
333,292,80153,1,0,0:0:0:0:
233,45,80295,6,0,P|174:167|201:265,1,220.999989883423,8|8,1:1|0:1,0:0:0:0:
439,70,80722,1,0,3:0:0:0:
277,159,80864,2,0,B|336:135|390:158|390:158|444:181|501:155,1,220.999989883423,10|8,1:1|1:1,0:0:0:0:
337,253,81291,1,0,3:0:0:0:
152,367,81433,6,0,P|61:340|21:208,1,220.999989883423,10|8,0:1|3:1,0:0:0:0:
407,112,82002,2,0,L|385:233,1,110.499994941712,8|0,1:1|1:0,0:0:0:0:
132,169,82286,1,8,3:1:0:0:
242,97,82428,1,0,0:0:0:0:
334,318,82570,6,0,P|401:326|457:309,1,110.499994941712,6|2,1:0|0:0,0:0:0:0:
256,218,82855,1,8,3:1:0:0:
134,358,82997,6,0,P|116:300|114:240,1,110.499994941712,2|8,0:0|3:1,0:0:0:0:
53,382,83281,2,0,P|35:324|29:263,1,110.499994941712,2|8,1:0|1:1,0:0:0:0:
410,101,83566,6,0,P|406:155|389:208,1,110.499994941712,2|8,3:0|0:1,0:0:0:0:
494,125,83850,2,0,P|487:179|470:232,1,110.499994941712,2|8,1:0|3:1,0:0:0:0:
161,131,84134,2,0,P|228:109|271:122,1,110.499994941712,2|8,0:0|1:1,0:0:0:0:
344,210,84419,1,2,1:0:0:0:
130,57,84561,2,0,L|112:211,1,110.499994941712,8|0,3:1|0:0,0:0:0:0:
9,323,84845,6,0,P|69:271|220:247,1,220.999989883423,8|8,1:1|0:1,0:0:0:0:
349,327,85272,1,0,3:0:0:0:
499,215,85414,2,0,P|439:163|288:139,1,220.999989883423,10|8,0:1|1:1,0:0:0:0:
163,275,85840,1,0,3:0:0:0:
370,343,85983,5,10,0:1:0:0:
262,183,86125,1,0,3:0:0:0:
262,183,86196,1,0,3:0:0:0:
262,183,86267,1,0,3:0:0:0:
186,364,86409,1,0,3:0:0:0:
389,253,86551,1,0,3:0:0:0:
143,203,86693,1,0,1:0:0:0:
384,145,86836,1,8,1:3:0:0:
199,63,86978,1,4,1:3:0:0:
230,287,87120,6,0,P|241:210|232:176,1,114.749996498108,6|0,1:2|0:0,0:0:0:0:
129,127,87404,2,0,L|149:235,1,76.4999976654053,10|0,3:1|0:0,0:0:0:0:
116,347,87689,1,10,3:1:0:0:
344,307,87831,1,2,0:0:0:0:
230,287,87973,1,10,1:0:0:0:
463,363,88115,6,0,P|398:354|327:333,1,114.749996498108,2|0,3:0|0:0,0:0:0:0:
301,234,88400,1,2,1:0:0:0:
424,140,88542,2,0,P|435:170|440:248,1,76.4999976654053,10|2,3:1|3:0,0:0:0:0:
441,213,88755,1,0,3:0:0:0:
441,213,88826,1,2,3:0:0:0:
255,47,88968,5,10,1:0:0:0:
