osu file format v14

[General]
AudioFilename: hello.mp3
AudioLeadIn: 1500
PreviewTime:54276
Countdown: 0
SampleSet: Soft
StackLeniency: 0.7
Mode: 0
LetterboxInBreaks: 0
WidescreenStoryboard: 1

[Editor]
Bookmarks: 87120
DistanceSpacing: 1
BeatDivisor: 4
GridSize: 32
TimelineZoom: 1.5

[Metadata]
Title:Hello,world! (TV Size)
TitleUnicode:Hello,world! (TV Size)
Artist:BUMP OF CHICKEN
ArtistUnicode:BUMP OF CHICKEN
Creator:Nevo
Version:Aakki's Normal
Source:血界戦線
Tags:blood blockade battlefront kekkai sensen opening aakki jian smokelind browiec kalibe kuki1537 maiev japanese rock anime xandit jrock j-rock
BeatmapID:2740264
BeatmapSetID:1166888

[Difficulty]
HPDrainRate:3
CircleSize:3.2
OverallDifficulty:4
ApproachRate:5.5
SliderMultiplier:1.02
SliderTickRate:1

[Events]
//Background and Video events
0,0,"d.jpg",0,0
Video,0,"Hellokotaikotokoro-1.mp4"
//Break Periods
//Storyboard Layer 0 (Background)
//Storyboard Layer 1 (Fail)
//Storyboard Layer 2 (Pass)
//Storyboard Layer 3 (Foreground)
//Storyboard Layer 4 (Overlay)
//Storyboard Sound Samples

[TimingPoints]
675,284.36018957346,4,2,1,55,1,0
675,-111.111111111111,4,2,1,55,0,0
18874,-100,4,2,1,75,0,0
27973,-111.111111111111,4,2,1,65,0,0
55272,-100,4,2,1,90,0,1
55982,-100,4,2,1,90,0,1
56125,-100,4,2,1,90,0,1
56835,-100,4,2,1,90,0,1
56978,-100,4,2,1,90,0,1
57688,-100,4,2,1,55,0,1
57831,-100,4,2,1,90,0,1
59963,-100,4,2,1,90,0,1
60106,-100,4,2,1,90,0,1
62238,-100,4,2,1,55,0,1
62381,-100,4,2,1,90,0,1
65082,-100,4,2,1,90,0,1
65224,-100,4,2,1,90,0,1
66788,-100,4,2,1,90,0,1
66930,-100,4,2,1,90,0,1
69063,-100,4,2,1,90,0,1
69205,-100,4,2,1,90,0,1
71338,-100,4,2,1,90,0,1
71480,-100,4,2,1,90,0,1
80153,-100,4,2,1,90,0,1
80295,-100,4,2,1,90,0,1
81148,-100,4,2,1,90,0,1
81859,-100,4,2,1,55,0,1
82002,-100,4,2,1,90,0,1
84703,-100,4,2,1,90,0,1
84845,-100,4,2,1,90,0,1
87120,-100,4,2,1,75,0,0

[Colours]
Combo1 : 240,170,38
Combo2 : 23,104,86
Combo3 : 150,5,81
Combo4 : 18,124,255

[HitObjects]
43,45,675,6,0,L|95:40,1,45.8999985992432,4|0,3:1|3:0,0:0:0:0:
173,76,1101,2,0,B|215:110|215:110|189:203,1,137.69999579773,2|10,0:0|0:0,0:0:0:0:
176,233,1670,2,0,B|134:214|102:234|120:252|75:277|35:254,1,137.69999579773,2|2,0:0|0:0,0:0:0:0:
12,346,2381,1,10,0:0:0:0:
12,346,2523,2,0,P|45:357|75:359,1,45.8999985992432,2|10,0:0|0:0,0:0:0:0:
97,340,2807,6,0,B|144:331|144:331|183:346|183:346|235:333,1,137.69999579773,2|10,0:0|0:0,0:0:0:0:
304,280,3518,2,0,P|312:244|312:227,1,45.8999985992432,10|2,0:1|0:0,0:0:0:0:
278,149,3945,1,10,0:1:0:0:
326,70,4229,1,2,0:0:0:0:
326,70,4371,1,10,0:0:0:0:
444,140,4798,2,0,B|456:161|456:161|452:188,1,45.8999985992432,2|10,0:0|0:1,0:0:0:0:
456,274,5224,6,0,B|415:267|415:267|405:271|405:271|349:260,1,91.7999971984864,10|10,0:0|0:0,0:0:0:0:
301,198,5793,1,10,0:0:0:0:
229,255,6077,1,10,0:0:0:0:
229,255,6220,2,0,B|205:264|179:250|190:248|162:224|128:247,1,91.7999971984864,10|2,0:0|0:0,0:0:0:0:
25,98,7073,2,0,P|59:90|80:88,1,45.8999985992432,10|10,0:1|0:0,0:0:0:0:
104,59,7357,6,0,B|148:50|183:80|163:88|189:117|235:118,1,137.69999579773,2|10,0:0|0:0,0:0:0:0:
304,76,8068,1,10,0:1:0:0:
304,76,8210,2,0,P|342:79|360:81,1,45.8999985992432,2|8,0:0|0:0,0:0:0:0:
391,60,8494,2,0,P|417:93|420:149,1,91.7999971984864,10|10,0:1|0:1,0:0:0:0:
328,242,9205,1,10,0:0:0:0:
328,242,9347,1,10,0:0:0:0:
354,330,9632,6,0,B|388:315|420:327|413:340|442:359|490:335,1,137.69999579773,10|10,0:1|0:0,0:0:0:0:
509,297,10201,2,0,P|515:253|443:183,1,137.69999579773,2|10,0:0|0:0,0:0:0:0:
418,163,10769,2,0,B|381:151|351:187|372:199|340:238|291:229,1,137.69999579773,2|2,0:0|0:0,0:0:0:0:
242,165,11480,2,0,P|246:139|250:118,1,45.8999985992432,10|2,0:0|0:0,0:0:0:0:
203,40,11907,6,0,P|170:16|95:68,1,137.69999579773,10|10,0:1|0:0,0:0:0:0:
48,138,12618,1,10,0:0:0:0:
102,211,12902,1,10,0:0:0:0:
102,211,13044,2,0,B|122:214|141:236|141:236|154:217|197:207,1,91.7999971984864,10|10,0:1|0:0,0:0:0:0:
291,290,13755,1,10,0:0:0:0:
291,290,13897,1,2,0:0:0:0:
356,225,14182,6,0,P|418:221|470:283,1,137.69999579773,10|10,0:1|0:0,0:0:0:0:
314,374,15177,1,10,0:0:0:0:
314,374,15319,2,0,B|277:373|249:342|263:337|234:298|177:313,1,137.69999579773,10|10,0:1|0:0,0:0:0:0:
20,257,16314,1,10,0:0:0:0:
71,180,16599,5,10,0:0:0:0:
71,180,16741,2,0,P|69:153|67:123,1,45.8999985992432,2|8,0:0|0:0,0:0:0:0:
41,96,17025,2,0,P|80:72|140:80,1,91.7999971984864,2|2,0:0|0:0,0:0:0:0:
197,129,17594,1,10,0:0:0:0:
274,79,17878,1,2,0:0:0:0:
386,158,18305,5,0,3:0:0:0:
386,158,18447,1,8,1:0:0:0:
466,288,18874,6,0,B|430:281|430:281|407:289|407:289|351:279,1,102,6|10,1:2|3:1,0:0:0:0:
280,229,19442,1,10,3:1:0:0:
280,229,19584,2,0,P|245:238|222:242,1,51,2|10,0:0|1:0,0:0:0:0:
196,279,19869,2,0,P|138:276|108:238,1,102,2|2,3:0|1:0,0:0:0:0:
83,202,20295,1,10,3:1:0:0:
135,114,20580,2,0,P|167:114|192:109,1,51,10|2,1:1|1:0,0:0:0:0:
221,74,20864,2,0,P|246:77|271:77,1,51,10|2,3:1|3:0,0:0:0:0:
311,45,21148,6,0,P|346:37|397:93,1,102,6|10,1:2|3:1,0:0:0:0:
454,158,21717,1,10,3:1:0:0:
454,158,21859,2,0,P|446:215|446:220,1,51,2|10,0:0|1:1,0:0:0:0:
456,258,22144,1,2,3:0:0:0:
384,330,22428,1,0,1:0:0:0:
384,330,22570,1,10,3:1:0:0:
298,274,22855,2,0,P|263:281|237:284,1,51,2|10,3:0|1:3,0:0:0:0:
212,319,23139,2,0,P|186:315|161:310,1,51,10|6,1:3|1:3,0:0:0:0:
116,333,23423,6,0,P|89:295|112:234,1,102,6|10,1:2|3:1,0:0:0:0:
43,159,23992,1,10,3:1:0:0:
43,159,24134,2,0,P|52:123|57:103,1,51,2|10,0:0|1:1,0:0:0:0:
101,86,24419,2,0,P|133:95|187:55,1,102,2|0,3:0|1:0,0:0:0:0:
199,8,24845,1,10,3:1:0:0:
280,69,25129,1,10,1:1:0:0:
225,155,25414,2,0,P|215:191|212:213,1,51,10|2,3:1|3:0,0:0:0:0:
241,246,25698,6,0,B|279:239|279:239|299:247|299:247|342:238,1,102,6|10,1:2|3:1,0:0:0:0:
427,185,26267,1,10,3:1:0:0:
427,185,26409,2,0,P|463:179|484:181,1,51,2|10,0:0|1:0,0:0:0:0:
509,219,26693,2,0,P|497:252|484:326,1,102,2|2,3:0|1:0,0:0:0:0:
465,365,27120,1,2,3:0:0:0:
369,328,27404,2,0,P|326:322|312:319,1,51,2|0,3:0|3:0,0:0:0:0:
195,383,27973,6,0,P|198:347|200:330,1,45.8999985992432,0|0,3:0|3:0,0:0:0:0:
232,305,28257,2,0,P|229:264|224:195,1,91.7999971984864,2|10,1:0|1:2,0:0:0:0:
162,90,28968,2,0,P|125:52|33:78,1,137.69999579773,10|8,0:1|1:2,0:0:0:0:
7,146,29679,2,0,P|13:179|14:193,1,45.8999985992432,10|8,1:2|0:0,0:0:0:0:
8,237,29964,1,10,1:2:0:0:
8,237,30106,6,0,B|36:226|58:237|52:250|73:261|108:251,1,91.7999971984864,10|0,0:2|3:0,0:0:0:0:
132,228,30532,1,2,3:0:0:0:
206,282,30817,1,10,1:2:0:0:
287,239,31101,1,10,1:2:0:0:
287,239,31243,2,0,B|327:243|327:243|331:249|331:249|385:254,1,91.7999971984864,10|10,0:1|0:2,0:0:0:0:
418,236,31670,1,10,1:2:0:0:
502,127,32096,1,2,3:0:0:0:
502,127,32238,1,10,1:0:0:0:
450,50,32523,6,0,B|406:31|406:31|356:61,1,91.7999971984864,10|10,3:0|3:0,0:0:0:0:
301,117,33092,2,0,B|286:137|286:137|302:208,1,91.7999971984864,10|10,1:2|1:2,0:0:0:0:
319,244,33518,2,0,P|292:238|236:287,1,91.7999971984864,2|10,0:1|0:2,0:0:0:0:
153,377,34229,2,0,P|106:364|100:363,1,45.8999985992432,8|10,1:2|0:2,0:0:0:0:
63,371,34513,1,8,3:2:0:0:
93,284,34798,6,0,L|84:184,1,91.7999971984864,10|10,1:2|1:2,0:0:0:0:
28,119,35366,2,0,P|36:95|41:74,1,45.8999985992432,10|10,1:2|0:2,0:0:0:0:
116,23,35793,2,0,B|147:11|166:23|155:28|181:45|209:33,1,91.7999971984864,10|2,0:2|3:0,0:0:0:0:
245,17,36220,1,2,3:0:0:0:
306,84,36504,2,0,P|297:114|294:137,1,45.8999985992432,10|10,1:2|0:2,0:0:0:0:
353,198,36930,6,0,L|448:183,1,91.7999971984864,2|0,0:0|1:0,0:0:0:0:
478,213,37357,1,6,3:2:0:0:
478,213,37499,2,0,B|497:223|497:223|483:293,1,91.7999971984864,10|8,0:2|0:2,0:0:0:0:
424,362,38068,2,0,B|390:374|348:352|369:340|324:314|280:346,1,137.69999579773,10|8,3:2|1:2,0:0:0:0:
209,369,38779,2,0,P|201:335|233:276,1,91.7999971984864,10|10,1:2|1:2,0:0:0:0:
258,255,39205,6,0,B|281:232|281:232|252:122,1,137.69999579773,10|10,0:2|1:2,0:0:0:0:
276,41,39916,2,0,P|305:27|369:43,1,91.7999971984864,10|2,1:2|1:0,0:0:0:0:
400,63,40343,2,0,B|401:103|401:103|391:121|391:121|391:165,1,91.7999971984864,2|2,3:2|0:0,0:0:0:0:
478,258,41054,2,0,B|454:276|454:276|391:268,1,91.7999971984864,2|10,3:2|1:0,0:0:0:0:
354,243,41480,1,2,0:0:0:0:
354,243,41622,6,0,B|312:253|312:253|310:257|310:257|254:268,1,91.7999971984864,0|10,3:2|1:2,0:0:0:0:
108,172,42475,1,10,1:2:0:0:
108,172,42618,2,0,P|108:130|188:87,1,137.69999579773,10|10,3:2|3:2,0:0:0:0:
344,174,43613,1,10,1:2:0:0:
418,119,43897,5,10,1:2:0:0:
418,119,44039,2,0,P|399:100|375:89,1,45.8999985992432,10|8,3:2|0:0,0:0:0:0:
342,68,44324,2,0,B|301:73|301:73|293:78|293:78|250:84,1,91.7999971984864,10|10,0:2|0:2,0:0:0:0:
213,59,44750,1,10,1:2:0:0:
139,114,45035,6,0,P|92:110|86:108,1,45.8999985992432,0|0,3:0|3:0,0:0:0:0:
16,160,45461,1,0,3:0:0:0:
16,160,45603,2,0,P|21:192|27:213,1,45.8999985992432,0|8,3:0|1:3,0:0:0:0:
24,251,45888,1,10,1:3:0:0:
97,306,46172,6,0,B|146:296|140:333|188:321,1,91.7999971984864,14|10,1:2|0:2,0:0:0:0:
224,298,46599,1,2,3:0:0:0:
310,328,46883,1,2,0:0:0:0:
310,328,47025,2,0,B|349:334|349:334|356:344|356:344|400:352,1,91.7999971984864,10|8,1:2|0:0,0:0:0:0:
434,324,47452,1,0,3:0:0:0:
434,324,47594,1,8,1:2:0:0:
430,232,47878,1,10,3:2:0:0:
419,139,48163,2,0,P|374:129|363:127,1,45.8999985992432,10|0,3:2|3:0,0:0:0:0:
351,91,48447,6,0,B|291:97|291:97|260:76,1,91.7999971984864,6|10,1:2|0:2,0:0:0:0:
227,52,48874,2,0,B|200:34|200:34|140:40,1,91.7999971984864,2|2,3:0|1:2,0:0:0:0:
95,40,49300,1,10,3:2:0:0:
21,95,49584,1,8,1:2:0:0:
21,95,49727,2,0,B|34:120|34:120|19:193,1,91.7999971984864,0|0,3:0|3:0,0:0:0:0:
11,227,50153,1,10,1:3:0:0:
73,294,50438,1,6,1:3:0:0:
141,233,50722,6,0,L|246:227,1,91.7999971984864,6|10,1:2|3:2,0:0:0:0:
268,256,51148,1,2,0:0:0:0:
324,184,51433,1,2,1:0:0:0:
324,184,51575,2,0,P|304:153|240:130,1,91.7999971984864,10|8,0:2|0:0,0:0:0:0:
219,100,52002,1,0,1:0:0:0:
219,100,52144,1,8,3:2:0:0:
141,50,52428,1,10,1:2:0:0:
55,83,52712,1,10,3:1:0:0:
76,170,52997,6,0,L|176:157,1,91.7999971984864,6|2,3:2|1:0,0:0:0:0:
196,123,53423,2,0,L|287:134,1,91.7999971984864,6|2,3:2|1:0,0:0:0:0:
323,163,53850,1,6,3:2:0:0:
398,214,54134,6,0,P|404:251|410:274,1,45.8999985992432,0|0,1:0|3:2,0:0:0:0:
417,303,54419,1,2,3:2:0:0:
339,340,54703,1,2,3:2:0:0:
339,340,54845,1,10,1:0:0:0:
202,270,55272,6,0,B|172:263|146:279|163:283|133:306|98:287,1,102,4|8,1:2|3:1,0:0:0:0:
60,270,55698,2,0,P|41:239|64:181,1,102,2|0,0:0|0:0,0:0:0:0:
100,146,56125,1,10,3:1:0:0:
100,146,56267,1,2,1:2:0:0:
183,87,56551,2,0,L|290:103,1,102,2|0,1:2|0:0,0:0:0:0:
314,143,56978,1,8,1:1:0:0:
410,109,57262,1,10,3:1:0:0:
410,109,57404,6,0,B|459:94|459:94|498:108|479:152,1,102,2|0,0:0|0:0,0:0:0:0:
470,181,57831,1,10,3:1:0:0:
470,181,57973,2,0,P|458:221|456:288,1,102,2|0,0:0|1:2,0:0:0:0:
426,323,58400,1,10,3:1:0:0:
426,323,58542,1,2,1:2:0:0:
328,313,58826,1,2,1:2:0:0:
328,313,58968,2,0,B|287:318|287:318|275:311|275:311|226:317,1,102,10|8,3:1|1:1,0:0:0:0:
167,241,59537,1,10,3:1:0:0:
167,241,59679,6,0,B|213:235|213:235|225:242|225:242|266:237,1,102,2|0,0:0|0:0,0:0:0:0:
292,191,60106,1,10,3:1:0:0:
292,191,60248,2,0,B|307:190|332:174|332:174|380:196|380:196|414:185|441:207,1,153,2|10,0:0|3:1,0:0:0:0:
483,212,60817,1,2,1:2:0:0:
443,64,61243,1,10,3:1:0:0:
443,64,61385,2,0,B|402:69|402:69|390:62|390:62|343:67,1,102,2|0,0:0|1:2,0:0:0:0:
296,46,61812,1,10,3:1:0:0:
296,46,61954,6,0,B|249:40|249:40|237:47|237:47|176:38,1,102,2|0,0:0|0:0,0:0:0:0:
159,5,62381,1,10,3:1:0:0:
159,5,62523,1,2,0:0:0:0:
27,82,62949,1,10,3:1:0:0:
27,82,63092,2,0,B|1:126|1:126|31:180,1,102,2|0,1:2|1:2,0:0:0:0:
55,211,63518,1,8,3:1:0:0:
146,167,63802,1,10,1:1:0:0:
146,167,63945,2,0,P|188:165|213:163,1,51,2|8,1:2|3:1,0:0:0:0:
287,117,64371,6,0,P|306:150|293:210,1,102,4|10,1:2|3:1,0:0:0:0:
271,256,64798,2,0,B|229:252|229:252|216:262|216:262|160:257,1,102,2|0,0:0|0:0,0:0:0:0:
129,284,65224,1,10,3:1:0:0:
129,284,65366,2,0,B|87:280|87:280|74:290|74:290|18:285,1,102,2|2,1:2|1:2,0:0:0:0:
10,238,65793,1,10,3:1:0:0:
39,140,66077,1,8,1:1:0:0:
133,75,66362,1,10,3:1:0:0:
133,75,66504,6,0,B|159:75|181:98|181:98|202:78|235:77,1,102,2|0,0:0|0:0,0:0:0:0:
268,55,66930,1,10,3:1:0:0:
268,55,67073,2,0,B|311:57|311:57|315:62|315:62|373:64,1,102,2|0,0:0|1:2,0:0:0:0:
414,44,67499,1,10,3:1:0:0:
414,44,67641,1,2,1:2:0:0:
455,137,67926,1,2,1:2:0:0:
455,137,68068,2,0,B|488:180|488:180|456:234,1,102,10|8,3:1|1:1,0:0:0:0:
421,314,68637,1,10,3:1:0:0:
421,314,68779,6,0,P|381:282|368:224,1,102,2|0,0:0|0:0,0:0:0:0:
376,184,69205,1,10,3:1:0:0:
376,184,69347,2,0,P|361:135|322:104,1,102,2|0,0:0|1:2,0:0:0:0:
272,93,69774,1,10,3:1:0:0:
272,93,69916,1,2,1:2:0:0:
181,217,70343,1,10,3:1:0:0:
181,217,70485,2,0,B|151:217|135:192|135:192|116:220|81:222,1,102,2|0,0:0|1:2,0:0:0:0:
51,198,70911,1,10,3:1:0:0:
51,198,71054,6,0,P|31:164|56:107,1,102,2|0,0:0|0:0,0:0:0:0:
93,78,71480,1,10,3:1:0:0:
93,78,71622,1,2,0:0:0:0:
188,114,71907,2,0,P|212:124|237:124,1,51,0|10,1:2|3:1,0:0:0:0:
244,174,72191,2,0,B|307:178|307:178|323:163|344:163,1,102,2|0,1:2|1:2,0:0:0:0:
377,126,72618,1,10,3:1:0:0:
377,126,72760,2,0,B|410:142|446:130|446:130|481:101|456:47,1,153,2|10,0:0|3:1,0:0:0:0:
434,18,73329,1,2,0:0:0:0:
434,18,73471,5,4,1:2:0:0:
331,34,73755,1,8,3:1:0:0:
310,133,74039,1,8,1:1:0:0:
372,214,74324,2,0,B|388:244|388:244|371:314,1,102,10|6,3:1|1:2,0:0:0:0:
282,359,74893,1,10,3:1:0:0:
282,359,75035,2,0,B|247:345|221:368|221:368|205:341|185:339,1,102,2|0,0:0|1:2,0:0:0:0:
145,350,75461,1,10,3:1:0:0:
50,310,75746,6,0,P|33:281|50:206,1,102,6|0,3:2|3:0,0:0:0:0:
65,170,76172,2,0,B|96:157|96:157|172:188,1,102,2|0,1:2|1:2,0:0:0:0:
205,204,76599,1,2,3:0:0:0:
298,163,76883,2,0,B|328:165|349:147|331:138|366:113|402:121,1,102,6|0,1:2|3:0,0:0:0:0:
430,94,77310,1,0,3:0:0:0:
430,94,77452,2,0,P|417:57|398:42,1,51,2|0,3:0|3:0,0:0:0:0:
359,39,77736,2,0,P|323:22|299:24,1,51,0|0,3:0|3:0,0:0:0:0:
268,47,78020,5,6,1:0:0:0:
268,47,78163,1,2,0:0:0:0:
184,105,78447,1,2,0:0:0:0:
100,46,78731,1,2,1:0:0:0:
26,116,79016,2,0,B|9:144|9:144|31:217,1,102,2|2,3:0|1:0,0:0:0:0:
88,293,79584,1,2,0:0:0:0:
179,247,79869,1,2,1:0:0:0:
179,247,80011,2,0,L|245:256,1,51,8|0,3:1|0:0,0:0:0:0:
267,288,80295,6,0,P|315:286|354:243,1,102,8|8,1:1|0:1,0:0:0:0:
378,206,80722,1,0,3:0:0:0:
378,206,80864,2,0,P|412:169|462:167,1,102,10|8,1:1|1:1,0:0:0:0:
488,265,81433,2,0,B|458:274|458:274|433:299|433:299|393:312,1,102,10|8,0:1|3:1,0:0:0:0:
369,351,81859,1,0,0:0:0:0:
369,351,82002,2,0,B|335:340|335:340|310:315|310:315|280:306,1,102,8|8,1:1|3:1,0:0:0:0:
177,351,82570,5,6,1:0:0:0:
177,351,82712,1,2,0:0:0:0:
96,287,82997,1,2,0:0:0:0:
107,185,83281,1,2,1:0:0:0:
199,142,83565,2,0,B|220:129|251:146|244:152|265:171|299:159,1,102,2|2,3:0|1:0,0:0:0:0:
380,105,84134,1,2,0:0:0:0:
465,161,84419,2,0,L|455:278,1,102,2|0,1:0|0:0,0:0:0:0:
421,299,84845,6,0,P|396:274|327:298,1,102,8|8,1:1|0:1,0:0:0:0:
293,314,85272,1,0,3:0:0:0:
293,314,85414,2,0,B|248:333|248:333|201:307,1,102,10|8,0:1|1:1,0:0:0:0:
215,205,85983,2,0,P|217:167|214:143,1,51,10|0,0:1|3:0,0:0:0:0:
189,110,86267,2,0,P|187:72|190:48,1,51,0|0,3:0|3:0,0:0:0:0:
144,33,86551,1,0,3:0:0:0:
51,76,86836,1,8,1:3:0:0:
25,179,87120,6,0,B|89:166|89:166|117:195,1,102,6|10,1:2|3:1,0:0:0:0:
185,274,87689,1,10,3:1:0:0:
185,274,87831,2,0,P|225:265|239:265,1,51,2|10,0:0|1:0,0:0:0:0:
282,292,88115,2,0,P|346:303|388:304,1,102,2|2,3:0|1:0,0:0:0:0:
430,284,88542,1,10,3:1:0:0:
368,202,88826,5,2,3:0:0:0:
368,202,88968,1,10,1:0:0:0:
