osu file format v14

[General]
AudioFilename: audio.mp3
AudioLeadIn: 0
PreviewTime: 38274
Countdown: 0
SampleSet: Soft
StackLeniency: 0.9
Mode: 0
LetterboxInBreaks: 0
WidescreenStoryboard: 1

[Editor]
DistanceSpacing: 1.8
BeatDivisor: 4
GridSize: 16
TimelineZoom: 2

[Metadata]
Title:Gekkou (TV Size)
TitleUnicode:月虹 (TV Size)
Artist:BUMP OF CHICKEN
ArtistUnicode:BUMP OF CHICKEN
Creator:Wanpachi
Version:Yudragen's Luminescence
Source:からくりサーカス
Tags:alevi chaoticred cycopton yudragen japanese anime rock j-rock jrock j-pop jpop pop Le Cirque De Karakuri Circus
BeatmapID:2950196
BeatmapSetID:1432620

[Difficulty]
HPDrainRate:6
CircleSize:4.3
OverallDifficulty:8.2
ApproachRate:9.2
SliderMultiplier:1.6
SliderTickRate:1

[Events]
//Background and Video events
0,0,"he looks cool.jpg",0,0
//Break Periods
//Storyboard Layer 0 (Background)
//Storyboard Layer 1 (Fail)
//Storyboard Layer 2 (Pass)
//Storyboard Layer 3 (Foreground)
//Storyboard Layer 4 (Overlay)
//Storyboard Sound Samples

[TimingPoints]
249,300,4,2,0,50,1,0
249,-142.857142857143,4,2,0,50,0,0
4899,-111.111111111111,4,2,1,50,0,0
5049,-100,4,2,1,70,0,0
9849,-117.647058823529,4,2,2,60,0,0
19149,-117.647058823529,4,2,1,60,0,0
19449,-111.111111111111,4,2,1,70,0,0
29049,-125,4,2,1,60,0,0
33849,-111.111111111111,4,2,1,60,0,0
37449,-100,4,2,1,70,0,0
38349,-76.9230769230769,4,2,1,60,0,0
38649,-86.9565217391304,4,2,1,80,0,0
81849,-95.2380952380952,4,2,1,70,0,0
85899,-86.9565217391304,4,2,1,80,0,0

[Colours]
Combo1 : 225,132,132
Combo2 : 217,218,194
Combo3 : 154,159,182
Combo4 : 204,185,159

[HitObjects]
239,71,99,5,2,0:0:0:0:
239,71,174,1,2,0:0:0:0:
239,71,249,2,0,P|229:135|217:204,1,111.999996582031,2|2,0:0|0:0,0:0:0:0:
165,253,699,2,0,P|142:277|134:285,2,27.9999991455078,2|2|2,0:0|0:0|0:0,0:0:0:0:
240,278,999,1,2,0:0:0:0:
240,278,1149,1,2,0:0:0:0:
294,333,1299,5,2,0:0:0:0:
361,302,1449,2,0,P|401:265|412:245,1,55.9999982910157,2|2,0:0|0:0,0:0:0:0:
489,233,1749,1,2,0:0:0:0:
507,158,1899,2,0,P|490:106|447:62,1,111.999996582031,2|2,0:0|0:0,0:0:0:0:
365,65,2349,2,0,P|331:83|306:97,1,55.9999982910157,2|2,0:0|0:0,0:0:0:0:
312,108,2574,5,2,0:0:0:0:
312,108,2649,2,0,P|331:147|345:179,2,55.9999982910157,2|0|2,0:0|0:0|0:0,0:0:0:0:
243,73,3099,1,0,0:0:0:0:
181,125,3249,2,0,P|142:144|57:178,1,111.999996582031,2|2,0:0|0:0,0:0:0:0:
31,234,3699,2,0,P|20:263|11:309,1,55.9999982910157,2|0,0:0|0:0,0:0:0:0:
80,361,3999,5,2,0:0:0:0:
106,287,4149,1,2,0:0:0:0:
171,243,4299,1,2,0:0:0:0:
374,231,4899,5,0,3:2:0:0:
374,231,4974,2,0,P|390:239|407:247,1,35.9999989013672,0|4,3:2|3:2,0:0:0:0:
406,246,5349,2,0,P|444:179|393:99,1,160,0|0,1:2|3:2,0:0:0:0:
396,111,5724,1,0,3:0:0:0:
396,111,5799,1,2,0:2:0:0:
254,170,5949,1,0,1:2:0:0:
181,111,6099,2,0,P|137:88|86:72,1,80,2|0,0:2|3:2,0:0:0:0:
76,163,6399,5,2,0:2:0:0:
138,206,6549,1,0,1:2:0:0:
156,282,6699,1,2,0:2:0:0:
0,368,6849,5,0,3:2:0:0:
62,311,6999,1,2,3:2:0:0:
62,311,7074,1,0,3:2:0:0:
62,311,7149,1,0,1:2:0:0:
153,371,7299,1,2,0:2:0:0:
289,307,7449,5,0,3:2:0:0:
233,245,7599,1,2,0:2:0:0:
314,191,7749,1,0,1:2:0:0:
274,83,7899,2,0,P|267:43|269:-2,1,80,2|0,0:2|3:2,0:0:0:0:
446,147,8199,2,0,P|489:174|514:200,1,80,2|0,0:2|1:2,0:0:0:0:
428,345,8499,2,0,P|383:366|340:392,1,80,2|0,0:2|3:2,0:0:0:0:
151,314,8799,5,2,3:2:0:0:
151,314,8874,1,0,3:2:0:0:
151,314,8949,1,0,1:2:0:0:
328,265,9099,1,0,1:2:0:0:
184,185,9249,5,0,3:2:0:0:
12,107,9399,1,0,1:2:0:0:
128,64,9549,1,8,0:3:0:0:
50,18,9699,1,4,0:3:0:0:
92,2,9849,6,0,P|82:66|69:166,1,136.000002593994,4|8,3:2|0:0,0:0:0:0:
12,202,10299,2,0,P|18:247|24:291,1,68.0000012969971,0|8,0:0|0:0,0:0:0:0:
78,341,10599,1,0,0:0:0:0:
78,341,10749,1,8,0:0:0:0:
78,341,10899,2,0,L|132:328,1,34.0000006484985,4|0,0:3|0:0,0:0:0:0:
125,322,11049,2,0,P|172:329|271:349,1,136.000002593994,4|8,0:3|0:0,0:0:0:0:
332,309,11499,2,0,P|340:254|325:147,1,136.000002593994,4|0,0:3|0:0,0:0:0:0:
253,156,11949,2,0,P|258:65|271:9,1,136.000002593994,4|4,0:3|0:3,0:0:0:0:
267,21,12549,5,8,0:0:0:0:
201,67,12699,2,0,P|166:78|66:84,1,136.000002593994
64,162,13149,2,0,P|22:152|-14:125,1,68.0000012969971,8|4,0:0|0:3,0:0:0:0:
166,192,13449,1,4,0:3:0:0:
166,192,13599,2,0,P|172:250|166:342,1,136.000002593994,0|4,0:0|0:3,0:0:0:0:
94,367,14049,2,0,P|53:356|19:345,2,68.0000012969971,8|4|8,0:0|0:3|0:0,0:0:0:0:
261,325,14499,6,0,P|284:317|309:302,1,34.0000006484985
309,317,14649,2,0,P|346:275|357:180,1,136.000002593994,4|8,0:3|0:0,0:0:0:0:
418,136,15099,2,0,P|378:107|298:68,1,136.000002593994
224,94,15549,1,8,0:0:0:0:
122,44,15699,2,0,P|88:64|69:73,1,34.0000006484985,4|0,0:3|0:0,0:0:0:0:
84,79,15849,2,0,P|42:71|5:60,1,68.0000012969971,4|0,0:3|0:0,0:0:0:0:
33,148,16149,1,8,0:0:0:0:
33,148,16299,2,0,P|42:198|58:305,1,136.000002593994,4|0,0:3|0:2,0:0:0:0:
123,340,16749,2,0,L|110:383,2,34.0000006484985,4|0|0,0:3|0:0|0:0,0:0:0:0:
196,290,17049,6,0,P|237:260|400:232,1,204.000003890991,4|0,0:3|0:0,0:0:0:0:
460,191,17649,2,0,P|478:146|490:105,2,68.0000012969971,8|0|8,0:0|0:0|0:0,0:0:0:0:
397,132,18099,2,0,P|366:121|339:117,1,34.0000006484985,4|0,0:3|0:0,0:0:0:0:
349,108,18249,2,0,P|298:120|258:136,2,68.0000012969971,4|0|8,0:3|0:0|0:0,0:0:0:0:
257,42,18699,1,4,0:3:0:0:
257,42,18849,2,0,P|224:31|191:24,1,68.0000012969971,8|4,0:0|0:3,0:0:0:0:
124,89,19149,2,0,P|136:137|139:172,1,68.0000012969971,2|0,0:3|3:0,0:0:0:0:
130,169,19374,5,0,3:2:0:0:
130,169,19449,1,6,3:2:0:0:
63,198,19599,1,0,0:0:0:0:
149,280,19749,1,2,1:2:0:0:
234,327,19899,2,0,P|279:344|326:356,1,71.9999978027344,0|2,0:0|3:2,0:0:0:0:
396,285,20199,1,0,3:2:0:0:
361,209,20349,1,2,0:2:0:0:
440,152,20499,1,0,1:2:0:0:
373,80,20649,6,0,P|311:95|254:142,1,107.999996704102,2|0,0:0|0:0,0:0:0:0:
271,135,20949,1,2,1:2:0:0:
190,73,21099,2,0,P|139:51|116:48,1,71.9999978027344,0|2,0:0|1:2,0:0:0:0:
58,136,21399,1,0,3:2:0:0:
114,208,21549,1,2,0:2:0:0:
35,271,21699,2,0,P|18:315|12:364,1,71.9999978027344,0|2,1:2|3:2,0:0:0:0:
13,339,22149,6,0,B|107:325|54:311|180:295,2,143.999995605469,2|2|2,1:2|3:2|0:0,0:0:0:0:
204,237,22899,2,0,P|213:192|213:139,1,71.9999978027344,0|2,1:2|0:0,0:0:0:0:
48,70,23199,6,0,P|39:115|39:168,1,71.9999978027344,0|2,3:2|1:2,0:0:0:0:
66,222,23499,1,0,0:0:0:0:
180,75,23649,2,0,P|244:43|312:20,1,143.999995605469,2|2,1:2|0:0,0:0:0:0:
476,143,24099,5,0,1:2:0:0:
401,127,24249,2,0,P|374:158|365:212,1,71.9999978027344,2|0,3:2|0:0,0:0:0:0:
445,357,24549,1,2,1:2:0:0:
495,294,24699,2,0,P|465:270|414:265,1,71.9999978027344,0|2,0:0|3:2,0:0:0:0:
293,309,24999,2,0,P|257:340|149:329,1,143.999995605469,0|0,3:0|1:2,0:0:0:0:
79,312,25449,6,0,P|62:258|61:225,1,71.9999978027344,2|0,0:0|3:2,0:0:0:0:
132,103,25749,1,2,1:2:0:0:
209,73,25899,2,0,P|227:123|230:167,1,71.9999978027344,0|2,3:2|1:2,0:0:0:0:
3,155,26199,2,0,P|2:63|13:26,1,107.999996704102,0|0,3:2|0:0,0:0:0:0:
18,40,26499,1,0,1:2:0:0:
170,194,26649,6,0,P|240:180|303:146,1,143.999995605469,2|2,3:2|1:2,0:0:0:0:
303,146,27249,1,2,3:2:0:0:
366,206,27399,2,0,B|400:302|353:262|384:356,1,143.999995605469,0|0,3:2|1:2,0:0:0:0:
511,231,27849,5,2,0:0:0:0:
462,164,27999,1,0,3:2:0:0:
490,93,28149,2,0,P|494:46|486:5,1,71.9999978027344,2|0,1:2|0:0,0:0:0:0:
212,30,28449,5,0,1:2:0:0:
353,19,28599,1,0,1:2:0:0:
382,134,28749,1,8,0:3:0:0:
308,187,28899,1,4,0:3:0:0:
369,230,29049,6,0,P|372:289|367:374,1,128,4|8,3:2|0:3,0:0:0:0:
293,384,29499,2,0,P|253:376|144:346,1,128
85,363,29949,2,0,P|48:365|9:370,1,64,8|4,0:3|0:3,0:0:0:0:
34,283,30249,6,0,P|39:245|42:208,1,64,0|0,3:2|0:0,0:0:0:0:
25,143,30549,1,8,0:3:0:0:
194,77,30699,2,0,P|257:85|346:95,1,128,0|0,1:0|0:0,0:0:0:0:
512,215,31149,1,8,1:3:0:0:
438,243,31299,2,0,P|372:260|351:265,1,64,6|0,0:3|3:2,0:0:0:0:
376,259,31749,5,8,1:3:0:0:
302,231,31899,2,0,P|281:205|274:168,1,64,0|8,0:0|0:3,0:0:0:0:
376,31,32199,1,0,0:0:0:0:
440,75,32349,2,0,P|455:115|453:143,2,64,8|4|0,0:3|0:3|3:2,0:0:0:0:
285,35,32799,6,0,P|253:51|215:68,1,64,8|4,0:3|0:3,0:0:0:0:
56,164,33099,1,0,1:2:0:0:
131,179,33249,1,8,0:3:0:0:
90,244,33399,1,4,0:3:0:0:
22,193,33549,6,0,L|10:242,1,32,0|0,1:2|0:0,0:0:0:0:
192,234,33699,2,0,L|204:283,1,32,0|0,1:2|1:2,0:0:0:0:
86,370,33849,6,0,B|70:328|91:295|94:299|97:304|127:253|91:209,1,143.999995605469,4|8,3:2|1:3,0:0:0:0:
143,149,34299,2,0,P|162:104|166:-3,1,143.999995605469
253,43,34749,2,0,P|298:66|331:85,1,71.9999978027344,8|4,0:3|0:3,0:0:0:0:
373,145,35049,6,0,P|418:116|442:107,1,71.9999978027344,0|0,3:2|0:0,0:0:0:0:
463,262,35349,1,8,0:3:0:0:
425,333,35499,2,0,P|326:346|278:342,1,143.999995605469,0|0,1:2|0:0,0:0:0:0:
143,306,35949,5,8,1:3:0:0:
207,221,36099,2,0,P|207:185|203:149,1,71.9999978027344,6|0,0:3|3:2,0:0:0:0:
203,149,36549,6,0,P|126:126|116:40,1,143.999995605469,0|8,1:2|0:3,0:0:0:0:
176,9,36999,1,4,0:3:0:0:
291,58,37149,2,0,P|326:71|381:89,1,71.9999978027344,8|4,0:3|3:3,0:0:0:0:
358,82,37374,5,0,3:2:0:0:
358,82,37449,1,4,1:2:0:0:
400,174,37599,1,0,3:2:0:0:
341,278,37749,1,0,3:2:0:0:
481,258,37899,5,4,1:2:0:0:
269,162,38049,1,0,3:2:0:0:
489,274,38199,1,0,3:2:0:0:
322,359,38349,6,0,B|290:312|346:261|348:268|351:273|412:231|380:171,1,207.999990478516,8|4,0:1|3:1,0:0:0:0:
383,178,38949,6,0,P|348:153|350:78,1,92.0000017547608,0|2,1:2|0:2,0:0:0:0:
403,29,39249,1,0,3:2:0:0:
216,119,39399,1,2,3:2:0:0:
216,119,39474,1,0,3:2:0:0:
216,119,39549,1,0,1:2:0:0:
279,54,39699,5,2,0:2:0:0:
216,0,39849,1,0,3:2:0:0:
142,28,39999,1,2,0:2:0:0:
285,217,40149,5,0,1:2:0:0:
199,308,40299,2,0,P|194:278|193:188,1,92.0000017547608,2|0,0:2|3:2,0:0:0:0:
231,127,40599,1,2,0:2:0:0:
49,82,40749,2,0,P|44:112|43:202,1,92.0000017547608,0|0,1:2|1:2,0:0:0:0:
141,133,41049,6,0,P|190:108|268:17,1,138.000002632141,2|0,3:1|0:2,0:0:0:0:
250,35,41349,1,0,1:2:0:0:
389,209,41499,2,0,P|336:177|277:163,1,92.0000017547608,2|0,0:1|3:2,0:0:0:0:
375,95,41799,1,2,0:2:0:0:
485,242,41949,2,0,P|491:310|490:377,1,92.0000017547608,2|2,1:1|0:2,0:0:0:0:
379,322,42249,5,0,3:2:0:0:
308,374,42399,2,0,P|266:353|226:332,1,92.0000017547608,2|0,0:1|1:2,0:0:0:0:
82,363,42699,1,2,3:2:0:0:
82,363,42774,1,0,3:2:0:0:
82,363,42849,1,2,3:1:0:0:
131,302,42999,1,2,0:2:0:0:
0,204,43149,5,0,1:2:0:0:
176,232,43299,1,0,1:2:0:0:
310,35,43449,1,4,3:2:0:0:
369,95,43599,5,2,0:0:0:0:
245,178,43749,1,0,1:2:0:0:
212,98,43899,1,2,0:2:0:0:
398,183,44049,1,0,3:2:0:0:
335,239,44199,2,0,P|279:271|241:299,1,92.0000017547608,2|0,0:2|1:2,0:0:0:0:
477,374,44499,6,0,P|502:278|511:154,1,184.000003509522,2|2,0:2|0:2,0:0:0:0:
331,119,44949,1,0,1:2:0:0:
394,197,45099,2,0,P|409:240|416:285,2,92.0000017547608,2|0|2,0:2|3:2|0:2,0:0:0:0:
382,11,45549,6,0,P|330:99|227:104,1,184.000003509522,0|2,1:2|3:1,0:0:0:0:
256,113,46149,1,0,1:2:0:0:
349,239,46299,1,2,0:1:0:0:
410,184,46449,1,0,3:2:0:0:
260,197,46599,1,2,0:2:0:0:
355,361,46749,1,2,1:1:0:0:
270,384,46899,2,0,P|270:319|274:264,1,92.0000017547608,2|0,0:2|3:2,0:0:0:0:
370,91,47199,5,2,0:1:0:0:
248,125,47349,2,0,P|162:158|50:188,1,184.000003509522,0|2,1:2|3:1,0:0:0:0:
7,322,47799,5,0,1:2:0:0:
138,252,47949,1,0,1:2:0:0:
270,384,48099,1,0,1:2:0:0:
253,378,48174,1,0,1:0:0:0:
243,366,48249,2,0,P|237:326|276:279,1,92.0000017547608,4|2,3:2|0:2,0:0:0:0:
384,150,48549,2,0,P|378:190|417:237,1,92.0000017547608,0|2,1:2|0:2,0:0:0:0:
221,151,48849,2,0,P|156:127|62:96,1,138.000002632141,0|0,3:2|0:0,0:0:0:0:
85,111,49149,2,0,P|108:176|117:215,1,92.0000017547608,0|2,1:2|0:0,0:0:0:0:
366,31,49449,5,0,3:2:0:0:
287,7,49599,1,2,0:2:0:0:
271,89,49749,2,0,P|251:160|233:259,1,138.000002632141,0|0,1:2|0:0,0:0:0:0:
244,230,50049,2,0,P|290:215|365:199,1,92.0000017547608,0|2,3:2|0:2,0:0:0:0:
446,380,50349,2,0,P|395:347|289:316,1,138.000002632141,0|0,1:2|0:0,0:0:0:0:
310,328,50649,6,0,P|268:355|207:367,1,92.0000017547608,0|2,3:2|0:2,0:0:0:0:
221,219,50949,1,0,1:2:0:0:
137,234,51099,1,2,0:2:0:0:
109,308,51249,2,0,P|64:294|24:272,1,92.0000017547608,0|2,3:2|0:2,0:0:0:0:
6,173,51549,5,0,1:2:0:0:
81,141,51699,1,2,0:0:0:0:
111,64,51849,1,0,3:2:0:0:
59,2,51999,1,2,0:0:0:0:
210,57,52149,5,0,1:2:0:0:
282,96,52299,2,0,P|309:89|371:48,2,92.0000017547608,2|2|2,0:2|3:1|0:2,0:0:0:0:
219,250,52749,2,0,P|208:311|204:355,1,92.0000017547608,0|0,3:2|1:2,0:0:0:0:
217,355,52974,5,2,1:2:0:0:
217,355,53049,2,0,P|288:347|365:242,1,184.000003509522,4|0,3:2|1:2,0:0:0:0:
201,129,53499,1,2,0:2:0:0:
114,134,53649,2,0,P|42:188|25:277,1,184.000003509522,0|0,3:2|1:2,0:0:0:0:
101,348,54099,5,2,0:2:0:0:
150,206,54249,1,0,3:2:0:0:
176,278,54399,1,2,0:0:0:0:
28,166,54549,2,0,P|17:86|17:45,1,92.0000017547608,0|2,1:2|0:2,0:0:0:0:
263,143,54849,2,0,P|316:164|374:194,1,92.0000017547608,0|2,3:2|0:2,0:0:0:0:
268,252,55149,5,0,1:0:0:0:
330,63,55299,1,0,1:2:0:0:
330,63,55374,1,0,1:2:0:0:
330,63,55449,2,0,P|272:96|120:144,1,184.000003509522,4|0,3:2|1:2,0:0:0:0:
15,340,55899,5,2,0:2:0:0:
95,295,56049,2,0,P|85:246|48:188,1,92.0000017547608,0|2,3:2|0:2,0:0:0:0:
0,67,56349,1,0,1:2:0:0:
68,109,56499,1,2,0:0:0:0:
181,261,56649,5,0,3:2:0:0:
401,179,56799,1,0,1:2:0:0:
278,168,56949,5,0,1:2:0:0:
165,102,57099,1,0,1:2:0:0:
243,56,57249,5,0,1:1:0:0:
282,29,57399,1,0,1:2:0:0:
264,13,57549,5,0,1:2:0:0:
261,301,57699,2,0,P|273:263|285:230,1,46.0000008773804,0|0,1:2|1:2,0:0:0:0:
288,250,57849,6,0,P|223:276|168:160,1,184.000003509522,4|0,3:1|1:2,0:0:0:0:
155,200,58449,1,0,3:2:0:0:
235,86,58599,1,2,0:2:0:0:
263,165,58749,1,0,1:2:0:0:
303,26,58899,5,2,3:2:0:0:
303,26,58974,1,0,3:2:0:0:
303,26,59049,1,0,3:2:0:0:
209,11,59199,1,2,0:2:0:0:
146,124,59349,1,0,1:2:0:0:
280,167,59499,2,0,P|313:148|374:130,2,92.0000017547608,2|0|2,0:2|3:2|0:2,0:0:0:0:
431,359,59949,6,0,P|440:320|372:262,1,138.000002632141,0|0,1:2|1:2,0:0:0:0:
364,268,60249,2,0,P|352:324|340:377,1,92.0000017547608,2|2,3:1|0:0,0:0:0:0:
238,342,60549,1,0,1:2:0:0:
153,324,60699,2,0,P|91:339|50:355,1,92.0000017547608,2|0,0:1|3:2,0:0:0:0:
58,214,60999,1,2,0:2:0:0:
141,184,61149,2,0,P|186:203|254:240,1,92.0000017547608,2|2,1:1|0:2,0:0:0:0:
401,142,61449,5,0,3:2:0:0:
322,110,61599,2,0,P|230:86|107:53,1,184.000003509522,2|2,0:1|0:2,0:0:0:0:
89,0,62049,2,0,P|35:24|-7:38,1,92.0000017547608,2|2,3:1|0:2,0:0:0:0:
167,156,62349,5,0,1:2:0:0:
13,256,62499,2,0,P|55:274|72:284,1,46.0000008773804,0|0,1:2|1:2,0:0:0:0:
66,286,62649,6,0,B|117:288|167:263|159:261|149:260|196:227|266:230,1,184.000003509522,4|0,3:2|1:2,0:0:0:0:
323,299,63099,1,2,0:2:0:0:
398,202,63249,1,0,3:2:0:0:
458,271,63399,2,0,P|490:288|542:317,1,92.0000017547608,2|0,0:2|1:2,0:0:0:0:
426,50,63699,5,2,1:2:0:0:
320,201,63849,1,0,3:2:0:0:
144,145,63999,1,2,3:2:0:0:
308,312,64149,5,0,1:2:0:0:
218,361,64299,2,0,P|202:298|202:251,2,92.0000017547608,2|0|2,0:2|3:2|0:2,0:0:0:0:
294,110,64749,2,0,P|304:46|303:-8,1,92.0000017547608,0|0,1:2|1:2,0:0:0:0:
286,31,64974,5,0,1:2:0:0:
286,31,65049,2,0,P|238:49|172:69,1,92.0000017547608,2|2,3:1|0:0,0:0:0:0:
168,200,65349,1,0,1:2:0:0:
87,142,65499,2,0,P|25:120|-21:108,1,92.0000017547608,2|0,0:1|3:2,0:0:0:0:
44,378,65799,5,2,0:2:0:0:
101,323,65949,1,2,1:1:0:0:
182,328,66099,1,2,0:2:0:0:
34,227,66249,5,0,1:2:0:0:
164,349,66399,1,8,0:3:0:0:
333,345,66549,1,4,0:3:0:0:
0,315,66699,6,0,P|59:302|162:240,1,184.000003509522,0|0,1:2|1:2,0:0:0:0:
291,116,67149,1,0,1:2:0:0:
262,129,67224,1,0,1:2:0:0:
243,155,67299,1,0,1:2:0:0:
239,187,67374,1,0,1:0:0:0:
253,220,67449,1,4,3:2:0:0:
253,220,67749,6,0,P|300:235|348:256,1,92.0000017547608,0|2,1:2|0:2,0:0:0:0:
497,146,68049,2,0,P|494:95|473:36,1,92.0000017547608,0|2,3:2|0:2,0:0:0:0:
253,116,68349,5,0,1:2:0:0:
269,150,68499,1,2,0:0:0:0:
378,81,68649,5,0,3:2:0:0:
402,1,68799,1,2,0:2:0:0:
348,220,68949,6,0,P|370:287|380:346,1,92.0000017547608,0|2,1:2|0:2,0:0:0:0:
268,272,69249,2,0,P|216:303|129:322,1,138.000002632141,0|0,3:2|0:0,0:0:0:0:
131,332,69549,2,0,P|106:270|101:225,1,92.0000017547608,0|2,1:2|0:2,0:0:0:0:
235,34,69849,5,0,3:2:0:0:
235,34,70149,2,0,P|203:79|121:28,1,138.000002632141,4|0,1:2|0:0,0:0:0:0:
127,44,70449,1,0,3:2:0:0:
23,244,70599,2,0,P|3:213|-1:187,1,46.0000008773804,0|0,1:2|1:0,0:0:0:0:
7,189,70749,6,0,B|128:226|38:236|185:277,2,184.000003509522,4|0|0,1:2|3:2|1:2,0:0:0:0:
19,109,71499,1,2,0:2:0:0:
2,29,71649,1,2,3:1:0:0:
166,82,71799,5,0,1:2:0:0:
263,122,71949,1,8,0:3:0:0:
279,221,72099,1,0,1:2:0:0:
96,283,72249,5,4,3:2:0:0:
96,283,72549,2,0,P|143:266|181:242,1,92.0000017547608,0|2,1:2|0:2,0:0:0:0:
347,65,72849,2,0,P|408:73|494:180,1,184.000003509522,0|0,3:2|1:2,0:0:0:0:
483,169,73224,1,0,3:2:0:0:
483,169,73299,1,2,3:2:0:0:
308,384,73449,5,0,3:2:0:0:
284,312,73599,1,2,0:0:0:0:
326,244,73749,2,0,P|334:188|332:140,1,92.0000017547608,0|2,1:2|0:2,0:0:0:0:
105,139,74049,2,0,P|151:177|188:201,1,92.0000017547608,0|2,3:2|0:2,0:0:0:0:
383,0,74349,2,0,P|312:9|183:59,1,184.000003509522,0|4,1:0|3:2,0:0:0:0:
206,46,74949,6,0,P|247:84|231:133,1,92.0000017547608,0|2,1:2|0:2,0:0:0:0:
171,220,75249,1,0,3:2:0:0:
101,256,75399,1,2,0:2:0:0:
14,196,75549,5,0,1:2:0:0:
245,322,75699,1,0,1:2:0:0:
136,364,75849,5,0,3:2:0:0:
86,273,75999,1,0,1:2:0:0:
262,203,76149,1,0,1:2:0:0:
308,35,76299,1,0,1:2:0:0:
160,126,76449,5,0,1:1:0:0:
118,126,76524,1,0,1:2:0:0:
73,100,76599,1,0,1:2:0:0:
29,98,76674,1,0,1:0:0:0:
5,74,76749,1,0,1:2:0:0:
5,74,76824,1,0,1:0:0:0:
5,74,76899,2,0,L|35:12,1,46.0000008773804,0|0,1:2|1:2,0:0:0:0:
15,24,77049,6,0,P|20:95|126:101,1,184.000003509522,4|0,3:1|1:0,0:0:0:0:
116,109,77649,1,0,3:2:0:0:
205,89,77799,1,2,0:0:0:0:
226,233,77949,1,0,1:2:0:0:
299,263,78099,1,2,0:0:0:0:
388,160,78249,5,0,3:2:0:0:
301,171,78399,1,2,0:0:0:0:
224,224,78549,1,0,1:2:0:0:
144,276,78699,1,2,0:0:0:0:
52,284,78849,2,0,P|38:226|31:173,1,92.0000017547608,0|2,3:2|0:0,0:0:0:0:
257,6,79149,2,0,P|246:64|240:113,1,92.0000017547608,0|2,1:2|3:2,0:0:0:0:
254,112,79374,5,0,3:2:0:0:
254,112,79449,2,0,P|300:95|341:83,1,92.0000017547608,0|2,3:0|0:0,0:0:0:0:
464,236,79749,2,0,P|451:303|437:371,1,138.000002632141,0|0,1:0|0:0,0:0:0:0:
425,378,80049,5,0,3:0:0:0:
283,324,80199,2,0,P|316:308|337:293,1,46.0000008773804,2|0,3:2|3:0,0:0:0:0:
372,226,80349,5,0,1:2:0:0:
275,187,80499,1,0,1:2:0:0:
187,345,80649,1,0,1:2:0:0:
284,384,80799,1,0,1:2:0:0:
308,281,80949,5,8,0:3:0:0:
291,304,81099,1,4,0:3:0:0:
196,237,81249,5,0,3:2:0:0:
159,134,81399,1,0,1:2:0:0:
49,223,81549,5,8,0:3:0:0:
11,384,81699,2,0,P|1:341|-6:303,1,46.0000008773804,0|0,1:2|1:2,0:0:0:0:
25,58,81849,5,4,3:2:0:0:
25,58,82149,1,0,3:2:0:0:
104,34,82299,1,2,0:0:0:0:
184,48,82449,2,0,P|237:78|281:100,1,83.9999974365235,0|2,3:2|0:0,0:0:0:0:
417,154,82749,1,0,3:2:0:0:
344,190,82899,2,0,P|295:211|246:240,1,83.9999974365235,2|0,0:0|3:2,0:0:0:0:
3,345,83199,6,0,P|19:288|23:245,2,83.9999974365235,2|0|2,0:0|3:2|0:0,0:0:0:0:
216,340,83649,1,0,3:2:0:0:
161,268,83799,2,0,P|145:211|141:168,1,83.9999974365235,2|0,0:0|3:2,0:0:0:0:
318,62,84099,5,2,3:2:0:0:
318,62,84174,1,0,3:2:0:0:
318,62,84249,1,0,3:2:0:0:
252,115,84399,1,2,0:0:0:0:
421,181,84549,1,0,3:2:0:0:
406,97,84699,1,2,0:0:0:0:
262,203,84849,1,0,3:2:0:0:
342,232,84999,1,2,0:0:0:0:
334,134,85149,5,0,3:2:0:0:
257,161,85299,2,0,P|218:180|164:203,1,83.9999974365235,2|0,0:0|3:2,0:0:0:0:
53,89,85599,5,0,1:2:0:0:
176,346,85749,1,0,1:2:0:0:
445,265,85899,1,2,3:3:0:0:
