osu file format v14

[General]
AudioFilename: audio.mp3
AudioLeadIn: 0
PreviewTime: 38274
Countdown: 0
SampleSet: Soft
StackLeniency: 0.7
Mode: 0
LetterboxInBreaks: 0
WidescreenStoryboard: 1

[Editor]
DistanceSpacing: 1
BeatDivisor: 4
GridSize: 32
TimelineZoom: 2

[Metadata]
Title:Gekkou (TV Size)
TitleUnicode:月虹 (TV Size)
Artist:BUMP OF CHICKEN
ArtistUnicode:BUMP OF CHICKEN
Creator:Wanpachi
Version:Normal
Source:からくりサーカス
Tags:alevi chaoticred cycopton yudragen japanese anime rock j-rock jrock j-pop jpop pop Le Cirque De Karakuri Circus
BeatmapID:2950194
BeatmapSetID:1432620

[Difficulty]
HPDrainRate:4
CircleSize:3
OverallDifficulty:4.5
ApproachRate:5
SliderMultiplier:0.899999999999999
SliderTickRate:1

[Events]
//Background and Video events
0,0,"he looks cool.jpg",0,0
//Break Periods
//Storyboard Layer 0 (Background)
//Storyboard Layer 1 (Fail)
//Storyboard Layer 2 (Pass)
//Storyboard Layer 3 (Foreground)
//Storyboard Layer 4 (Overlay)
//Storyboard Sound Samples

[TimingPoints]
249,300,4,2,0,50,1,0
249,-111.111111111111,4,2,0,50,0,0
5049,-100,4,2,1,70,0,0
9849,-105.263157894737,4,2,2,60,0,0
19149,-105.263157894737,4,2,1,60,0,0
19449,-100,4,2,1,70,0,0
29049,-111.111111111111,4,2,1,60,0,0
37449,-111.111111111111,4,2,1,70,0,0
38349,-111.111111111111,4,2,1,60,0,0
38649,-95.2380952380952,4,2,1,80,0,1
38949,-95.2380952380952,4,2,1,80,0,0
57849,-95.2380952380952,4,2,1,80,0,1
58149,-95.2380952380952,4,2,1,80,0,0
77049,-95.2380952380952,4,2,1,80,0,1
77349,-95.2380952380952,4,2,1,80,0,0
81849,-100,4,2,1,70,0,0
85899,-100,4,2,1,80,0,0

[Colours]
Combo1 : 225,132,132
Combo2 : 217,218,194
Combo3 : 154,159,182
Combo4 : 204,185,159

[HitObjects]
256,192,99,12,2,4299,0:0:0:0:
451,50,5049,6,0,P|443:104|441:160,1,89.9999999999999,4|0,3:2|1:2,0:0:0:0:
375,201,5649,1,0,3:2:0:0:
375,201,5799,2,0,L|386:268,1,45,2|0,0:2|1:2,0:0:0:0:
402,285,6099,2,0,B|359:274|359:274|297:294,1,89.9999999999999,2|2,0:2|0:2,0:0:0:0:
274,306,6549,1,0,1:2:0:0:
211,371,6849,2,0,L|161:367,1,45,0|2,3:2|0:2,0:0:0:0:
120,364,7149,1,0,1:2:0:0:
58,299,7449,6,0,L|8:303,2,45,0|2|0,3:2|0:2|1:2,0:0:0:0:
87,264,7899,2,0,P|89:206|68:169,1,89.9999999999999,2|2,0:2|0:2,0:0:0:0:
38,151,8349,1,0,1:2:0:0:
38,151,8499,2,0,P|42:84|42:36,1,89.9999999999999,2|2,0:2|0:2,0:0:0:0:
77,33,8949,1,0,1:2:0:0:
159,67,9249,2,0,L|164:119,1,45,0|0,3:2|1:2,0:0:0:0:
188,148,9549,1,8,0:3:0:0:
123,204,9849,6,0,B|111:244|111:244|128:291,1,85.4999977169037,4|8,3:2|0:0,0:0:0:0:
153,319,10299,2,0,P|195:315|238:316,1,85.4999977169037
280,325,10749,1,8,0:0:0:0:
360,295,11049,2,0,L|373:203,1,85.4999977169037,4|8,0:3|0:0,0:0:0:0:
397,176,11499,1,4,0:3:0:0:
369,96,11799,2,0,P|328:70|282:69,1,85.4999977169037
253,50,12249,6,0,B|214:71|214:71|153:58,1,85.4999977169037,4|8,0:3|0:0,0:0:0:0:
135,47,12699,2,0,P|85:60|35:66,1,85.4999977169037
18,90,13149,1,8,0:0:0:0:
56,172,13449,1,4,0:3:0:0:
56,172,13599,2,0,B|42:213|42:213|63:276,1,85.4999977169037,0|4,0:0|0:3,0:0:0:0:
93,272,14049,2,0,L|189:278,1,85.4999977169037,8|8,0:0|0:0,0:0:0:0:
245,225,14649,6,0,P|241:178|243:131,1,85.4999977169037,4|8,0:3|0:0,0:0:0:0:
227,100,15099,2,0,P|298:91|342:30,1,128.249996575355,0|8,0:0|0:0,0:0:0:0:
417,35,15849,2,0,L|426:144,1,85.4999977169037,4|8,0:3|0:0,0:0:0:0:
415,161,16299,1,4,0:3:0:0:
486,205,16599,2,0,B|475:249|475:249|491:294,1,85.4999977169037,0|0,0:2|0:0,0:0:0:0:
511,322,17049,6,0,P|460:327|422:337,1,85.4999977169037,4|8,0:3|0:0,0:0:0:0:
347,306,17649,2,0,P|305:297|263:292,1,85.4999977169037,8|8,0:0|0:0,0:0:0:0:
200,347,18249,2,0,L|101:336,1,85.4999977169037,4|8,0:3|0:0,0:0:0:0:
88,312,18699,1,4,0:3:0:0:
88,312,18849,2,0,B|76:267|76:267|93:219,1,85.4999977169037,8|2,0:0|0:3,0:0:0:0:
165,180,19449,6,0,L|162:135,2,45,6|0|2,3:2|0:0|1:2,0:0:0:0:
204,201,19899,2,0,P|203:260|211:307,1,89.9999999999999,0|0,0:0|3:2,0:0:0:0:
233,327,20349,1,2,0:2:0:0:
321,312,20649,2,0,B|365:299|365:299|430:317,1,89.9999999999999,2|2,0:0|1:2,0:0:0:0:
442,282,21099,1,0,0:0:0:0:
404,200,21399,1,0,3:2:0:0:
463,132,21699,6,0,L|453:35,1,89.9999999999999,0|0,1:2|0:0,0:0:0:0:
417,15,22149,1,2,1:2:0:0:
335,53,22449,2,0,P|289:58|237:50,1,89.9999999999999,2|2,3:2|0:0,0:0:0:0:
205,31,22899,1,0,1:2:0:0:
141,94,23199,1,0,3:2:0:0:
64,57,23499,1,0,0:0:0:0:
64,57,23649,2,0,B|48:96|48:96|61:147,1,89.9999999999999,2|2,1:2|0:0,0:0:0:0:
117,211,24249,6,0,P|102:263|100:315,1,89.9999999999999,2|2,3:2|1:2,0:0:0:0:
123,336,24699,2,0,L|225:345,1,89.9999999999999,0|0,0:0|3:0,0:0:0:0:
287,292,25299,1,0,1:2:0:0:
287,292,25449,2,0,B|270:253|270:253|280:206,1,89.9999999999999,2|2,0:0|1:2,0:0:0:0:
307,171,25899,1,0,3:2:0:0:
273,87,26199,1,0,3:2:0:0:
334,22,26499,1,0,1:2:0:0:
334,22,26649,6,0,P|390:40|436:45,1,89.9999999999999,2|2,3:2|1:2,0:0:0:0:
476,115,27249,2,0,P|461:157|453:201,1,89.9999999999999,2|2,3:2|0:0,0:0:0:0:
383,257,27849,2,0,P|340:242|296:234,1,89.9999999999999,2|2,0:0|1:2,0:0:0:0:
241,164,28449,2,0,P|255:121|263:77,1,89.9999999999999,0|8,1:2|0:3,0:0:0:0:
235,41,28899,1,4,0:3:0:0:
235,41,29049,6,0,L|145:32,1,80.9999975280762,4|8,3:2|0:3,0:0:0:0:
113,29,29499,2,0,B|87:86|87:86|102:143,1,121.499996292114,0|8,0:0|0:3,0:0:0:0:
51,206,30249,2,0,P|42:260|35:303,1,80.9999975280762,0|8,3:2|0:3,0:0:0:0:
15,320,30699,2,0,P|96:325|133:371,1,121.499996292114,0|8,1:0|1:3,0:0:0:0:
199,374,31449,6,0,L|213:279,1,80.9999975280762,0|8,3:2|1:3,0:0:0:0:
241,267,31899,2,0,B|277:278|277:278|316:261,1,80.9999975280762
356,269,32349,1,8,0:3:0:0:
390,195,32649,2,0,B|438:199|438:199|455:217|455:217|503:222,2,121.499996292114,0|0|0,3:2|1:2|1:2,0:0:0:0:
337,132,33849,6,0,L|235:123,1,80.9999975280762,4|8,3:2|1:3,0:0:0:0:
224,149,34299,2,0,P|235:212|237:289,1,121.499996292114,0|8,0:0|0:3,0:0:0:0:
184,330,35049,2,0,B|144:316|144:316|89:328,1,80.9999975280762,0|8,3:2|0:3,0:0:0:0:
70,343,35499,2,0,L|48:199,1,121.499996292114,0|8,1:2|1:3,0:0:0:0:
21,204,36099,1,6,0:3:0:0:
21,204,36249,6,0,L|34:117,1,80.9999975280762,0|0,3:2|1:2,0:0:0:0:
83,60,36849,1,8,0:3:0:0:
153,99,37149,1,8,0:3:0:0:
207,38,37449,2,0,P|250:27|306:26,1,80.9999975280762,4|0,1:2|3:2,0:0:0:0:
315,53,37899,2,0,P|358:64|414:65,1,80.9999975280762,4|0,1:2|3:2,0:0:0:0:
423,37,38349,1,8,0:1:0:0:
467,120,38649,6,0,B|480:169|480:169|455:225,1,94.4999971160888,4|0,3:1|1:2,0:0:0:0:
374,243,39249,1,0,3:2:0:0:
374,243,39399,2,0,L|309:229,1,47.2499985580444,2|0,0:2|1:2,0:0:0:0:
289,205,39699,2,0,P|303:146|306:97,1,94.4999971160888,2|2,0:2|0:2,0:0:0:0:
275,84,40149,1,0,1:2:0:0:
275,84,40299,2,0,P|221:74|188:31,1,94.4999971160888,2|2,0:2|0:2,0:0:0:0:
163,10,40749,1,0,1:2:0:0:
77,51,41049,6,0,L|73:154,1,94.4999971160888,2|0,3:1|1:2,0:0:0:0:
50,186,41499,2,0,P|45:238|51:290,1,94.4999971160888,2|2,0:1|0:2,0:0:0:0:
82,313,41949,1,2,1:1:0:0:
170,273,42249,1,0,3:2:0:0:
170,273,42399,2,0,B|215:257|215:257|256:283,1,94.4999971160888,2|2,0:1|0:2,0:0:0:0:
293,309,42849,1,2,3:1:0:0:
380,274,43149,2,0,L|389:217,1,47.2499985580444,0|0,1:2|1:2,0:0:0:0:
424,197,43449,6,0,P|392:150|399:97,1,94.4999971160888,4|0,3:2|1:2,0:0:0:0:
328,52,44049,1,0,3:2:0:0:
328,52,44199,2,0,L|261:69,1,47.2499985580444,2|0,0:2|1:2,0:0:0:0:
246,94,44499,2,0,B|258:141|258:141|244:203,1,94.4999971160888,2|2,0:2|0:2,0:0:0:0:
276,228,44949,1,0,1:2:0:0:
276,228,45099,2,0,P|284:298|288:345,1,94.4999971160888,2|2,0:2|0:2,0:0:0:0:
251,354,45549,1,0,1:2:0:0:
170,305,45849,6,0,P|117:309|87:343,1,94.4999971160888,2|0,3:1|1:2,0:0:0:0:
44,351,46299,2,0,P|36:288|26:235,1,94.4999971160888,2|2,0:1|0:2,0:0:0:0:
67,226,46749,1,2,1:1:0:0:
67,226,46899,1,2,0:2:0:0:
34,138,47199,1,2,0:1:0:0:
34,138,47349,2,0,B|22:92|22:92|43:39,1,94.4999971160888,0|2,1:2|3:1,0:0:0:0:
127,13,47949,2,0,L|189:28,1,47.2499985580444,0|0,1:2|1:2,0:0:0:0:
211,51,48249,5,4,3:2:0:0:
165,133,48549,1,0,1:2:0:0:
222,207,48849,1,0,3:2:0:0:
174,288,49149,1,0,1:2:0:0:
242,353,49449,2,0,P|297:343|350:342,1,94.4999971160888,0|0,3:2|1:2,0:0:0:0:
427,364,50049,1,0,3:2:0:0:
481,286,50349,1,0,1:2:0:0:
409,225,50649,5,0,3:2:0:0:
479,163,50949,1,0,1:2:0:0:
476,69,51249,1,0,3:2:0:0:
396,16,51549,2,0,P|346:30|289:37,1,94.4999971160888,0|0,1:2|3:2,0:0:0:0:
270,71,51999,1,2,0:0:0:0:
270,71,52149,2,0,B|228:49|228:49|161:68,1,94.4999971160888,0|2,1:2|3:1,0:0:0:0:
117,130,52749,1,0,3:0:0:0:
28,96,53049,6,0,P|21:142|8:187,1,94.4999971160888,4|0,3:2|1:2,0:0:0:0:
43,227,53499,1,2,0:2:0:0:
43,227,53649,2,0,L|57:338,1,94.4999971160888,0|0,3:2|1:2,0:0:0:0:
98,351,54099,1,2,0:2:0:0:
98,351,54249,2,0,P|135:326|192:318,1,94.4999971160888,0|0,3:2|1:2,0:0:0:0:
251,251,54849,1,0,3:2:0:0:
207,168,55149,1,0,1:0:0:0:
260,89,55449,6,0,B|303:68|303:68|379:84,1,94.4999971160888,4|0,3:2|1:2,0:0:0:0:
425,21,56049,1,0,3:2:0:0:
473,108,56349,1,0,1:2:0:0:
473,108,56499,2,0,L|462:208,1,94.4999971160888,2|0,0:0|1:2,0:0:0:0:
437,243,56949,2,0,L|441:292,1,47.2499985580444,0|0,1:2|1:2,0:0:0:0:
470,327,57249,1,0,1:1:0:0:
383,365,57549,2,0,L|312:353,1,47.2499985580444,0|0,1:2|1:2,0:0:0:0:
293,336,57849,6,0,B|277:289|277:289|285:244,1,94.4999971160888,4|0,3:1|1:2,0:0:0:0:
333,163,58449,1,0,3:2:0:0:
333,163,58599,2,0,L|321:107,1,47.2499985580444,2|0,0:2|1:2,0:0:0:0:
315,70,58899,2,0,P|265:71|207:50,1,94.4999971160888,2|2,0:2|0:2,0:0:0:0:
178,74,59349,1,0,1:2:0:0:
178,74,59499,2,0,L|73:96,1,94.4999971160888,2|2,0:2|0:2,0:0:0:0:
53,128,59949,1,0,1:2:0:0:
108,203,60249,6,0,B|92:249|92:249|110:316,1,94.4999971160888,2|0,3:1|1:2,0:0:0:0:
137,328,60699,2,0,P|189:315|253:309,1,94.4999971160888,2|2,0:1|0:2,0:0:0:0:
271,331,61149,1,2,1:1:0:0:
351,280,61449,1,0,3:2:0:0:
351,280,61599,2,0,P|398:304|449:297,1,94.4999971160888,2|2,0:1|0:2,0:0:0:0:
475,272,62049,1,2,3:1:0:0:
446,181,62349,2,0,L|457:128,1,47.2499985580444,0|0,1:2|1:2,0:0:0:0:
422,101,62649,6,0,B|377:84|377:84|317:96,1,94.4999971160888,4|0,3:2|1:2,0:0:0:0:
297,127,63099,1,2,0:2:0:0:
297,127,63249,2,0,L|306:172,1,47.2499985580444,0|2,3:2|0:2,0:0:0:0:
371,243,63699,2,0,P|358:295|350:343,1,94.4999971160888,2|2,0:2|0:2,0:0:0:0:
308,354,64149,1,0,1:2:0:0:
308,354,64299,2,0,P|268:319|218:315,1,94.4999971160888,2|2,0:2|0:2,0:0:0:0:
182,326,64749,1,0,1:2:0:0:
98,370,65049,6,0,L|81:257,1,94.4999971160888,2|0,3:1|1:2,0:0:0:0:
51,243,65499,2,0,P|65:194|60:140,1,94.4999971160888,2|2,0:1|0:2,0:0:0:0:
31,115,65949,1,2,1:1:0:0:
101,51,66249,2,0,L|158:59,1,47.2499985580444,0|8,1:2|0:3,0:0:0:0:
191,75,66549,2,0,B|233:56|233:56|296:75,1,94.4999971160888,4|2,0:3|3:1,0:0:0:0:
296,163,67149,2,0,L|287:220,1,47.2499985580444,0|0,1:2|1:2,0:0:0:0:
317,247,67449,5,4,3:2:0:0:
308,341,67749,1,0,1:2:0:0:
397,369,68049,1,0,3:2:0:0:
455,295,68349,1,0,1:2:0:0:
408,213,68649,2,0,P|402:158|413:112,1,94.4999971160888,0|0,3:2|1:2,0:0:0:0:
340,56,69249,1,0,3:2:0:0:
255,98,69549,1,0,1:2:0:0:
174,48,69849,5,0,3:2:0:0:
82,74,70149,1,4,1:2:0:0:
59,164,70449,1,0,3:2:0:0:
103,247,70749,2,0,P|160:239|222:237,1,94.4999971160888,4|0,1:2|3:2,0:0:0:0:
234,274,71199,1,2,0:0:0:0:
234,274,71349,2,0,B|274:299|274:299|335:273,1,94.4999971160888,0|2,1:2|3:1,0:0:0:0:
368,202,71949,2,0,L|359:148,1,47.2499985580444,8|0,0:3|1:2,0:0:0:0:
316,135,72249,6,0,P|304:87|312:35,1,94.4999971160888,4|0,3:2|1:2,0:0:0:0:
351,19,72699,1,2,0:2:0:0:
351,19,72849,2,0,L|468:29,1,94.4999971160888,0|0,3:2|1:2,0:0:0:0:
474,64,73299,1,2,0:2:0:0:
474,64,73449,2,0,B|457:110|457:110|472:169,1,94.4999971160888,0|0,3:2|1:2,0:0:0:0:
413,231,74049,1,0,3:2:0:0:
321,207,74349,1,0,1:0:0:0:
285,294,74649,6,0,P|237:289|189:288,1,94.4999971160888,4|0,3:2|1:2,0:0:0:0:
110,339,75249,1,0,3:2:0:0:
45,269,75549,1,0,1:2:0:0:
45,269,75699,2,0,L|58:158,1,94.4999971160888,0|0,1:2|1:2,0:0:0:0:
95,148,76149,2,0,L|88:92,1,47.2499985580444,0|0,1:2|1:2,0:0:0:0:
52,72,76449,2,0,L|58:16,1,47.2499985580444,0|0,1:1|1:2,0:0:0:0:
103,7,76749,1,0,1:2:0:0:
190,43,77049,6,0,P|246:35|306:47,2,94.4999971160888,4|0|0,3:1|1:0|3:2,0:0:0:0:
165,84,77799,1,2,0:0:0:0:
165,84,77949,1,0,1:2:0:0:
80,125,78249,2,0,B|100:170|100:170|86:236,1,94.4999971160888,0|0,3:2|1:2,0:0:0:0:
36,290,78849,2,0,L|49:342,1,47.2499985580444,0|2,3:2|0:0,0:0:0:0:
91,354,79149,1,0,1:2:0:0:
174,310,79449,6,0,P|227:300|277:312,1,94.4999971160888,0|0,3:0|1:0,0:0:0:0:
352,347,80049,1,0,3:0:0:0:
429,294,80349,2,0,B|439:245|439:245|425:187,1,94.4999971160888,0|0,1:2|1:2,0:0:0:0:
396,174,80799,1,0,1:2:0:0:
396,174,80949,2,0,L|404:110,1,47.2499985580444,8|4,0:3|0:3,0:0:0:0:
435,92,81249,2,0,L|426:28,1,47.2499985580444,0|0,3:2|1:2,0:0:0:0:
390,16,81549,1,8,0:3:0:0:
307,52,81849,6,0,B|287:95|287:95|306:145,1,89.9999999999999,4|0,3:2|3:2,0:0:0:0:
338,162,82299,2,0,P|322:224|320:278,1,89.9999999999999,2|2,0:0|0:0,0:0:0:0:
332,292,82749,1,0,3:2:0:0:
332,292,82899,1,2,0:0:0:0:
260,346,83199,2,0,L|157:330,1,89.9999999999999,2|2,0:0|0:0,0:0:0:0:
132,309,83649,1,0,3:2:0:0:
168,226,83949,1,0,3:2:0:0:
85,190,84249,6,0,P|74:139|83:87,1,89.9999999999999,0|0,3:2|3:2,0:0:0:0:
108,68,84699,1,2,0:0:0:0:
108,68,84849,2,0,L|211:56,1,89.9999999999999,0|0,3:2|3:2,0:0:0:0:
234,83,85299,1,2,0:0:0:0:
295,17,85599,2,0,L|346:23,1,45,0|0,1:2|1:2,0:0:0:0:
380,41,85899,1,2,3:3:0:0:
