osu file format v14

[General]
AudioFilename: audio.mp3
AudioLeadIn: 0
PreviewTime: 38274
Countdown: 0
SampleSet: Soft
StackLeniency: 0.3
Mode: 0
LetterboxInBreaks: 0
WidescreenStoryboard: 1

[Editor]
DistanceSpacing: 1.2
BeatDivisor: 4
GridSize: 32
TimelineZoom: 2

[Metadata]
Title:Gekkou (TV Size)
TitleUnicode:月虹 (TV Size)
Artist:BUMP OF CHICKEN
ArtistUnicode:BUMP OF CHICKEN
Creator:Wanpachi
Version:Hard
Source:からくりサーカス
Tags:alevi chaoticred cycopton yudragen japanese anime rock j-rock jrock j-pop jpop pop Le Cirque De Karakuri Circus
BeatmapID:2950393
BeatmapSetID:1432620

[Difficulty]
HPDrainRate:5
CircleSize:3.5
OverallDifficulty:6
ApproachRate:7.8
SliderMultiplier:1.3
SliderTickRate:1

[Events]
//Background and Video events
0,0,"he looks cool.jpg",0,0
//Break Periods
//Storyboard Layer 0 (Background)
//Storyboard Layer 1 (Fail)
//Storyboard Layer 2 (Pass)
//Storyboard Layer 3 (Foreground)
//Storyboard Layer 4 (Overlay)
//Storyboard Sound Samples

[TimingPoints]
249,300,4,2,0,50,1,0
249,-117.647058823529,4,2,0,50,0,0
5049,-100,4,2,1,70,0,0
9849,-111.111111111111,4,2,2,60,0,0
19149,-111.111111111111,4,2,1,60,0,0
19449,-100,4,2,1,70,0,0
25674,-100,4,2,1,5,0,0
25749,-100,4,2,1,70,0,0
29049,-117.647058823529,4,2,1,60,0,0
37449,-111.111111111111,4,2,1,70,0,0
38349,-111.111111111111,4,2,1,60,0,0
38649,-90.9090909090909,4,2,1,80,0,1
38949,-90.9090909090909,4,2,1,80,0,0
57849,-90.9090909090909,4,2,1,80,0,1
58149,-90.9090909090909,4,2,1,80,0,0
70074,-90.9090909090909,4,2,1,5,0,0
70149,-90.9090909090909,4,2,1,80,0,0
77049,-90.9090909090909,4,2,1,80,0,1
77349,-90.9090909090909,4,2,1,80,0,0
81849,-100,4,2,1,70,0,0
85899,-100,4,2,1,80,0,0

[Colours]
Combo1 : 225,132,132
Combo2 : 217,218,194
Combo3 : 154,159,182
Combo4 : 204,185,159

[HitObjects]
73,72,249,6,0,P|134:62|195:49,1,110.50000210762,2|2,0:0|0:0,0:0:0:0:
261,68,699,1,2,0:0:0:0:
261,68,849,2,0,L|272:130,1,55.2500010538101,2|2,0:0|0:0,0:0:0:0:
345,144,1149,2,0,L|356:81,1,55.2500010538101,2|2,0:0|0:0,0:0:0:0:
430,108,1449,6,0,L|492:96,2,55.2500010538101,2|2|2,0:0|0:0|0:0,0:0:0:0:
415,183,1899,2,0,P|427:245|418:301,1,110.50000210762,2|2,0:0|0:0,0:0:0:0:
360,340,2349,1,2,0:0:0:0:
211,296,2649,6,0,L|135:308,1,55.2500010538101,2|0,0:0|0:0,0:0:0:0:
86,272,2949,2,0,L|73:196,1,55.2500010538101,2|0,0:0|0:0,0:0:0:0:
25,158,3249,2,0,P|37:100|43:48,1,110.50000210762,2|2,0:0|0:0,0:0:0:0:
116,22,3699,6,0,L|178:33,1,55.2500010538101,2|0,0:0|0:0,0:0:0:0:
229,82,3999,2,0,L|291:70,1,55.2500010538101,2|2,0:0|0:0,0:0:0:0:
346,26,4299,1,2,0:0:0:0:
442,329,5049,6,0,B|458:264|458:264|442:186,1,130,4|0,3:2|1:2,0:0:0:0:
315,96,5649,2,0,L|250:106,1,65,0|2,3:2|0:2,0:0:0:0:
243,113,5874,1,0,3:2:0:0:
236,119,5949,1,0,1:2:0:0:
168,71,6099,6,0,B|84:70|125:89|34:86,1,130,2|2,0:2|0:2,0:0:0:0:
1,161,6549,2,0,L|10:239,1,65,0|2,1:2|0:2,0:0:0:0:
68,285,6849,2,0,L|146:276,1,65,0|2,3:2|0:2,0:0:0:0:
139,284,7074,1,0,3:2:0:0:
145,291,7149,1,0,1:2:0:0:
213,340,7299,1,2,0:2:0:0:
291,308,7449,6,0,L|282:230,2,65,0|2|0,3:2|0:2|1:2,0:0:0:0:
372,330,7899,2,0,P|369:254|375:189,1,130,2|2,0:2|0:2,0:0:0:0:
428,135,8349,1,0,1:2:0:0:
389,59,8499,6,0,B|325:83|325:83|261:59,1,130,2|2,0:2|0:2,0:0:0:0:
199,111,8949,2,0,L|127:119,1,65,0|0,1:2|1:2,0:0:0:0:
58,78,9249,2,0,L|50:149,1,65,0|0,3:2|1:2,0:0:0:0:
7,215,9549,2,0,L|15:287,1,65,8|4,0:3|0:3,0:0:0:0:
100,302,9849,6,0,P|154:293|218:304,1,116.999996429443,4|8,3:2|0:0,0:0:0:0:
256,239,10299,2,0,B|266:178|266:178|248:122,1,116.999996429443
196,70,10749,1,8,0:0:0:0:
196,70,10899,1,4,0:3:0:0:
261,31,11049,6,0,B|333:32|297:50|385:49,1,116.999996429443,4|8,0:3|0:0,0:0:0:0:
449,69,11499,2,0,P|442:130|450:196,1,116.999996429443,4|0,0:3|0:0,0:0:0:0:
485,251,11949,2,0,L|477:323,1,58.4999982147217,4|0,0:3|0:0,0:0:0:0:
414,348,12249,6,0,B|357:335|357:335|286:346,1,116.999996429443,4|8,0:3|0:0,0:0:0:0:
232,306,12699,2,0,P|173:314|113:307,1,116.999996429443
54,262,13149,1,8,0:0:0:0:
54,262,13449,5,4,0:3:0:0:
87,193,13599,2,0,L|77:130,1,58.4999982147217,0|8,0:0|0:0,0:0:0:0:
62,58,13899,1,4,0:3:0:0:
62,58,14049,2,0,P|111:65|182:65,1,116.999996429443,8|8,0:0|0:0,0:0:0:0:
254,68,14499,1,0,0:0:0:0:
273,141,14649,6,0,B|256:198|256:198|279:266,1,116.999996429443,4|8,0:3|0:0,0:0:0:0:
331,304,15099,2,0,P|387:292|446:291,1,116.999996429443
463,140,15699,1,4,0:3:0:0:
437,68,15849,6,0,B|359:69|407:82|320:83,1,116.999996429443,4|8,0:3|0:0,0:0:0:0:
255,46,16299,1,4,0:3:0:0:
168,171,16599,2,0,P|112:177|47:180,1,116.999996429443,0|0,0:2|0:0,0:0:0:0:
35,254,17049,6,0,P|99:273|119:339,1,116.999996429443,4|8,0:3|0:0,0:0:0:0:
262,369,17649,2,0,B|345:366|299:353|391:352,1,116.999996429443,8|8,0:0|0:0,0:0:0:0:
422,291,18099,1,4,0:3:0:0:
375,230,18249,6,0,B|363:171|363:171|392:122,1,116.999996429443,4|8,0:3|0:0,0:0:0:0:
449,72,18699,1,4,0:3:0:0:
449,72,18849,2,0,P|393:77|320:68,1,116.999996429443,8|2,0:0|0:3,0:0:0:0:
213,227,19449,5,6,3:2:0:0:
213,227,19599,2,0,L|222:295,1,65,0|2,0:0|1:2,0:0:0:0:
155,345,19899,2,0,P|91:338|17:349,1,130,0|0,0:0|3:2,0:0:0:0:
11,267,20349,1,2,0:2:0:0:
11,267,20499,1,0,1:2:0:0:
66,203,20649,6,0,B|75:140|75:140|46:60,1,130,2|2,0:0|1:2,0:0:0:0:
125,35,21099,2,0,L|196:45,1,65,0|2,0:0|1:2,0:0:0:0:
260,90,21399,2,0,L|331:80,1,65,0|2,3:2|0:2,0:0:0:0:
399,39,21699,6,0,P|454:48|489:111,1,130,0|0,1:2|0:0,0:0:0:0:
461,188,22149,2,0,L|474:263,1,65,2|0,1:2|0:0,0:0:0:0:
418,317,22449,2,0,L|354:306,1,65,2|0,3:2|3:2,0:0:0:0:
280,265,22749,1,2,0:0:0:0:
214,318,22899,6,0,B|149:337|149:337|83:303,1,130,0|0,1:2|3:2,0:0:0:0:
38,153,23499,1,0,0:0:0:0:
38,153,23649,2,0,P|109:141|178:127,1,130,2|2,1:2|0:0,0:0:0:0:
243,93,24099,1,0,1:2:0:0:
283,166,24249,6,0,B|284:243|266:204|270:297,1,130,2|2,3:2|1:2,0:0:0:0:
333,349,24699,2,0,L|402:345,1,65,0|2,0:0|3:2,0:0:0:0:
480,327,24999,2,0,P|428:305|407:224,1,130,0|0,3:0|1:2,0:0:0:0:
454,171,25449,6,0,P|445:126|437:67,1,97.5,2|0,0:0|0:0,0:0:0:0:
448,61,25749,1,2,1:2:0:0:
360,37,25899,2,0,L|288:46,1,65,0|2,3:2|1:2,0:0:0:0:
217,92,26199,2,0,B|157:111|157:111|95:85,1,130,0|0,3:2|1:2,0:0:0:0:
36,146,26649,6,0,P|44:217|32:285,1,130,2|2,3:2|1:2,0:0:0:0:
185,350,27249,2,0,B|248:337|248:337|316:355,1,130,2|2,3:2|0:0,0:0:0:0:
395,363,27699,1,0,1:2:0:0:
436,289,27849,6,0,B|439:202|413:254|417:153,1,130,2|2,0:0|1:2,0:0:0:0:
447,83,28299,1,0,0:0:0:0:
447,83,28449,2,0,P|378:89|306:72,1,130,0|8,1:2|0:3,0:0:0:0:
249,27,28899,1,4,0:3:0:0:
203,104,29049,6,0,P|215:177|218:220,1,110.50000210762,4|8,3:2|0:3,0:0:0:0:
283,254,29499,2,0,B|307:304|307:304|268:350,1,110.50000210762
194,359,29949,1,8,0:3:0:0:
194,359,30249,6,0,B|128:354|160:367|73:361,1,110.50000210762,0|8,3:2|0:3,0:0:0:0:
30,306,30699,2,0,P|36:241|39:186,1,110.50000210762,0|0,1:0|0:0,0:0:0:0:
86,134,31149,2,0,L|78:69,1,55.2500010538101,8|6,1:3|0:3,0:0:0:0:
139,30,31449,6,0,P|201:22|264:30,1,110.50000210762,0|8,3:2|1:3,0:0:0:0:
303,82,31899,2,0,B|355:94|355:94|414:69,1,110.50000210762
472,115,32349,1,8,0:3:0:0:
472,115,32649,6,0,B|469:218|442:163|442:276,2,165.75000316143,0|0|0,3:2|1:2|1:2,0:0:0:0:
415,47,33699,1,0,1:2:0:0:
409,41,33774,1,0,1:2:0:0:
401,36,33849,1,4,3:2:0:0:
274,128,34149,5,8,1:3:0:0:
226,67,34299,2,0,P|161:73|124:112,1,110.50000210762
54,83,34749,2,0,L|58:137,1,55.2500010538101,8|4,0:3|0:3,0:0:0:0:
108,197,35049,6,0,B|129:248|129:248|106:311,1,110.50000210762,0|8,3:2|0:3,0:0:0:0:
165,354,35499,2,0,B|236:353|202:338|282:337,1,110.50000210762,0|0,1:2|0:0,0:0:0:0:
345,364,35949,2,0,L|406:356,1,55.2500010538101,8|6,1:3|0:3,0:0:0:0:
461,310,36249,6,0,B|488:258|488:258|468:199,1,110.50000210762,0|0,3:2|1:2,0:0:0:0:
362,98,36849,2,0,L|353:28,1,55.2500010538101,8|4,0:3|0:3,0:0:0:0:
281,18,37149,2,0,L|273:72,1,55.2500010538101,8|4,0:3|0:3,0:0:0:0:
228,149,37449,6,0,P|242:215|236:282,1,116.999996429443,4|0,1:2|3:2,0:0:0:0:
181,329,37899,2,0,L|101:322,1,58.4999982147217,4|0,1:2|3:2,0:0:0:0:
50,301,38199,1,0,3:2:0:0:
43,225,38349,1,8,0:1:0:0:
250,274,38649,6,0,B|337:278|286:254|393:259,1,143.000004364014,4|0,3:1|1:2,0:0:0:0:
466,104,39249,1,0,3:2:0:0:
398,50,39399,2,0,L|324:60,1,71.5000021820069,2|0,0:2|1:2,0:0:0:0:
243,80,39699,6,0,B|181:42|181:42|98:60,1,143.000004364014,2|2,0:2|0:2,0:0:0:0:
49,114,40149,1,0,1:2:0:0:
103,180,40299,2,0,P|115:250|102:325,1,143.000004364014,2|2,0:2|0:2,0:0:0:0:
183,354,40749,2,0,L|266:341,1,71.5000021820069,0|0,1:2|1:2,0:0:0:0:
316,284,41049,6,0,B|411:289|346:312|469:324,1,143.000004364014,2|0,3:1|1:2,0:0:0:0:
480,240,41499,2,0,P|467:176|480:90,1,143.000004364014,2|2,0:1|0:2,0:0:0:0:
405,51,41949,2,0,L|328:60,1,71.5000021820069,2|2,1:1|0:2,0:0:0:0:
254,25,42249,5,0,3:2:0:0:
206,96,42399,2,0,B|137:122|137:122|55:93,1,143.000004364014,2|2,0:1|0:2,0:0:0:0:
26,171,42849,2,0,L|34:256,1,71.5000021820069,2|2,3:1|0:2,0:0:0:0:
84,310,43149,1,0,1:2:0:0:
163,277,43299,1,0,1:2:0:0:
259,304,43449,6,0,B|262:223|241:267|246:159,1,143.000004364014,4|0,3:2|1:2,0:0:0:0:
152,18,44049,1,0,3:2:0:0:
236,4,44199,2,0,L|313:17,1,71.5000021820069,2|0,0:2|1:2,0:0:0:0:
370,73,44499,6,0,P|444:83|476:164,1,143.000004364014,2|2,0:2|0:2,0:0:0:0:
496,221,44949,1,0,1:2:0:0:
451,294,45099,2,0,B|386:280|386:280|307:300,1,143.000004364014,2|2,0:2|0:2,0:0:0:0:
237,342,45549,2,0,L|162:328,1,71.5000021820069,0|0,1:2|1:2,0:0:0:0:
80,331,45849,6,0,P|145:302|167:231,1,143.000004364014,2|0,3:1|1:2,0:0:0:0:
92,195,46299,2,0,B|79:125|79:125|105:58,1,143.000004364014,2|2,0:1|0:2,0:0:0:0:
181,17,46749,2,0,P|190:88|204:163,1,143.000004364014,2|0,1:1|3:2,0:0:0:0:
280,121,47199,5,2,0:1:0:0:
348,172,47349,2,0,B|436:176|380:195|487:199,1,143.000004364014,0|2,1:2|3:1,0:0:0:0:
459,280,47799,2,0,L|477:370,1,71.5000021820069,0|0,1:2|1:2,0:0:0:0:
374,333,48099,1,0,1:2:0:0:
366,325,48174,1,0,1:0:0:0:
358,317,48249,6,0,P|279:320|227:355,1,143.000004364014,4|0,3:2|1:2,0:0:0:0:
172,289,48699,1,2,0:2:0:0:
240,237,48849,2,0,L|227:148,1,71.5000021820069,0|2,3:2|0:2,0:0:0:0:
212,81,49149,6,0,B|147:116|147:116|84:81,1,143.000004364014,0|0,1:2|3:2,0:0:0:0:
30,146,49599,1,2,0:2:0:0:
79,215,49749,2,0,L|69:290,1,71.5000021820069,0|2,1:2|0:2,0:0:0:0:
144,327,50049,2,0,L|153:255,1,71.5000021820069,0|2,3:2|0:2,0:0:0:0:
236,239,50349,2,0,L|227:310,1,71.5000021820069,0|2,1:2|0:2,0:0:0:0:
306,341,50649,6,0,P|381:332|453:345,1,143.000004364014,0|0,3:2|1:2,0:0:0:0:
489,268,51099,1,2,0:2:0:0:
433,202,51249,2,0,L|439:115,1,71.5000021820069,0|2,3:2|0:2,0:0:0:0:
376,70,51549,2,0,B|284:72|334:85|222:88,2,143.000004364014,0|0|0,1:2|3:2|1:2,0:0:0:0:
492,196,52449,5,2,3:1:0:0:
446,269,52599,1,2,0:2:0:0:
479,347,52749,2,0,L|391:359,1,71.5000021820069,0|0,3:2|1:2,0:0:0:0:
324,301,53049,6,0,P|243:298|192:345,1,143.000004364014,4|0,3:2|1:2,0:0:0:0:
116,362,53499,1,2,0:2:0:0:
43,316,53649,2,0,P|55:248|48:170,1,143.000004364014,0|0,3:2|1:2,0:0:0:0:
59,89,54099,1,2,0:2:0:0:
140,115,54249,6,0,B|210:131|210:131|272:78,1,143.000004364014,0|0,3:2|1:2,0:0:0:0:
425,25,54849,2,0,L|437:108,1,71.5000021820069,0|2,3:2|0:2,0:0:0:0:
423,181,55149,1,0,1:0:0:0:
507,197,55299,1,0,1:2:0:0:
467,289,55449,6,0,P|391:303|351:351,1,143.000004364014,4|0,3:2|1:2,0:0:0:0:
266,369,55899,1,2,0:2:0:0:
211,304,56049,2,0,L|123:297,1,71.5000021820069,0|2,3:2|0:2,0:0:0:0:
60,330,56349,2,0,B|33:262|33:262|63:187,2,143.000004364014,0|0|0,1:2|3:2|1:2,0:0:0:0:
228,295,57249,6,0,L|317:303,1,71.5000021820069,0|0,1:1|1:2,0:0:0:0:
366,354,57549,1,0,1:2:0:0:
454,305,57699,1,0,1:2:0:0:
462,296,57774,1,0,1:2:0:0:
469,288,57849,6,0,B|475:206|456:247|466:137,1,143.000004364014,4|0,3:1|1:2,0:0:0:0:
326,42,58449,1,0,3:2:0:0:
249,81,58599,2,0,L|172:69,1,71.5000021820069,2|0,0:2|1:2,0:0:0:0:
104,24,58899,6,0,P|23:48|11:129,1,143.000004364014,2|2,0:2|0:2,0:0:0:0:
71,151,59349,1,0,1:2:0:0:
11,213,59499,2,0,B|18:308|30:252|42:360,1,143.000004364014,2|2,0:2|0:2,0:0:0:0:
123,325,59949,2,0,L|212:339,1,71.5000021820069,0|0,1:2|1:2,0:0:0:0:
278,322,60249,6,0,B|345:352|345:352|406:315,1,143.000004364014,2|0,3:1|1:2,0:0:0:0:
476,267,60699,2,0,P|467:199|465:117,1,143.000004364014,2|2,0:1|0:2,0:0:0:0:
422,45,61149,2,0,L|329:38,1,71.5000021820069,2|2,1:1|0:2,0:0:0:0:
268,14,61449,5,0,3:2:0:0:
226,88,61599,2,0,P|137:76|63:84,1,143.000004364014,2|2,0:1|0:2,0:0:0:0:
28,145,62049,2,0,L|43:238,1,71.5000021820069,2|2,3:1|0:2,0:0:0:0:
108,267,62349,1,0,1:2:0:0:
53,333,62499,1,0,1:2:0:0:
146,373,62649,6,0,P|228:370|301:377,1,143.000004364014,4|0,3:2|1:2,0:0:0:0:
323,296,63099,1,2,0:2:0:0:
262,235,63249,1,0,3:2:0:0:
323,174,63399,2,0,L|313:91,1,71.5000021820069,2|0,0:2|1:2,0:0:0:0:
304,17,63699,6,0,B|369:45|369:45|456:7,1,143.000004364014,2|2,0:2|0:2,0:0:0:0:
497,76,64149,1,0,1:2:0:0:
447,146,64299,2,0,P|458:230|451:294,1,143.000004364014,2|2,0:2|0:2,0:0:0:0:
386,344,64749,2,0,L|301:333,1,71.5000021820069,0|0,1:2|1:2,0:0:0:0:
247,280,65049,6,0,B|162:281|204:298|87:302,1,143.000004364014,2|0,3:1|1:2,0:0:0:0:
45,240,65499,2,0,B|88:182|88:182|55:110,1,143.000004364014,2|2,0:1|0:2,0:0:0:0:
14,43,65949,2,0,P|89:31|162:12,1,143.000004364014,2|0,1:1|1:2,0:0:0:0:
219,70,66399,5,8,0:3:0:0:
285,15,66549,2,0,L|374:28,1,71.5000021820069,4|0,0:3|1:2,0:0:0:0:
457,164,66999,1,0,1:2:0:0:
405,232,67149,1,0,1:2:0:0:
473,305,67299,1,0,1:2:0:0:
480,312,67374,1,0,1:0:0:0:
487,319,67449,6,0,P|416:323|325:337,1,143.000004364014,4|0,3:2|1:2,0:0:0:0:
266,296,67899,1,2,0:2:0:0:
310,222,68049,2,0,L|314:142,1,71.5000021820069,0|2,3:2|0:2,0:0:0:0:
283,70,68349,6,0,B|213:86|213:86|150:26,1,143.000004364014,0|0,1:2|3:2,0:0:0:0:
78,14,68799,1,2,0:2:0:0:
29,85,68949,2,0,L|45:170,1,71.5000021820069,0|2,1:2|0:2,0:0:0:0:
125,176,69249,2,0,L|109:261,1,71.5000021820069,0|2,3:2|0:2,0:0:0:0:
29,270,69549,2,0,L|45:355,1,71.5000021820069,0|2,1:2|0:2,0:0:0:0:
121,372,69849,6,0,P|177:363|255:371,1,107.25000327301,0|0,3:2|0:2,0:0:0:0:
236,371,70149,2,0,L|310:367,1,71.5000021820069,4|2,1:2|0:2,0:0:0:0:
337,286,70449,2,0,L|411:290,1,71.5000021820069,0|0,3:2|1:2,0:0:0:0:
499,247,70749,2,0,B|495:164|477:215|471:102,2,143.000004364014,4|0|0,1:2|3:2|1:2,0:0:0:0:
372,362,71649,5,2,3:1:0:0:
290,335,71799,1,0,1:2:0:0:
214,375,71949,2,0,L|116:357,1,71.5000021820069,8|0,0:3|1:2,0:0:0:0:
45,338,72249,6,0,P|118:311|148:237,1,143.000004364014,4|0,3:2|1:2,0:0:0:0:
103,182,72699,1,2,0:2:0:0:
140,105,72849,2,0,P|229:105|305:86,1,143.000004364014,0|0,3:2|1:2,0:0:0:0:
325,19,73299,1,2,0:2:0:0:
390,76,73449,6,0,B|428:138|428:138|395:219,1,143.000004364014,0|0,3:2|1:2,0:0:0:0:
281,327,74049,2,0,L|197:314,1,71.5000021820069,0|2,3:2|0:2,0:0:0:0:
163,243,74349,2,0,L|79:256,1,71.5000021820069,0|0,1:0|1:2,0:0:0:0:
14,317,74649,6,0,P|34:234|18:163,1,143.000004364014,4|0,3:2|1:2,0:0:0:0:
64,103,75099,1,2,0:2:0:0:
149,117,75249,2,0,L|229:103,1,71.5000021820069,0|2,3:2|0:2,0:0:0:0:
283,47,75549,1,0,1:2:0:0:
358,88,75699,6,0,P|431:117|453:191,1,143.000004364014,0|0,1:2|1:2,0:0:0:0:
403,242,76149,2,0,L|406:325,1,71.5000021820069,0|0,1:2|1:2,0:0:0:0:
332,359,76449,1,0,1:1:0:0:
254,322,76599,1,0,1:2:0:0:
246,314,76674,1,0,1:0:0:0:
238,306,76749,2,0,L|239:270,3,35.7500010910034,0|0|0|0,1:2|1:0|1:2|1:2,0:0:0:0:
246,262,77049,6,0,B|241:172|225:221|231:113,2,143.000004364014,4|0|0,3:1|1:0|3:2,0:0:0:0:
408,320,77949,2,0,L|419:244,1,71.5000021820069,0|2,1:2|0:0,0:0:0:0:
480,189,78249,6,0,P|467:118|481:35,1,143.000004364014,0|0,3:2|1:2,0:0:0:0:
402,5,78699,1,2,0:0:0:0:
334,58,78849,2,0,B|265:80|265:80|192:44,1,143.000004364014,0|0,3:2|1:2,0:0:0:0:
120,20,79299,1,2,0:0:0:0:
52,72,79449,6,0,P|62:153|55:225,1,143.000004364014,0|0,3:0|1:0,0:0:0:0:
16,290,79899,1,2,0:0:0:0:
88,335,80049,2,0,L|168:329,1,71.5000021820069,0|2,3:0|0:0,0:0:0:0:
237,366,80349,2,0,P|272:302|348:291,1,143.000004364014,0|0,1:2|1:2,0:0:0:0:
412,328,80799,5,0,1:2:0:0:
478,273,80949,1,8,0:3:0:0:
440,195,81099,1,4,0:3:0:0:
493,128,81249,2,0,L|483:43,1,71.5000021820069,0|0,3:2|1:2,0:0:0:0:
409,14,81549,2,0,L|400:85,1,71.5000021820069,8|0,0:3|1:2,0:0:0:0:
324,147,81849,5,4,3:2:0:0:
249,107,81999,2,0,B|163:106|206:123|102:125,1,130,2|2,0:0|0:0,0:0:0:0:
60,63,82449,2,0,B|82:125|82:125|60:197,1,130,0|0,3:2|3:2,0:0:0:0:
11,253,82899,6,0,P|27:303|42:383,1,130,2|2,0:0|0:0,0:0:0:0:
117,341,83349,2,0,L|135:270,1,65,0|2,3:2|0:0,0:0:0:0:
122,194,83649,2,0,L|193:212,1,65,0|2,3:2|0:0,0:0:0:0:
268,199,83949,2,0,L|250:270,1,65,0|2,3:2|0:0,0:0:0:0:
311,321,84249,6,0,P|377:312|450:320,1,130,0|0,3:2|3:2,0:0:0:0:
492,251,84699,1,2,0:0:0:0:
437,186,84849,2,0,L|450:113,1,65,0|2,3:2|0:0,0:0:0:0:
395,56,85149,1,0,3:2:0:0:
320,95,85299,2,0,L|247:108,1,65,2|0,0:2|3:0,0:0:0:0:
172,56,85599,5,0,1:2:0:0:
91,113,85749,1,0,1:2:0:0:
25,42,85899,1,2,3:3:0:0:
