osu file format v14

[General]
AudioFilename: audio.mp3
AudioLeadIn: 0
PreviewTime: 43287
Countdown: 0
SampleSet: Soft
StackLeniency: 0.7
Mode: 0
LetterboxInBreaks: 0
WidescreenStoryboard: 1

[Editor]
DistanceSpacing: 1.3
BeatDivisor: 4
GridSize: 4
TimelineZoom: 1.5

[Metadata]
Title:Fighter (TV Size)
TitleUnicode:ファイター (TV Size)
Artist:BUMP OF CHICKEN
ArtistUnicode:BUMP OF CHICKEN
Creator:Wanpachi
Version:KimikaMyMommy's Super Mega Cool Extra
Source:3月のライオン
Tags:kimikamymommy hinamommy cycopton hypercyte hypercute 3gatsu 3-gatsu sangatsu no lion march comes in like a anime ending ed japanese j-pop pop jpop j-rock jrock rock butterfly chess shogi 将棋 川本 ひなた kawamoto hinata
BeatmapID:3009149
BeatmapSetID:1449480

[Difficulty]
HPDrainRate:7
CircleSize:4
OverallDifficulty:8
ApproachRate:9
SliderMultiplier:1.6
SliderTickRate:1

[Events]
//Background and Video events
0,0,"sangatsu no phantasia.jpg",0,0
//Break Periods
//Storyboard Layer 0 (Background)
//Storyboard Layer 1 (Fail)
//Storyboard Layer 2 (Pass)
//Storyboard Layer 3 (Foreground)
//Storyboard Layer 4 (Overlay)
//Storyboard Sound Samples

[TimingPoints]
87,300,4,2,1,60,1,0
23787,-133.333333333333,4,2,1,60,0,0
24087,-83.3333333333333,4,2,1,50,0,0
41787,-200,4,2,1,50,0,0
42087,-83.3333333333333,4,2,1,50,0,0
43287,-71.4285714285714,4,2,1,80,0,1
43362,-71.4285714285714,4,2,1,80,0,0
52887,-71.4285714285714,4,2,1,80,0,1
52962,-71.4285714285714,4,2,1,80,0,0
62487,-71.4285714285714,4,2,1,80,0,1
62562,-71.4285714285714,4,2,1,80,0,0
72087,-71.4285714285714,4,2,1,80,0,1
72162,-71.4285714285714,4,2,1,80,0,0
81387,-62.5,4,2,1,80,0,0
81687,-71.4285714285714,4,2,1,70,0,1
81762,-71.4285714285714,4,2,1,70,0,0
86487,-400,4,2,1,50,0,0
88687,-133.333333333333,4,2,1,40,0,0

[Colours]
Combo1 : 185,196,193
Combo2 : 172,228,171
Combo3 : 152,190,211
Combo4 : 221,162,162
Combo5 : 147,206,200
Combo6 : 213,215,149

[HitObjects]
140,272,4287,5,0,0:0:0:0:
184,380,4437,1,0,0:0:0:0:
32,344,4587,1,0,0:0:0:0:
156,240,4737,1,0,0:0:0:0:
236,272,4887,2,0,P|308:272|400:200,1,160,4|0,3:2|3:2,0:0:0:0:
408,156,5337,1,2,0:0:0:0:
268,112,5487,1,0,3:2:0:0:
332,64,5637,2,0,L|308:192,1,120,2|0,0:2|0:0,0:0:0:0:
309,181,5937,2,0,L|207:207,1,80,2|0,0:2|3:2,0:0:0:0:
156,152,6237,1,2,0:2:0:0:
196,64,6387,1,0,3:2:0:0:
56,172,6537,5,2,0:2:0:0:
140,232,6687,1,0,3:2:0:0:
36,280,6837,1,2,0:2:0:0:
16,152,6987,1,0,3:2:0:0:
231,200,7137,1,2,0:2:0:0:
231,200,7212,1,2,0:2:0:0:
231,200,7287,2,0,P|252:152|232:32,1,160,0|0,3:2|3:2,0:0:0:0:
164,40,7737,1,2,0:2:0:0:
231,200,7887,6,0,P|277:176|339:71,1,160,0|0,3:2|3:2,0:0:0:0:
296,24,8337,1,2,0:2:0:0:
412,104,8487,2,0,L|496:92,1,80,0|2,3:2|0:2,0:0:0:0:
464,192,8787,2,0,P|424:184|360:208,1,80,0|2,3:2|0:0,0:0:0:0:
336,256,9087,1,2,3:2:0:0:
336,256,9162,1,2,0:2:0:0:
336,256,9237,1,2,0:2:0:0:
428,320,9387,1,0,3:2:0:0:
212,284,9537,1,2,0:2:0:0:
386,191,9687,1,0,3:2:0:0:
386,191,9987,2,0,L|408:92,1,80,0|2,3:2|0:0,0:0:0:0:
344,52,10287,5,0,3:2:0:0:
280,112,10437,1,2,0:2:0:0:
196,52,10587,2,0,P|224:92|212:228,2,160,0|0|0,3:2|3:2|3:2,0:0:0:0:
124,112,11337,2,0,L|144:228,1,80,2|0,0:2|3:2,0:0:0:0:
92,264,11637,1,2,0:2:0:0:
20,216,11787,1,0,3:2:0:0:
227,199,11937,5,2,0:2:0:0:
227,199,12012,1,2,0:2:0:0:
227,199,12087,2,0,P|280:200|328:176,1,80,0|2,3:2|0:0,0:0:0:0:
408,116,12387,2,0,P|344:96|248:124,1,160,0|0,3:2|3:2,0:0:0:0:
168,96,12837,1,2,0:0:0:0:
168,96,12912,1,2,0:0:0:0:
168,96,12987,1,0,3:2:0:0:
228,24,13137,1,2,0:2:0:0:
84,56,13287,5,0,3:2:0:0:
160,196,13437,1,2,0:0:0:0:
12,144,13587,1,0,3:2:0:0:
168,96,13737,1,2,0:2:0:0:
256,118,13887,1,2,3:2:0:0:
259,137,13962,1,2,0:2:0:0:
263,157,14037,1,2,0:2:0:0:
266,177,14112,1,2,0:2:0:0:
269,197,14187,2,0,L|245:297,1,80,0|2,3:2|0:3,0:0:0:0:
328,348,14487,5,0,3:2:0:0:
328,348,14787,1,0,3:2:0:0:
328,348,15087,1,0,3:2:0:0:
384,296,15237,2,0,P|356:240|380:128,1,160,2|2,0:2|0:2,0:0:0:0:
432,184,15687,2,0,L|524:168,1,80,0|2,3:2|0:2,0:0:0:0:
320,72,15987,2,0,P|284:92|208:92,1,80,0|2,3:2|0:2,0:0:0:0:
116,128,16287,2,0,P|140:161|209:193,1,80,0|2,3:2|0:2,0:0:0:0:
256,260,16587,2,0,P|241:298|183:347,1,80,0|2,3:2|0:2,0:0:0:0:
164,272,16812,1,2,0:2:0:0:
164,272,16887,6,0,L|-4:288,1,160,0|0,3:2|3:2,0:0:0:0:
116,128,17337,1,2,0:2:0:0:
184,84,17487,2,0,P|264:104|352:56,1,160,0|0,3:2|3:2,0:0:0:0:
416,36,17937,1,2,0:2:0:0:
480,96,18087,2,0,L|448:196,1,80,0|2,3:2|0:2,0:0:0:0:
352,268,18387,1,0,3:2:0:0:
288,192,18537,1,2,0:0:0:0:
440,252,18687,1,2,3:2:0:0:
440,252,18762,1,2,0:2:0:0:
440,252,18837,1,2,0:2:0:0:
252,352,18987,2,0,P|208:344|140:364,1,80,0|2,3:2|0:2,0:0:0:0:
128,288,19212,1,2,0:0:0:0:
128,288,19287,6,0,L|144:208,1,80,0|2,3:2|0:2,0:0:0:0:
36,32,19587,2,0,P|20:68|44:172,1,120,0|0,3:2|0:0,0:0:0:0:
96,104,19887,2,0,L|212:80,1,80,0|2,3:2|0:2,0:0:0:0:
260,128,20187,1,0,3:2:0:0:
224,220,20337,1,2,0:2:0:0:
296,288,20487,5,0,3:2:0:0:
208,332,20637,1,2,0:2:0:0:
296,288,20787,1,0,3:2:0:0:
404,340,20937,1,2,0:2:0:0:
344,192,21087,1,0,3:2:0:0:
152,272,21237,1,2,0:0:0:0:
75,219,21387,2,0,L|91:127,1,80,0|2,3:2|0:2,0:0:0:0:
88,140,21612,1,2,0:2:0:0:
88,140,21687,6,0,L|75:219,1,80,0|2,3:2|0:2,0:0:0:0:
260,128,21987,1,0,3:2:0:0:
212,192,22137,2,0,P|204:252|260:352,1,160,2|2,0:2|0:0,0:0:0:0:
245,339,22512,1,2,0:0:0:0:
245,339,22587,1,0,3:2:0:0:
348,372,22737,1,2,0:2:0:0:
464,256,22887,5,0,3:2:0:0:
320,284,23037,1,2,0:2:0:0:
400,136,23187,1,0,3:2:0:0:
496,284,23337,1,2,0:0:0:0:
284,264,23487,1,2,3:2:0:0:
300,228,23562,1,2,0:2:0:0:
309,189,23637,1,2,0:2:0:0:
305,149,23712,1,2,0:2:0:0:
289,113,23787,2,0,L|216:44,1,90.0000034332277,0|0,3:2|0:0,0:0:0:0:
152,80,24087,6,0,P|84:132|4:140,1,143.999995605469,4|0,3:2|0:0,0:0:0:0:
72,168,24387,2,0,P|131:129|167:67,1,143.999995605469,0|0,3:2|0:0,0:0:0:0:
176,52,24687,2,0,P|170:123|132:183,1,143.999995605469,0|0,3:2|0:0,0:0:0:0:
104,256,24987,1,0,3:2:0:0:
168,356,25137,1,2,0:2:0:0:
288,284,25287,2,0,P|232:288|180:268,1,95.9999970703126,0|2,3:2|0:0,0:0:0:0:
168,196,25587,1,0,3:2:0:0:
240,140,25737,1,2,0:2:0:0:
404,204,25887,5,0,3:2:0:0:
464,112,26037,1,2,0:2:0:0:
352,60,26187,5,0,3:2:0:0:
376,132,26337,1,2,0:2:0:0:
324,188,26487,2,0,P|264:168|132:216,1,191.999994140625,0|0,3:2|3:2,0:0:0:0:
120,296,26937,1,2,0:2:0:0:
192,356,27087,2,0,L|320:336,1,95.9999970703126,0|2,3:2|0:2,0:0:0:0:
376,248,27387,2,0,P|312:268|228:244,1,143.999995605469,0|0,3:2|0:0,0:0:0:0:
192,192,27687,1,0,3:2:0:0:
240,76,27837,1,2,0:0:0:0:
88,112,27987,1,0,3:2:0:0:
272,56,28137,1,2,0:0:0:0:
424,160,28287,5,2,3:2:0:0:
424,160,28362,1,2,0:0:0:0:
424,160,28437,1,2,0:2:0:0:
312,188,28587,1,0,3:2:0:0:
416,56,28737,2,0,L|480:68,1,47.9999985351563,2|0,0:2|0:0,0:0:0:0:
508,128,28887,2,0,P|504:224|436:296,1,191.999994140625,0|0,3:2|3:2,0:0:0:0:
364,284,29337,1,2,0:2:0:0:
248,232,29487,2,0,L|272:344,1,95.9999970703126,0|2,3:2|0:2,0:0:0:0:
148,256,29787,2,0,P|172:208|160:128,1,95.9999970703126,0|2,3:2|0:2,0:0:0:0:
92,132,30087,5,0,3:2:0:0:
96,136,30237,1,2,0:0:0:0:
60,336,30387,1,0,3:2:0:0:
64,340,30537,1,2,0:0:0:0:
264,264,30687,1,0,3:2:0:0:
312,200,30837,2,0,P|288:128|328:-4,1,191.999994140625,2|2,0:2|0:2,0:0:0:0:
376,64,31212,1,2,0:0:0:0:
376,64,31287,1,0,3:2:0:0:
476,88,31437,1,2,0:0:0:0:
500,244,31587,5,0,3:2:0:0:
432,296,31737,2,0,L|228:272,1,191.999994140625,2|2,0:2|0:2,0:0:0:0:
241,273,32112,1,2,0:0:0:0:
241,273,32187,1,0,3:2:0:0:
164,324,32337,1,2,0:2:0:0:
140,236,32487,1,0,3:2:0:0:
164,360,32637,1,2,0:0:0:0:
328,248,32787,1,0,3:2:0:0:
64,176,32937,1,2,0:0:0:0:
108,108,33087,5,2,3:2:0:0:
131,104,33162,1,2,0:2:0:0:
155,101,33237,1,2,0:2:0:0:
179,97,33312,1,2,0:2:0:0:
202,94,33387,1,0,3:2:0:0:
116,244,33537,1,2,0:3:0:0:
318,182,33687,6,0,L|487:236,1,143.999995605469,0|0,3:2|0:0,0:0:0:0:
432,254,33987,2,0,L|336:148,1,143.999995605469,0|0,3:2|0:0,0:0:0:0:
372,132,34287,2,0,L|402:272,1,143.999995605469,0|0,3:2|0:0,0:0:0:0:
348,328,34587,1,0,3:2:0:0:
224,356,34737,1,2,0:2:0:0:
184,236,34887,2,0,L|288:260,1,95.9999970703126,0|2,3:2|0:0,0:0:0:0:
348,208,35187,1,0,3:2:0:0:
280,148,35337,1,2,0:2:0:0:
348,48,35487,5,0,3:2:0:0:
244,68,35637,1,2,0:2:0:0:
348,48,35787,1,0,3:2:0:0:
260,168,35937,1,2,0:2:0:0:
348,48,36087,1,0,3:2:0:0:
384,224,36237,1,2,0:0:0:0:
348,48,36387,1,0,3:0:0:0:
433,86,36537,2,0,P|462:122|465:169,1,95.9999970703126,2|0,0:2|3:2,0:0:0:0:
384,224,36837,1,2,0:2:0:0:
260,168,36987,2,0,L|364:132,1,95.9999970703126,0|2,3:2|0:2,0:0:0:0:
148,40,37287,6,0,B|135:90|135:90|60:128|68:220,2,191.999994140625,0|0|2,3:2|3:2|3:2,0:0:0:0:
148,40,37962,1,2,0:0:0:0:
148,40,38037,1,2,0:2:0:0:
16,76,38187,1,0,3:2:0:0:
164,188,38337,1,2,0:2:0:0:
288,72,38487,2,0,P|304:124|256:272,1,191.999994140625,0|0,3:2|3:2,0:0:0:0:
440,224,38937,2,0,P|418:274|286:356,1,191.999994140625,2|2,0:2|0:2,0:0:0:0:
220,328,39387,2,0,L|176:220,1,95.9999970703126,0|2,3:2|0:2,0:0:0:0:
67,203,39687,1,0,3:2:0:0:
67,203,39987,1,0,3:2:0:0:
168,152,40137,6,0,P|244:164|368:108,1,191.999994140625,2|2,0:2|0:2,0:0:0:0:
380,40,40587,1,0,3:2:0:0:
300,20,40737,1,2,0:2:0:0:
300,20,40812,1,2,0:0:0:0:
300,20,40887,2,0,L|272:120,1,95.9999970703126,0|2,3:2|0:0,0:0:0:0:
152,57,41187,2,0,L|168:159,1,95.9999970703126,0|2,3:2|0:0,0:0:0:0:
334,230,41487,2,0,L|350:127,1,95.9999970703126,0|2,3:2|0:2,0:0:0:0:
349,136,41712,1,2,0:0:0:0:
349,136,41787,6,0,L|415:120,1,60,0|0,3:2|0:0,0:0:0:0:
472,72,42087,5,0,3:2:0:0:
416,216,42237,1,2,0:2:0:0:
272,76,42387,1,0,3:2:0:0:
504,36,42537,1,2,0:2:0:0:
408,260,42687,1,0,3:2:0:0:
232,68,42837,1,2,0:2:0:0:
208,64,42912,1,2,0:0:0:0:
180,56,42987,2,0,L|68:96,1,95.9999970703126,0|2,3:2|0:3,0:0:0:0:
52,168,43287,1,4,3:1:0:0:
204,344,43587,5,0,3:2:0:0:
352,296,43737,1,4,0:3:0:0:
192,216,43887,2,0,P|132:228|76:292,1,111.999996582031,0|2,3:2|0:2,0:0:0:0:
272,172,44187,2,0,L|300:36,1,111.999996582031,4|2,3:3|0:2,0:0:0:0:
400,36,44487,2,0,B|420:88|420:88|372:176|440:264,2,223.999993164063,0|0|0,3:2|3:2|3:2,0:0:0:0:
320,120,45237,1,2,0:2:0:0:
512,232,45387,1,4,3:3:0:0:
280,328,45537,1,2,0:2:0:0:
280,328,45612,1,2,0:2:0:0:
280,328,45687,2,0,L|140:288,1,111.999996582031,4|2,3:3|0:0,0:0:0:0:
36,180,45987,6,0,P|16:244|52:324,1,111.999996582031,0|4,3:2|0:3,0:0:0:0:
192,216,46287,2,0,L|212:88,1,111.999996582031,0|2,3:2|0:2,0:0:0:0:
280,64,46587,1,4,3:3:0:0:
352,108,46737,1,2,0:0:0:0:
272,36,46887,1,0,3:2:0:0:
308,256,47037,1,4,0:3:0:0:
444,72,47187,1,0,3:2:0:0:
168,16,47337,1,2,0:0:0:0:
112,84,47487,1,2,3:2:0:0:
112,84,47562,1,2,0:2:0:0:
112,84,47637,2,0,L|136:208,1,111.999996582031,2|0,0:2|1:2,0:0:0:0:
253,324,47937,5,2,0:2:0:0:
280,328,48012,1,2,0:0:0:0:
308,332,48087,2,0,P|340:272|292:88,1,223.999993164063,4|0,3:3|3:2,0:0:0:0:
244,92,48537,1,4,0:3:0:0:
133,193,48687,1,0,3:2:0:0:
240,8,48837,1,2,0:2:0:0:
380,188,48987,2,0,L|504:212,1,111.999996582031,4|2,3:3|0:0,0:0:0:0:
228,320,49287,6,0,B|196:140|196:140|168:132|160:100,2,223.999993164063,0|0|0,3:2|3:2|3:2,0:0:0:0:
136,360,50037,2,0,L|20:328,1,111.999996582031,2|4,0:2|3:3,0:0:0:0:
0,233,50337,1,2,0:2:0:0:
0,233,50412,1,2,0:2:0:0:
0,233,50487,1,4,3:3:0:0:
136,196,50637,1,2,0:0:0:0:
104,104,50787,1,0,3:2:0:0:
236,200,50937,1,4,0:3:0:0:
80,260,51087,1,0,3:2:0:0:
136,24,51237,5,2,0:2:0:0:
136,24,51312,1,2,0:2:0:0:
136,24,51387,2,0,P|216:48|320:12,1,167.999994873047,4|0,3:3|0:0,0:0:0:0:
360,72,51687,2,0,L|340:192,1,111.999996582031,0|4,3:2|0:3,0:0:0:0:
408,244,51987,1,0,3:2:0:0:
496,220,52137,1,2,0:2:0:0:
356,336,52287,5,2,3:2:0:0:
329,327,52362,1,2,0:2:0:0:
302,319,52437,1,2,0:2:0:0:
275,310,52512,1,2,0:2:0:0:
249,302,52587,1,4,1:3:0:0:
64,360,52737,1,0,1:2:0:0:
116,128,52887,1,4,3:2:0:0:
116,128,53187,6,0,P|136:196|120:268,1,111.999996582031,0|4,3:2|0:3,0:0:0:0:
240,112,53487,2,0,L|216:268,1,111.999996582031,0|2,3:2|0:2,0:0:0:0:
340,72,53787,1,4,3:3:0:0:
152,28,53937,1,2,0:2:0:0:
400,8,54087,1,0,3:2:0:0:
304,196,54237,1,2,0:2:0:0:
344,268,54387,2,0,L|468:292,1,111.999996582031,0|2,3:2|0:2,0:0:0:0:
240,112,54687,2,0,P|200:164|208:248,1,111.999996582031,0|2,3:2|0:2,0:0:0:0:
224,300,54987,1,4,3:3:0:0:
164,368,55137,5,2,0:2:0:0:
164,368,55212,1,2,0:2:0:0:
164,368,55287,2,0,L|12:332,1,111.999996582031,4|2,3:3|0:0,0:0:0:0:
24,220,55587,1,0,3:2:0:0:
140,248,55737,1,4,0:3:0:0:
256,132,55887,5,0,3:2:0:0:
148,164,56037,1,2,0:2:0:0:
220,24,56187,1,4,3:3:0:0:
348,188,56337,1,2,0:0:0:0:
316,272,56487,1,0,3:2:0:0:
348,188,56637,1,4,0:3:0:0:
256,212,56787,2,0,P|224:268|248:356,1,111.999996582031,0|2,3:2|0:0,0:0:0:0:
37,184,57087,1,2,3:2:0:0:
37,184,57162,1,2,0:2:0:0:
37,184,57237,2,0,L|165:160,1,111.999996582031,2|0,0:2|1:2,0:0:0:0:
220,24,57537,5,2,0:2:0:0:
247,27,57612,1,2,0:0:0:0:
275,30,57687,2,0,L|300:144,1,111.999996582031,4|2,3:3|0:0,0:0:0:0:
372,56,57987,2,0,P|400:124|328:288,1,223.999993164063,0|0,3:2|3:2,0:0:0:0:
280,304,58437,1,2,0:2:0:0:
192,280,58587,1,4,3:3:0:0:
92,192,58737,5,2,0:0:0:0:
48,264,58887,2,0,L|76:380,1,111.999996582031,0|2,3:2|0:0,0:0:0:0:
272,276,59187,2,0,B|288:192|232:116|232:116|156:108,1,223.999993164063,0|0,3:2|3:2,0:0:0:0:
128,36,59637,1,2,0:2:0:0:
184,248,59787,1,4,3:3:0:0:
316,80,59937,1,2,0:2:0:0:
316,80,60012,1,2,0:2:0:0:
316,80,60087,2,0,P|384:88|448:56,1,111.999996582031,4|2,3:3|0:0,0:0:0:0:
192,280,60387,2,0,P|124:272|60:304,1,111.999996582031,0|4,3:2|0:3,0:0:0:0:
36,356,60687,1,0,3:2:0:0:
120,168,60837,5,2,0:2:0:0:
120,168,60912,1,2,0:2:0:0:
120,168,60987,2,0,L|-24:196,1,111.999996582031,4|2,3:3|0:2,0:0:0:0:
188,72,61287,1,0,3:2:0:0:
272,272,61437,1,4,0:3:0:0:
248,136,61587,1,0,3:2:0:0:
336,100,61737,1,2,0:2:0:0:
476,128,61887,5,2,3:2:0:0:
447,162,61962,1,2,0:2:0:0:
410,186,62037,1,2,0:2:0:0:
367,199,62112,1,2,0:2:0:0:
322,197,62187,1,4,1:3:0:0:
428,44,62337,1,0,1:2:0:0:
140,16,62487,1,4,3:1:0:0:
28,196,62787,5,0,3:2:0:0:
120,168,62937,1,4,0:3:0:0:
52,96,63087,2,0,P|112:68|224:112,1,167.999994873047,0|0,3:2|0:0,0:0:0:0:
240,164,63387,2,0,L|220:276,1,111.999996582031,4|2,3:3|0:2,0:0:0:0:
348,212,63687,2,0,P|372:148|340:68,1,111.999996582031,0|2,3:2|0:2,0:0:0:0:
296,36,63987,1,0,3:2:0:0:
464,168,64137,1,2,0:2:0:0:
288,308,64287,1,0,3:2:0:0:
364,352,64437,1,2,0:2:0:0:
240,164,64587,5,4,3:3:0:0:
148,300,64737,1,2,0:2:0:0:
148,300,64812,1,2,0:2:0:0:
148,300,64887,2,0,P|100:228|140:72,1,223.999993164063,4|0,3:3|3:2,0:0:0:0:
244,48,65337,1,4,0:3:0:0:
364,84,65487,2,0,P|412:156|372:312,1,223.999993164063,0|4,3:2|3:3,0:0:0:0:
219,228,65937,1,2,0:0:0:0:
308,172,66087,2,0,L|288:304,1,111.999996582031,0|4,3:2|0:3,0:0:0:0:
148,300,66387,2,0,L|128:168,1,111.999996582031,0|2,3:2|0:0,0:0:0:0:
156,108,66687,1,2,3:2:0:0:
156,108,66762,1,2,0:2:0:0:
156,108,66837,1,2,0:2:0:0:
64,40,66987,5,0,1:2:0:0:
310,97,67137,1,2,0:2:0:0:
337,90,67212,1,2,0:0:0:0:
364,84,67287,2,0,B|320:248|320:248|360:272|344:344,1,223.999993164063,4|0,3:3|3:2,0:0:0:0:
248,344,67737,1,4,0:3:0:0:
144,296,67887,1,0,3:2:0:0:
264,372,68037,1,2,0:2:0:0:
144,148,68187,1,4,3:3:0:0:
8,368,68337,1,2,0:0:0:0:
72,248,68487,5,0,3:2:0:0:
144,296,68637,2,0,L|380:240,1,223.999993164063,2|2,0:0|0:2,0:0:0:0:
440,136,69087,5,0,3:2:0:0:
368,88,69237,2,0,P|316:144|144:136,1,223.999993164063,2|2,0:2|0:2,0:0:0:0:
165,128,69612,1,2,0:2:0:0:
155,102,69687,1,4,3:3:0:0:
56,60,69837,1,2,0:0:0:0:
268,120,69987,1,0,3:2:0:0:
184,272,70137,1,4,0:3:0:0:
250,229,70287,2,0,L|398:249,1,111.999996582031,0|2,3:2|0:2,0:0:0:0:
360,243,70512,1,2,0:2:0:0:
360,243,70587,1,4,3:3:0:0:
464,204,70737,1,2,0:2:0:0:
444,64,70887,6,0,P|412:120|320:136,1,111.999996582031,0|4,3:2|0:3,0:0:0:0:
344,52,71187,2,0,L|172:108,1,167.999994873047,0|0,3:2|0:0,0:0:0:0:
164,180,71487,1,2,3:2:0:0:
123,169,71562,1,2,0:2:0:0:
82,158,71637,1,2,0:2:0:0:
42,148,71712,1,2,0:2:0:0:
1,137,71787,1,4,1:3:0:0:
100,304,71937,1,0,1:2:0:0:
304,336,72087,6,0,P|248:256|288:112,1,223.999993164063,4|0,3:2|3:2,0:0:0:0:
348,200,72537,2,0,L|476:160,1,111.999996582031,4|0,0:3|3:2,0:0:0:0:
492,92,72837,1,2,0:2:0:0:
315,36,72987,2,0,L|255:160,1,111.999996582031,4|2,3:3|0:2,0:0:0:0:
100,232,73287,2,0,B|72:172|108:120|108:120|104:56|40:12,2,223.999993164063,0|0|0,3:2|3:2|3:2,0:0:0:0:
236,328,74037,1,2,0:2:0:0:
28,380,74187,1,4,3:3:0:0:
176,184,74337,5,2,0:2:0:0:
176,184,74412,1,2,0:2:0:0:
176,184,74487,1,4,3:3:0:0:
284,216,74637,1,2,0:0:0:0:
320,104,74787,1,0,3:2:0:0:
212,72,74937,1,4,0:3:0:0:
272,20,75087,5,0,3:2:0:0:
376,188,75237,1,2,0:2:0:0:
196,304,75387,1,4,3:3:0:0:
92,136,75537,1,2,0:0:0:0:
128,56,75687,5,0,3:2:0:0:
0,204,75837,1,4,0:3:0:0:
208,220,75987,2,0,P|228:160|204:88,1,111.999996582031,0|2,3:2|0:0,0:0:0:0:
313,281,76287,1,2,3:2:0:0:
313,281,76362,1,2,0:2:0:0:
313,281,76437,2,0,L|385:173,1,111.999996582031,2|0,0:2|1:2,0:0:0:0:
464,24,76737,5,2,0:2:0:0:
476,49,76812,1,2,0:0:0:0:
488,72,76887,2,0,P|412:100|276:40,1,223.999993164063,4|0,3:3|3:2,0:0:0:0:
219,113,77337,1,4,0:3:0:0:
260,196,77487,1,0,3:2:0:0:
112,72,77637,1,2,0:2:0:0:
389,19,77787,2,0,L|501:79,1,111.999996582031,4|2,3:3|0:0,0:0:0:0:
395,294,78087,5,0,3:2:0:0:
451,234,78237,2,0,L|387:14,1,223.999993164063,2|2,0:0|0:2,0:0:0:0:
117,90,78687,5,0,3:2:0:0:
60,152,78837,2,0,P|128:244|124:372,1,223.999993164063,2|2,0:2|0:2,0:0:0:0:
106,362,79212,1,2,0:2:0:0:
81,375,79287,1,4,3:3:0:0:
224,252,79437,1,2,0:0:0:0:
4,216,79587,1,0,3:2:0:0:
60,152,79737,5,4,0:3:0:0:
100,264,79887,1,0,3:2:0:0:
219,113,80037,1,2,0:2:0:0:
219,113,80112,1,2,0:2:0:0:
219,113,80187,2,0,L|183:-3,1,111.999996582031,4|2,3:3|0:2,0:0:0:0:
368,52,80487,1,0,3:2:0:0:
316,228,80637,1,4,0:3:0:0:
512,164,80787,1,0,3:2:0:0:
344,24,80937,1,2,0:2:0:0:
219,113,81087,5,2,3:2:0:0:
234,154,81162,1,2,0:2:0:0:
240,199,81237,1,2,0:2:0:0:
237,243,81312,1,2,0:2:0:0:
223,286,81387,2,0,L|88:336,1,128,4|0,1:3|1:2,0:0:0:0:
8,164,81687,6,0,P|72:184|144:160,1,111.999996582031,4|2,3:2|0:0,0:0:0:0:
484,92,81987,2,0,P|419:106|368:163,1,111.999996582031,0|4,3:2|0:3,0:0:0:0:
158,372,82287,2,0,P|207:326|222:252,1,111.999996582031,0|2,3:2|0:0,0:0:0:0:
250,5,82587,2,0,L|211:137,1,111.999996582031,4|2,3:3|0:0,0:0:0:0:
347,335,82887,2,0,L|308:203,1,111.999996582031,0|2,3:2|0:0,0:0:0:0:
106,121,83187,2,0,P|40:135|-9:192,1,111.999996582031,0|2,3:2|0:0,0:0:0:0:
420,178,83487,2,0,P|469:132|484:58,1,111.999996582031,0|2,3:2|0:0,0:0:0:0:
408,16,83787,1,4,3:3:0:0:
452,297,83937,5,2,0:0:0:0:
452,297,84012,1,2,0:0:0:0:
452,297,84087,2,0,L|316:345,1,111.999996582031,4|2,3:3|0:0,0:0:0:0:
60,297,84387,2,0,L|196:345,1,111.999996582031,0|4,3:2|0:3,0:0:0:0:
256,192,84687,2,0,P|264:144|220:56,1,111.999996582031,0|2,3:2|0:0,0:0:0:0:
217,81,84912,1,2,0:0:0:0:
189,78,84987,1,4,3:3:0:0:
344,40,85137,1,2,0:0:0:0:
68,112,85287,5,0,3:2:0:0:
215,263,85437,1,4,0:3:0:0:
316,132,85587,1,0,3:2:0:0:
0,56,85737,1,2,0:0:0:0:
102,30,85887,5,2,3:2:0:0:
80,69,85962,1,2,0:0:0:0:
68,112,86037,1,2,0:0:0:0:
68,157,86112,1,2,0:0:0:0:
77,200,86187,1,0,3:2:0:0:
296,272,86337,1,2,0:0:0:0:
456,132,86487,6,0,B|400:120|400:120|364:152|364:152|332:140|268:148|268:148|240:112|200:112,1,280
144,160,88687,2,0,L|156:220,2,40.000001525879
