osu file format v14

[General]
AudioFilename: audio.mp3
AudioLeadIn: 0
PreviewTime: 236655
Countdown: 0
SampleSet: Normal
StackLeniency: 0.7
Mode: 1
LetterboxInBreaks: 0
WidescreenStoryboard: 0

[Editor]
DistanceSpacing: 2.4
BeatDivisor: 12
GridSize: 16
TimelineZoom: 1.9

[Metadata]
Title:Answer
TitleUnicode:アンサー
Artist:BUMP OF CHICKEN
ArtistUnicode:BUMP OF CHICKEN
Creator:Ognjen3800
Version:The Significance of Self-belief
Source:3月のライオン
Tags:japanese jp anime op opening season 1 1st full ver version march comes in like a lion sangatsu no raion 3-gatsu 3gatsu rei kiriyama j-rock jrock rock pop jpop j-pop バンプ・オブ・チキン 桐山零 藤原基央 Fujiwara Motoo 増川弘明 Masukawa Hiroaki 直井由文 Naoi Yoshifumi 升秀夫 Masu Hideo boc
BeatmapID:4407612
BeatmapSetID:2101002

[Difficulty]
HPDrainRate:5.5
CircleSize:5
OverallDifficulty:5
ApproachRate:5
SliderMultiplier:1.4
SliderTickRate:1

[Events]
//Background and Video events
0,0,"Answer.jpg",0,100
//Break Periods
//Storyboard Layer 0 (Background)
//Storyboard Layer 1 (Fail)
//Storyboard Layer 2 (Pass)
//Storyboard Layer 3 (Foreground)
//Storyboard Layer 4 (Overlay)
//Storyboard Sound Samples

[TimingPoints]
-4819,451.127819548872,4,1,0,50,1,0
591,-125,4,1,0,50,0,0
2394,-125,4,1,0,50,0,0
3855,-125,4,1,0,50,0,0
9268,-111.111111111111,4,1,0,70,0,0
9381,-111.111111111111,4,1,0,70,0,0
9494,-111.111111111111,4,1,0,70,0,0
12990,-100,4,1,0,70,0,0
13103,-100,4,1,0,70,0,0
16486,-90.9090909090909,2,1,0,80,0,0
16620,451.127819548872,4,1,0,80,1,8
16620,-90.9090909090909,4,1,0,80,0,8
16844,451.127819548872,4,1,0,80,1,0
16844,-90.9090909090909,4,1,0,80,0,0
24057,-90.9090909090909,2,1,0,80,0,0
24170,-90.9090909090909,4,1,0,80,0,0
30146,-90.9090909090909,4,1,0,80,0,0
30371,-92.5880325043093,4,1,0,80,0,0
30597,-94.3380446600318,4,1,0,80,0,0
30822,-96.1472894647119,4,1,0,80,0,0
30935,-97.0823650916602,4,1,0,80,0,0
31048,-98.0358074048323,4,1,0,80,0,0
31161,-99.0081629070482,4,1,0,80,0,0
31274,-100,4,1,0,80,0,0
31500,-111.111111111111,4,1,0,65,0,8
45711,-111.111111111111,4,1,0,65,0,8
59243,-111.111111111111,4,1,0,65,0,8
59469,-108.114587078988,4,1,0,65,0,8
59695,-105.263157894737,4,1,0,65,0,8
59807,-103.905080059901,4,1,0,65,0,8
59920,-102.56993404594,4,1,0,65,0,8
60033,-101.268665094869,4,1,0,65,0,8
60146,-100,4,1,0,65,0,8
60372,-100,4,1,0,70,0,8
73454,-98.0392156862745,4,1,0,70,0,8
73567,-96.3361516781963,4,1,0,70,0,8
73680,-94.6912460965045,4,1,0,70,0,8
73905,-91.577768035462,4,1,0,70,0,8
74131,-88.6499740651672,4,1,0,70,0,8
74243,-87.2673258134893,4,1,0,70,0,8
74356,-85.9153642263047,4,1,0,70,0,8
74469,-84.6046532559291,4,1,0,70,0,8
74575,-83.3333333333333,4,1,0,85,0,8
74588,-83.3333333333333,4,1,0,85,0,9
81349,-82.6446280991736,4,1,0,85,0,9
81462,-81.9657234247497,4,1,0,85,0,9
81574,-81.3037442988228,4,1,0,85,0,9
81687,-80.6466033653416,4,1,0,85,0,9
81800,-80,4,1,0,85,0,9
86988,-80.6451612903226,4,1,0,85,0,9
87101,-80.7902319435822,4,1,0,85,0,9
87214,-80.93582546568,4,1,0,85,0,9
87439,-81.2272923702364,4,1,0,85,0,9
87665,-81.5221756381219,4,1,0,85,0,9
87778,-81.6704216285806,4,1,0,85,0,9
87890,-81.8178886954279,4,1,0,85,0,9
88116,-82.1170835895279,4,1,0,85,0,9
88341,-82.4171362684119,4,1,0,85,0,9
88567,-82.7207380482796,4,1,0,85,0,9
88680,-82.8733792743068,4,1,0,85,0,9
88792,-83.0252265811602,4,1,0,85,0,9
88905,-83.1789946404865,4,1,0,85,0,9
89018,-83.3333333333333,4,1,0,85,0,9
95785,-82.6446280991736,4,1,0,85,0,9
95898,-81.9657234247497,4,1,0,85,0,9
96010,-81.3037442988228,4,1,0,85,0,9
96123,-80.6466033653416,4,1,0,85,0,9
96236,-80,4,1,0,85,0,9
101424,-80,4,1,0,85,0,9
101537,-79.4691616590655,4,1,0,85,0,9
101650,-78.9453216146846,4,1,0,85,0,9
101875,-77.9225764351381,4,1,0,85,0,9
101988,-77.4188627436025,4,1,0,85,0,9
102101,-76.9216195221765,4,1,0,85,0,9
102326,-75.9503142771625,4,1,0,85,0,9
102552,-74.9990763660546,4,1,0,85,0,9
102665,-74.5323371211426,4,1,0,85,0,9
102777,-74.0754255687934,4,1,0,85,0,9
102890,-73.6200768840212,4,1,0,85,0,9
103003,-73.1702921405014,4,1,0,85,0,9
103116,-72.7259699781464,4,1,0,85,0,9
103228,-72.2908728321641,4,1,0,85,0,9
103341,-71.8571352719421,4,1,0,85,0,9
103454,-71.4285714285714,4,1,0,85,0,9
103681,-83.3333333333333,4,1,0,85,0,9
108868,-83.3333333333333,4,1,0,85,0,9
109093,-82.4765821338817,4,1,0,85,0,9
109168,-82.1948998178506,4,1,0,85,0,9
109243,-81.9151350124801,4,1,0,85,0,9
109319,-81.6335760481208,4,1,0,85,0,9
109544,-80.8112464183381,4,1,0,85,0,9
109770,-80.0017728924741,4,1,0,85,0,9
109995,-79.2118313073244,4,1,0,85,0,9
110071,-78.948519441893,4,1,0,85,0,9
110221,-78.4339286490245,4,1,0,85,0,9
110334,-78.0506788895615,4,1,0,85,0,9
110446,-77.6744986659781,4,1,0,85,0,9
110559,-77.2986167615948,4,1,0,85,0,9
110673,-76.9230769230769,4,1,0,85,0,9
110899,-83.3333333333333,4,1,0,85,0,9
116086,-84.7457627118644,4,1,0,85,0,9
116311,-86.8560979717537,4,1,0,85,0,9
116424,-87.9561047871511,4,1,0,85,0,9
116537,-89.0843315220342,4,1,0,85,0,9
116762,-91.4192522360997,4,1,0,85,0,9
116988,-93.8910967312374,4,1,0,85,0,9
117101,-95.1778322655488,4,1,0,85,0,9
117213,-96.4884614767813,4,1,0,85,0,9
117326,-97.847888545563,4,1,0,85,0,9
117439,-99.246168987909,4,1,0,85,0,9
117552,-100.684992636887,4,1,0,85,0,9
117664,-102.152850092815,4,1,0,85,0,9
117777,-103.677834770272,4,1,0,85,0,9
117896,-105.263157894737,4,1,0,85,0,8
118004,-111.111111111111,4,1,0,65,0,8
131649,-111.111111111111,4,1,0,65,0,8
131725,-110.431449310823,4,1,0,65,0,8
131800,-109.760051880674,4,1,0,65,0,8
131875,-109.096768995246,4,1,0,65,0,8
132101,-107.145683310912,4,1,0,65,0,8
132326,-105.27134193749,4,1,0,65,0,8
132553,-111.111111111111,4,1,0,65,0,8
145634,-109.89010989011,4,1,0,65,0,8
145747,-108.821486455198,4,1,0,65,0,8
145860,-107.764179874466,4,1,0,65,0,8
146086,-105.710028395513,4,1,0,65,0,8
146311,-103.741308906302,4,1,0,65,0,8
146424,-102.779979772025,4,1,0,65,0,8
146537,-101.836303558854,4,1,0,65,0,8
146649,-100.9179236674,4,1,0,65,0,8
146763,-100,4,1,0,65,0,8
146989,-100,4,1,0,70,0,8
159619,-97.1069627967789,4,1,0,70,0,8
159732,-95.9724805142131,4,1,0,70,0,8
159845,-94.8642000052148,4,1,0,70,0,8
160071,-92.7226953683047,4,1,0,70,0,8
160296,-90.6846009679418,4,1,0,70,0,8
160409,-89.6944537698653,4,1,0,70,0,8
160520,-88.7256950455718,4,1,0,70,0,8
160634,-87.7859401838056,4,1,0,70,0,8
160747,-86.8577559300359,4,1,0,70,0,8
160859,-85.9489941980891,4,1,0,70,0,8
160972,-85.0590516675291,4,1,0,70,0,8
161086,-84.1873497497066,4,1,0,70,0,8
161193,-84.0336134453781,4,1,0,85,0,8
161204,-83.3408150056114,4,1,0,85,0,9
167965,-82.6446280991736,4,1,0,85,0,9
168078,-81.9716825096785,4,1,0,85,0,9
168191,-81.3037442988228,4,1,0,85,0,9
168304,-80.6466033653416,4,1,0,85,0,9
168417,-80,4,1,0,85,0,9
173604,-80.6451612903226,4,1,0,85,0,9
173717,-80.788945843548,4,1,0,85,0,9
173829,-80.9332440276848,4,1,0,85,0,9
174055,-81.2259923175416,4,1,0,85,0,9
174281,-81.5208661290841,4,1,0,85,0,9
174394,-81.6691073526335,4,1,0,85,0,9
174506,-81.8165696690258,4,1,0,85,0,9
174732,-82.1157548986295,4,1,0,85,0,9
174958,-82.4171362684119,4,1,0,85,0,9
175183,-82.7193897509454,4,1,0,85,0,9
175296,-82.8720259965055,4,1,0,85,0,9
175409,-83.0252265811602,4,1,0,85,0,9
175521,-83.1776313632937,4,1,0,85,0,9
175634,-83.3319649923647,4,1,0,85,0,9
182401,-82.6446280991736,4,1,0,85,0,9
182514,-81.9716825096785,4,1,0,85,0,9
182627,-81.3037442988228,4,1,0,85,0,9
182740,-80.6466033653416,4,1,0,85,0,9
182852,-80.0056766777244,4,1,0,85,0,9
188040,-80.006400512041,4,1,0,85,0,9
188153,-79.4797965097955,4,1,0,85,0,9
188267,-78.9508605177092,4,1,0,85,0,9
188491,-77.9317901047357,4,1,0,85,0,9
188604,-77.4276239563815,4,1,0,85,0,9
188717,-76.9299391086268,4,1,0,85,0,9
188942,-75.9577855813489,4,1,0,85,0,9
189168,-75.0057353523498,4,1,0,85,0,9
189281,-74.5386042040507,4,1,0,85,0,9
189393,-74.0813132551322,4,1,0,85,0,9
189506,-73.6255906594876,4,1,0,85,0,9
189619,-73.1754406783645,4,1,0,85,0,9
189732,-72.7307617192993,4,1,0,85,0,9
189845,-72.291454644377,4,1,0,85,0,9
189957,-71.8612408291074,4,1,0,85,0,9
190070,-71.4323441220453,4,1,0,85,0,9
190298,-83.3333333333333,4,1,0,85,0,9
195485,-83.3333333333333,4,1,0,85,0,9
195710,-82.4761121016779,4,1,0,85,0,9
195785,-82.1942773829051,4,1,0,85,0,9
195860,-81.9143622576398,4,1,0,85,0,9
195936,-81.6326530612245,4,1,0,85,0,9
196161,-80.8098907005913,4,1,0,85,0,9
196387,-80,4,1,0,85,0,9
196612,-79.2096597145993,4,1,0,85,0,9
196688,-78.9462167957639,4,1,0,85,0,9
196838,-78.4313725490196,4,1,0,85,0,9
196950,-78.051313113832,4,1,0,85,0,9
197063,-77.6715749590976,4,1,0,85,0,9
197176,-77.295513946613,4,1,0,85,0,9
197289,-76.9230769230769,4,1,0,85,0,9
197516,-83.3333333333333,4,1,0,85,0,9
202703,-84.0336134453782,4,1,0,85,0,9
202928,-84.8338357214403,4,1,0,85,0,9
203041,-85.2415018380789,4,1,0,85,0,9
203154,-85.6531049250535,4,1,0,85,0,9
203379,-86.4846206949452,4,1,0,85,0,9
203605,-87.3362445414847,4,1,0,85,0,9
203718,-87.768377112109,4,1,0,85,0,9
203830,-88.2009260119394,4,1,0,85,0,9
203943,-88.6416792782877,4,1,0,85,0,9
204055,-89.082900428625,4,1,0,85,0,9
204168,-89.5325349519333,4,1,0,85,0,9
204281,-89.9867314464719,4,1,0,85,0,9
204394,-90.4455596945707,4,1,0,85,0,9
204513,-90.9090909090909,4,1,0,85,0,0
204620,-90.9090909090909,4,1,0,80,0,0
218040,-90.0981890463776,4,1,0,80,0,0
218153,-89.1921289429447,4,1,0,80,0,0
218266,-88.3041107423615,4,1,0,80,0,0
218379,-87.43360086852,4,1,0,80,0,0
218492,-86.5800865800866,4,1,0,80,0,0
218604,-85.7504111646655,4,1,0,80,0,0
218717,-84.9292883641226,4,1,0,80,0,0
218830,-84.1237421075702,4,1,0,80,0,0
218943,-83.3333333333333,4,1,0,80,0,0
229770,-82.6446280991736,4,1,0,80,0,0
229995,-82.0136980325437,4,1,0,80,0,0
230108,-81.7004509942153,4,1,0,80,0,0
230221,-81.3895877126736,4,1,0,80,0,0
230334,-81.0810810810811,4,1,0,80,0,0
230446,-80.7776037887179,4,1,0,80,0,0
230672,-80.1720951830407,4,1,0,80,0,0
230898,-79.5755968169761,4,1,0,80,0,0
231010,-79.2832642962907,4,1,0,80,0,0
231123,-78.9904903292671,4,1,0,80,0,0
231236,-78.6998706940659,4,1,0,80,0,0
231349,-78.4113816993767,4,1,0,80,0,0
231574,-77.8432094221568,4,1,0,80,0,0
231800,-77.2807410181692,4,1,0,80,0,0
231913,-77.0025439965777,4,1,0,80,0,0
232025,-76.7287782801326,4,1,0,80,0,0
232251,-76.1822430537733,4,1,0,80,0,0
232477,-75.6434386470018,4,1,0,80,0,0
232589,-75.3792350700555,4,1,0,80,0,0
232702,-75.1145363497532,4,1,0,80,0,0
232814,-74.8540081401522,4,1,0,80,0,0
232928,-74.5906770470556,4,1,0,80,0,0
233040,-74.333763871682,4,1,0,80,0,0
233153,-74.0763441660501,4,1,0,80,0,0
233380,-74.0740740740741,4,1,0,30,0,0
234620,-90.9090909090909,4,1,0,70,0,0
234734,-90.9090909090909,4,1,0,70,0,0
234959,-90.9090909090909,4,1,0,70,0,0
235072,-90.9090909090909,4,1,0,30,0,0
236199,-90.9090909090909,4,1,0,60,0,0
236650,-90.9090909090909,4,1,0,85,0,0
236768,-83.3333333333333,4,1,0,85,0,1
243755,-82.6446280991736,4,1,0,85,0,1
243868,-81.9657234247497,4,1,0,85,0,1
243980,-81.3037442988228,4,1,0,85,0,1
244093,-80.6466033653416,4,1,0,85,0,1
244206,-80,4,1,0,85,0,1
249394,-80.6451612903226,4,1,0,85,0,1
249507,-80.7902319435822,4,1,0,85,0,1
249619,-80.9345347260984,4,1,0,85,0,1
249845,-81.2272923702364,4,1,0,85,0,1
250071,-81.5221756381219,4,1,0,85,0,1
250184,-81.6704216285806,4,1,0,85,0,1
250296,-81.8178886954279,4,1,0,85,0,1
250522,-82.1170835895279,4,1,0,85,0,1
250634,-82.2661695574647,4,1,0,85,0,1
250747,-82.4171362684119,4,1,0,85,0,1
250860,-82.5686580762723,4,1,0,85,0,1
250973,-82.7207380482796,4,1,0,85,0,1
251086,-82.8733792743068,4,1,0,85,0,1
251198,-83.0252265811602,4,1,0,85,0,1
251311,-83.1789946404865,4,1,0,85,0,1
251424,-83.3333333333333,4,1,0,85,0,1
258191,-83.3333333333333,4,1,0,85,0,1
258304,-82.4723415927585,4,1,0,85,0,1
258416,-81.6363471807403,4,1,0,85,0,1
258529,-80.8098907005913,4,1,0,85,0,1
258642,-80,4,1,0,85,0,1
263830,-79.3650793650794,4,1,0,85,0,1
263943,-78.877462250668,4,1,0,85,0,1
264055,-78.4000370576246,4,1,0,85,0,1
264281,-77.4540462207307,4,1,0,85,0,1
264394,-76.9895603520823,4,1,0,85,0,1
264507,-76.530612244898,4,1,0,85,0,1
264732,-75.6328807525304,4,1,0,85,0,1
264958,-74.7521144800477,4,1,0,85,0,1
265071,-74.3193793911007,4,1,0,85,0,1
265183,-73.8953894516242,4,1,0,85,0,1
265296,-73.4724885142712,4,1,0,85,0,1
265409,-73.0544005294735,4,1,0,85,0,1
265522,-72.6410437992232,4,1,0,85,0,1
265634,-72.2359351548218,4,1,0,85,0,1
265747,-71.8317630082336,4,1,0,85,0,1
265861,-71.4285714285714,4,1,0,85,0,1
266087,-83.3333333333333,4,1,0,85,0,1
271274,-83.3333333333333,4,1,0,85,0,1
271499,-82.4765821338817,4,1,0,85,0,1
271574,-82.1948998178506,4,1,0,85,0,1
271649,-81.9151350124801,4,1,0,85,0,1
271725,-81.6335760481208,4,1,0,85,0,1
271950,-80.8112464183381,4,1,0,85,0,1
272176,-80.0017728924741,4,1,0,85,0,1
272401,-79.2118313073244,4,1,0,85,0,1
272477,-78.948519441893,4,1,0,85,0,1
272627,-78.4339286490245,4,1,0,85,0,1
272740,-78.0506788895615,4,1,0,85,0,1
272852,-77.6744986659781,4,1,0,85,0,1
272965,-77.2986167615948,4,1,0,85,0,1
273079,-76.9230769230769,4,1,0,85,0,1
273305,-83.3333333333333,4,1,0,85,0,1
278492,-83.3333333333333,4,1,0,85,0,1
278717,-82.4765821338817,4,1,0,85,0,1
278792,-82.1948998178506,4,1,0,85,0,1
278868,-81.9114176801597,4,1,0,85,0,1
278943,-81.6335760481208,4,1,0,85,0,1
279168,-80.8112464183381,4,1,0,85,0,1
279394,-80.0017728924741,4,1,0,85,0,1
279507,-79.6030871003308,4,1,0,85,0,1
279619,-79.2118313073244,4,1,0,85,0,1
279732,-78.8209606986899,4,1,0,85,0,1
279845,-78.4339286490245,4,1,0,85,0,1
279958,-78.0506788895615,4,1,0,85,0,1
280071,-77.6711562459658,4,1,0,85,0,1
280183,-77.2986167615948,4,1,0,85,0,1
280296,-76.926355267644,4,1,0,85,0,1
280523,-83.3333333333333,4,1,0,85,0,1
285711,-83.3333333333333,4,1,0,85,0,1
285935,-82.6446280991736,4,1,0,85,0,1
286010,-82.3575433563698,4,1,0,85,0,1
286085,-82.0686070686071,4,1,0,85,0,1
286161,-81.7778790578194,4,1,0,85,0,1
286386,-80.9291216704509,4,1,0,85,0,1
286612,-80.0941448593153,4,1,0,85,0,1
286837,-79.2798039845758,4,1,0,85,0,1
286913,-79.0084662650361,4,1,0,85,0,1
287063,-78.4783451456745,4,1,0,85,0,1
287175,-78.087137134662,4,1,0,85,0,1
287289,-77.6929284181936,4,1,0,85,0,1
287401,-77.3094925677131,4,1,0,85,0,1
287515,-76.9230769230769,4,1,0,85,0,1
287741,-83.3333333333333,4,1,0,85,0,1
292928,-83.3333333333333,4,1,0,85,0,1
293040,-83.7664748468535,4,1,0,85,0,1
293153,-84.2080709120597,4,1,0,85,0,1
293266,-84.6543476221743,4,1,0,85,0,1
293379,-85.1053797915979,4,1,0,85,0,1
293604,-86.0179184140297,4,1,0,85,0,1
293717,-86.4836375832495,4,1,0,85,0,1
293830,-86.954427208787,4,1,0,85,0,1
293943,-87.4303705497699,4,1,0,85,0,1
294055,-87.9072712219354,4,1,0,85,0,1
294280,-88.8812290722868,4,1,0,85,0,1
294394,-89.3829850450629,4,1,0,85,0,1
294506,-89.8814859077781,4,1,0,85,0,1
294619,-90.3901046622264,4,1,0,85,0,1
294738,-90.9090909090909,4,1,0,85,0,0
294846,-90.9090909090909,4,1,0,80,0,0
307815,-90.0900900900901,4,1,0,80,0,0
308040,-88.65624484214,4,1,0,80,0,0
308266,-87.2612499709903,4,1,0,80,0,0
308379,-86.5800865800866,4,1,0,80,0,0
308492,-85.9094751753604,4,1,0,80,0,0
308604,-85.254971317144,4,1,0,80,0,0
308717,-84.6046532559291,4,1,0,80,0,0
308830,-83.9641812375784,4,1,0,80,0,0
308943,-83.3333333333333,4,1,0,80,0,0
309620,-100,4,1,0,60,0,0
310974,-100,4,1,0,50,0,0
312778,-100,4,1,0,40,0,0
314583,-100,4,1,0,30,0,0
316387,-100,4,1,0,20,0,0

[HitObjects]
256,191,3977,5,0,0:0:0:0:
256,191,4203,1,8,0:0:0:0:
256,191,4429,1,0,0:0:0:0:
256,191,4541,1,0,0:0:0:0:
256,191,4654,1,8,0:0:0:0:
256,191,4880,1,0,0:0:0:0:
256,191,5105,1,8,0:0:0:0:
256,191,5331,1,8,0:0:0:0:
256,191,5444,1,0,0:0:0:0:
256,191,5556,1,0,0:0:0:0:
256,191,5782,1,0,0:0:0:0:
256,191,6008,1,8,0:0:0:0:
256,191,6233,1,0,0:0:0:0:
256,191,6346,1,8,0:0:0:0:
256,191,6459,1,0,0:0:0:0:
256,191,6684,1,8,0:0:0:0:
256,191,6910,1,0,0:0:0:0:
256,191,7135,1,8,0:0:0:0:
256,191,7587,1,0,0:0:0:0:
256,191,7812,1,8,0:0:0:0:
256,191,8038,1,0,0:0:0:0:
256,191,8150,1,0,0:0:0:0:
256,191,8263,1,8,0:0:0:0:
256,191,8489,1,0,0:0:0:0:
256,191,8714,1,8,0:0:0:0:
256,191,8940,1,8,0:0:0:0:
256,191,9053,1,8,0:0:0:0:
256,191,9165,1,0,0:0:0:0:
256,191,9391,1,12,0:0:0:0:
256,191,9842,1,0,0:0:0:0:
256,191,10068,1,8,0:0:0:0:
256,191,10519,1,8,0:0:0:0:
256,191,10744,1,0,0:0:0:0:
256,191,11196,1,8,0:0:0:0:
256,191,11647,1,8,0:0:0:0:
256,191,11759,1,0,0:0:0:0:
256,191,11872,1,0,0:0:0:0:
256,191,12098,1,8,0:0:0:0:
256,191,12323,1,8,0:0:0:0:
256,191,12549,1,0,0:0:0:0:
256,191,12774,1,0,0:0:0:0:
256,191,13000,1,12,0:0:0:0:
256,191,13451,1,0,0:0:0:0:
256,191,13677,1,8,0:0:0:0:
256,191,14128,1,8,0:0:0:0:
256,191,14353,1,0,0:0:0:0:
256,191,14805,1,8,0:0:0:0:
256,191,15256,1,8,0:0:0:0:
256,191,15707,1,8,0:0:0:0:
256,191,15932,1,0,0:0:0:0:
256,191,16158,1,8,0:0:0:0:
256,191,16233,1,0,0:0:0:0:
256,191,16308,1,0,0:0:0:0:
256,191,16384,1,8,0:0:0:0:
256,191,16620,1,12,0:0:0:0:
256,191,17069,1,0,0:0:0:0:
256,191,17182,1,0,0:0:0:0:
256,191,17295,1,8,0:0:0:0:
256,191,17520,1,0,0:0:0:0:
256,191,17746,1,8,0:0:0:0:
256,191,17859,1,0,0:0:0:0:
256,191,17971,1,8,0:0:0:0:
256,191,18197,1,0,0:0:0:0:
256,191,18422,1,8,0:0:0:0:
256,191,18874,1,8,0:0:0:0:
256,191,18986,1,8,0:0:0:0:
256,191,19099,1,0,0:0:0:0:
256,191,19325,1,8,0:0:0:0:
256,191,19550,1,0,0:0:0:0:
256,191,19663,1,0,0:0:0:0:
256,191,19776,1,8,0:0:0:0:
256,191,20001,1,8,0:0:0:0:
256,191,20114,1,8,0:0:0:0:
256,191,20227,1,8,0:0:0:0:
256,191,20453,1,0,0:0:0:0:
256,191,20678,1,0,0:0:0:0:
256,191,20791,1,8,0:0:0:0:
256,191,20904,1,8,0:0:0:0:
256,191,21129,1,0,0:0:0:0:
256,191,21355,1,8,0:0:0:0:
256,191,21468,1,0,0:0:0:0:
256,191,21580,1,8,0:0:0:0:
256,191,21806,1,0,0:0:0:0:
256,191,22031,1,8,0:0:0:0:
256,191,22483,1,8,0:0:0:0:
256,191,22934,1,0,0:0:0:0:
256,191,23159,1,8,0:0:0:0:
256,191,23385,1,0,0:0:0:0:
256,191,23610,1,8,0:0:0:0:
256,191,23723,1,8,0:0:0:0:
256,191,23836,1,0,0:0:0:0:
256,191,23949,1,8,0:0:0:0:
256,191,24062,1,4,0:0:0:0:
256,191,24287,1,8,0:0:0:0:
256,191,24400,1,0,0:0:0:0:
256,191,24513,1,8,0:0:0:0:
256,191,24738,1,0,0:0:0:0:
256,191,24964,1,8,0:0:0:0:
256,191,25077,1,8,0:0:0:0:
256,191,25189,1,0,0:0:0:0:
256,191,25415,1,0,0:0:0:0:
256,191,25640,1,8,0:0:0:0:
256,191,26092,1,8,0:0:0:0:
256,191,26204,1,0,0:0:0:0:
256,191,26317,1,8,0:0:0:0:
256,191,26543,1,8,0:0:0:0:
256,191,26768,1,0,0:0:0:0:
256,191,26881,1,0,0:0:0:0:
256,191,26994,1,8,0:0:0:0:
256,191,27219,1,8,0:0:0:0:
256,191,27332,1,8,0:0:0:0:
256,191,27445,1,0,0:0:0:0:
256,191,27671,1,8,0:0:0:0:
256,191,27896,1,0,0:0:0:0:
256,191,28009,1,8,0:0:0:0:
256,191,28122,1,0,0:0:0:0:
256,191,28347,1,0,0:0:0:0:
256,191,28573,1,8,0:0:0:0:
256,191,28686,1,0,0:0:0:0:
256,191,28798,1,8,0:0:0:0:
256,191,29024,1,0,0:0:0:0:
256,191,29250,1,8,0:0:0:0:
256,191,29701,1,8,0:0:0:0:
256,191,30152,1,0,0:0:0:0:
256,191,30377,1,8,0:0:0:0:
256,191,30603,1,0,0:0:0:0:
256,191,30828,1,8,0:0:0:0:
256,191,30941,1,8,0:0:0:0:
256,191,31054,1,0,0:0:0:0:
256,191,31167,1,8,0:0:0:0:
256,191,31280,1,4,0:0:0:0:
256,191,31731,1,8,0:0:0:0:
256,191,31956,1,8,0:0:0:0:
256,191,32182,1,0,0:0:0:0:
256,191,32633,1,8,0:0:0:0:
256,191,32859,1,8,0:0:0:0:
256,191,33084,1,0,0:0:0:0:
256,191,33197,1,0,0:0:0:0:
256,191,33310,1,8,0:0:0:0:
256,191,33535,1,0,0:0:0:0:
256,191,33986,1,0,0:0:0:0:
256,191,34437,1,8,0:0:0:0:
256,191,34663,1,8,0:0:0:0:
256,191,34889,1,0,0:0:0:0:
256,191,35340,1,0,0:0:0:0:
256,191,35565,1,8,0:0:0:0:
256,191,35791,1,0,0:0:0:0:
256,191,35904,1,0,0:0:0:0:
256,191,36016,1,8,0:0:0:0:
256,191,36242,1,0,0:0:0:0:
256,191,36468,1,8,0:0:0:0:
256,191,36580,1,0,0:0:0:0:
256,191,36693,1,0,0:0:0:0:
256,191,36919,1,0,0:0:0:0:
256,191,37144,1,8,0:0:0:0:
256,191,37595,1,8,0:0:0:0:
256,191,37821,1,0,0:0:0:0:
256,191,38047,1,8,0:0:0:0:
256,191,38272,1,0,0:0:0:0:
256,191,38498,1,8,0:0:0:0:
256,191,38949,1,0,0:0:0:0:
256,191,39174,1,8,0:0:0:0:
256,191,39400,1,8,0:0:0:0:
256,191,39851,1,8,0:0:0:0:
256,191,40077,1,0,0:0:0:0:
256,191,40302,1,8,0:0:0:0:
256,191,40415,1,0,0:0:0:0:
256,191,40528,1,8,0:0:0:0:
256,191,40753,1,8,0:0:0:0:
256,191,41204,1,8,0:0:0:0:
256,191,41656,1,0,0:0:0:0:
256,191,42107,1,8,0:0:0:0:
256,191,42558,1,0,0:0:0:0:
256,191,42783,1,8,0:0:0:0:
256,191,42896,1,8,0:0:0:0:
256,191,43009,1,8,0:0:0:0:
256,191,43460,1,8,0:0:0:0:
256,191,43686,1,0,0:0:0:0:
256,191,43911,1,8,0:0:0:0:
256,191,44362,1,0,0:0:0:0:
256,191,44813,1,8,0:0:0:0:
256,191,45039,1,0,0:0:0:0:
256,191,45265,1,8,0:0:0:0:
256,191,45490,1,0,0:0:0:0:
256,191,45716,1,12,0:0:0:0:
256,191,46167,1,8,0:0:0:0:
256,191,46618,1,0,0:0:0:0:
256,191,47069,1,8,0:0:0:0:
256,191,47295,1,0,0:0:0:0:
256,191,47520,1,8,0:0:0:0:
256,191,47633,1,0,0:0:0:0:
256,191,47746,1,8,0:0:0:0:
256,191,47971,1,0,0:0:0:0:
256,191,48422,1,8,0:0:0:0:
256,191,48874,1,0,0:0:0:0:
256,191,49099,1,0,0:0:0:0:
256,191,49325,1,8,0:0:0:0:
256,191,49776,1,8,0:0:0:0:
256,191,50001,1,0,0:0:0:0:
256,191,50227,1,8,0:0:0:0:
256,191,50340,1,8,0:0:0:0:
256,191,50453,1,0,0:0:0:0:
256,191,50678,1,8,0:0:0:0:
256,191,50904,1,0,0:0:0:0:
256,191,51129,1,8,0:0:0:0:
256,191,51355,1,8,0:0:0:0:
256,191,51580,1,0,0:0:0:0:
256,191,52031,1,8,0:0:0:0:
256,191,52257,1,0,0:0:0:0:
256,191,52483,1,8,0:0:0:0:
256,191,52708,1,8,0:0:0:0:
256,191,52934,1,0,0:0:0:0:
256,191,53385,1,0,0:0:0:0:
256,191,53610,1,8,0:0:0:0:
256,191,53836,1,0,0:0:0:0:
256,191,54287,1,8,0:0:0:0:
256,191,54513,1,8,0:0:0:0:
256,191,54738,1,0,0:0:0:0:
256,191,54851,1,0,0:0:0:0:
256,191,54964,1,8,0:0:0:0:
256,191,55189,1,0,0:0:0:0:
256,191,55640,1,8,0:0:0:0:
256,191,56092,1,0,0:0:0:0:
256,191,56317,1,8,0:0:0:0:
256,191,56543,1,8,0:0:0:0:
256,191,56994,1,8,0:0:0:0:
256,191,57219,1,8,0:0:0:0:
256,191,57445,1,0,0:0:0:0:
256,191,57896,1,8,0:0:0:0:
256,191,58122,1,0,0:0:0:0:
256,191,58347,1,8,0:0:0:0:
256,191,58460,1,0,0:0:0:0:
256,191,58573,1,0,0:0:0:0:
256,191,58798,1,8,0:0:0:0:
256,191,59250,1,8,0:0:0:0:
256,191,59475,1,0,0:0:0:0:
256,191,59701,1,8,0:0:0:0:
256,191,59813,1,8,0:0:0:0:
256,191,59926,1,0,0:0:0:0:
256,191,60039,1,0,0:0:0:0:
256,191,60152,1,12,0:0:0:0:
256,191,60603,1,8,0:0:0:0:
256,191,60716,1,0,0:0:0:0:
256,191,60828,1,8,0:0:0:0:
256,191,61054,1,0,0:0:0:0:
256,191,61280,1,8,0:0:0:0:
256,191,61505,1,8,0:0:0:0:
256,191,61731,1,0,0:0:0:0:
256,191,61843,1,0,0:0:0:0:
256,191,61956,1,8,0:0:0:0:
256,191,62182,1,0,0:0:0:0:
256,191,62407,1,8,0:0:0:0:
256,191,62633,1,0,0:0:0:0:
256,191,63084,1,0,0:0:0:0:
256,191,63310,1,8,0:0:0:0:
256,191,63535,1,0,0:0:0:0:
256,191,63761,1,8,0:0:0:0:
256,191,63874,1,0,0:0:0:0:
256,191,63986,1,8,0:0:0:0:
256,191,64212,1,0,0:0:0:0:
256,191,64437,1,8,0:0:0:0:
256,191,64550,1,8,0:0:0:0:
256,191,64663,1,0,0:0:0:0:
256,191,64889,1,0,0:0:0:0:
256,191,65114,1,8,0:0:0:0:
256,191,65340,1,0,0:0:0:0:
256,191,65453,1,0,0:0:0:0:
256,191,65565,1,8,0:0:0:0:
256,191,65791,1,8,0:0:0:0:
256,191,66016,1,0,0:0:0:0:
256,191,66242,1,8,0:0:0:0:
256,191,66693,1,0,0:0:0:0:
256,191,66919,1,8,0:0:0:0:
256,191,67144,1,0,0:0:0:0:
256,191,67370,1,12,0:0:0:0:
256,191,67821,1,8,0:0:0:0:
256,191,67934,1,0,0:0:0:0:
256,191,68047,1,8,0:0:0:0:
256,191,68272,1,0,0:0:0:0:
256,191,68498,1,8,0:0:0:0:
256,191,68723,1,8,0:0:0:0:
256,191,68949,1,0,0:0:0:0:
256,191,69062,1,0,0:0:0:0:
256,191,69174,1,8,0:0:0:0:
256,191,69400,1,0,0:0:0:0:
256,191,69625,1,8,0:0:0:0:
256,191,69738,1,0,0:0:0:0:
256,191,69851,1,8,0:0:0:0:
256,191,70077,1,0,0:0:0:0:
256,191,70528,1,8,0:0:0:0:
256,191,70753,1,0,0:0:0:0:
256,191,70979,1,8,0:0:0:0:
256,191,71092,1,8,0:0:0:0:
256,191,71204,1,0,0:0:0:0:
256,191,71430,1,8,0:0:0:0:
256,191,71656,1,0,0:0:0:0:
256,191,71881,1,8,0:0:0:0:
256,191,71994,1,0,0:0:0:0:
256,191,72107,1,0,0:0:0:0:
256,191,72332,1,8,0:0:0:0:
256,191,72558,1,0,0:0:0:0:
256,191,72671,1,0,0:0:0:0:
256,191,72783,1,8,0:0:0:0:
256,191,73009,1,0,0:0:0:0:
256,191,73234,1,8,0:0:0:0:
256,191,73460,1,0,0:0:0:0:
256,191,73573,1,8,0:0:0:0:
256,191,73686,1,0,0:0:0:0:
256,191,73911,1,8,0:0:0:0:
256,191,74137,1,0,0:0:0:0:
256,191,74250,1,0,0:0:0:0:
256,191,74362,1,0,0:0:0:0:
256,191,74475,1,0,0:0:0:0:
256,191,74588,1,12,0:0:0:0:
256,191,75039,1,8,0:0:0:0:
256,191,75152,1,8,0:0:0:0:
256,191,75265,1,0,0:0:0:0:
256,191,75490,1,8,0:0:0:0:
256,191,75716,1,0,0:0:0:0:
256,191,75941,1,8,0:0:0:0:
256,191,76054,1,0,0:0:0:0:
256,191,76167,1,8,0:0:0:0:
256,191,76280,1,8,0:0:0:0:
256,191,76392,1,0,0:0:0:0:
256,191,76618,1,8,0:0:0:0:
256,191,76731,1,8,0:0:0:0:
256,191,76843,1,0,0:0:0:0:
256,191,77069,1,8,0:0:0:0:
256,191,77182,1,0,0:0:0:0:
256,191,77295,1,8,0:0:0:0:
256,191,77520,1,0,0:0:0:0:
256,191,77746,1,8,0:0:0:0:
256,191,77859,1,0,0:0:0:0:
256,191,77971,1,0,0:0:0:0:
256,191,78197,1,8,0:0:0:0:
256,191,78648,1,8,0:0:0:0:
256,191,78761,1,0,0:0:0:0:
256,191,78874,1,8,0:0:0:0:
256,191,79099,1,0,0:0:0:0:
256,191,79325,1,8,0:0:0:0:
256,191,79550,1,0,0:0:0:0:
256,191,79663,1,0,0:0:0:0:
256,191,79776,1,8,0:0:0:0:
256,191,79889,1,8,0:0:0:0:
256,191,80001,1,0,0:0:0:0:
256,191,80227,1,8,0:0:0:0:
256,191,80340,1,0,0:0:0:0:
256,191,80453,1,8,0:0:0:0:
256,191,80678,1,0,0:0:0:0:
256,191,80791,1,0,0:0:0:0:
256,191,80904,1,8,0:0:0:0:
256,191,81129,1,0,0:0:0:0:
256,191,81355,1,8,0:0:0:0:
256,191,81468,1,8,0:0:0:0:
256,191,81580,1,0,0:0:0:0:
256,191,81693,1,0,0:0:0:0:
256,191,81806,1,12,0:0:0:0:
256,191,82031,1,0,0:0:0:0:
256,191,82257,1,8,0:0:0:0:
256,191,82370,1,0,0:0:0:0:
256,191,82483,1,8,0:0:0:0:
256,191,82708,1,0,0:0:0:0:
256,191,83159,1,0,0:0:0:0:
256,191,83272,1,0,0:0:0:0:
256,191,83385,1,8,0:0:0:0:
256,191,83498,1,8,0:0:0:0:
256,191,83610,1,0,0:0:0:0:
256,191,83836,1,8,0:0:0:0:
256,191,83949,1,8,0:0:0:0:
256,191,84062,1,8,0:0:0:0:
256,191,84287,1,0,0:0:0:0:
256,191,84400,1,0,0:0:0:0:
256,191,84513,1,8,0:0:0:0:
256,191,84738,1,0,0:0:0:0:
256,191,84964,1,8,0:0:0:0:
256,191,85077,1,8,0:0:0:0:
256,191,85189,1,0,0:0:0:0:
256,191,85415,1,8,0:0:0:0:
256,191,85640,1,0,0:0:0:0:
256,191,85866,1,8,0:0:0:0:
256,191,85979,1,0,0:0:0:0:
256,191,86092,1,8,0:0:0:0:
256,191,86317,1,8,0:0:0:0:
256,191,86543,1,0,0:0:0:0:
256,191,86994,1,0,0:0:0:0:
256,191,87107,1,0,0:0:0:0:
256,191,87219,1,8,0:0:0:0:
256,191,87445,1,0,0:0:0:0:
256,191,87671,1,8,0:0:0:0:
256,191,87783,1,0,0:0:0:0:
256,191,87896,1,8,0:0:0:0:
256,191,88122,1,0,0:0:0:0:
256,191,88347,1,8,0:0:0:0:
256,191,88573,1,0,0:0:0:0:
256,191,88686,1,0,0:0:0:0:
256,191,88798,1,8,0:0:0:0:
256,191,88911,1,0,0:0:0:0:
256,191,89024,1,12,0:0:0:0:
256,191,89250,1,0,0:0:0:0:
256,191,89475,1,8,0:0:0:0:
256,191,89588,1,8,0:0:0:0:
256,191,89701,1,0,0:0:0:0:
256,191,89926,1,8,0:0:0:0:
256,191,90377,1,0,0:0:0:0:
256,191,90490,1,0,0:0:0:0:
256,191,90603,1,8,0:0:0:0:
256,191,90828,1,0,0:0:0:0:
256,191,91054,1,8,0:0:0:0:
256,191,91167,1,0,0:0:0:0:
256,191,91280,1,8,0:0:0:0:
256,191,91505,1,0,0:0:0:0:
256,191,91731,1,0,0:0:0:0:
256,191,91956,1,8,0:0:0:0:
256,191,92182,1,0,0:0:0:0:
256,191,92295,1,0,0:0:0:0:
256,191,92407,1,8,0:0:0:0:
256,191,92633,1,8,0:0:0:0:
256,191,92859,1,0,0:0:0:0:
256,191,92971,1,8,0:0:0:0:
256,191,93084,1,0,0:0:0:0:
256,191,93310,1,0,0:0:0:0:
256,191,93535,1,8,0:0:0:0:
256,191,93986,1,8,0:0:0:0:
256,191,94099,1,0,0:0:0:0:
256,191,94212,1,8,0:0:0:0:
256,191,94437,1,0,0:0:0:0:
256,191,94663,1,8,0:0:0:0:
256,191,94776,1,8,0:0:0:0:
256,191,94889,1,0,0:0:0:0:
256,191,95114,1,8,0:0:0:0:
256,191,95340,1,0,0:0:0:0:
256,191,95565,1,8,0:0:0:0:
256,191,95791,1,0,0:0:0:0:
256,191,95904,1,0,0:0:0:0:
256,191,96016,1,8,0:0:0:0:
256,191,96129,1,0,0:0:0:0:
256,191,96242,1,12,0:0:0:0:
256,191,96468,1,0,0:0:0:0:
256,191,96693,1,8,0:0:0:0:
256,191,96806,1,8,0:0:0:0:
256,191,96919,1,0,0:0:0:0:
256,191,97144,1,8,0:0:0:0:
256,191,97595,1,0,0:0:0:0:
256,191,97821,1,8,0:0:0:0:
256,191,97934,1,0,0:0:0:0:
256,191,98047,1,0,0:0:0:0:
256,191,98272,1,8,0:0:0:0:
256,191,98385,1,0,0:0:0:0:
256,191,98498,1,8,0:0:0:0:
256,191,98723,1,0,0:0:0:0:
256,191,98836,1,0,0:0:0:0:
256,191,98949,1,8,0:0:0:0:
256,191,99174,1,0,0:0:0:0:
256,191,99400,1,8,0:0:0:0:
256,191,99513,1,8,0:0:0:0:
256,191,99625,1,0,0:0:0:0:
256,191,99851,1,12,0:0:0:0:
256,191,100077,1,0,0:0:0:0:
256,191,100302,1,8,0:0:0:0:
256,191,100415,1,0,0:0:0:0:
256,191,100528,1,8,0:0:0:0:
256,191,100753,1,8,0:0:0:0:
256,191,100979,1,8,0:0:0:0:
256,191,101204,1,0,0:0:0:0:
256,191,101430,1,0,0:0:0:0:
256,191,101543,1,0,0:0:0:0:
256,191,101656,1,8,0:0:0:0:
256,191,101881,1,0,0:0:0:0:
256,191,101994,1,8,0:0:0:0:
256,191,102107,1,0,0:0:0:0:
256,191,102332,1,8,0:0:0:0:
256,191,102558,1,0,0:0:0:0:
256,191,102671,1,0,0:0:0:0:
256,191,102783,1,8,0:0:0:0:
256,191,102896,1,0,0:0:0:0:
256,191,103009,1,8,0:0:0:0:
256,191,103122,1,8,0:0:0:0:
256,191,103234,1,0,0:0:0:0:
256,191,103347,1,0,0:0:0:0:
256,191,103460,1,12,0:0:0:0:
256,191,103911,1,0,0:0:0:0:
256,191,104024,1,0,0:0:0:0:
256,191,104137,1,8,0:0:0:0:
256,191,104362,1,0,0:0:0:0:
256,191,104588,1,0,0:0:0:0:
256,191,104813,1,8,0:0:0:0:
256,191,104926,1,0,0:0:0:0:
256,191,105039,1,8,0:0:0:0:
256,191,105265,1,0,0:0:0:0:
256,191,105490,1,8,0:0:0:0:
256,191,105716,1,0,0:0:0:0:
256,191,105828,1,0,0:0:0:0:
256,191,105941,1,8,0:0:0:0:
256,191,106167,1,0,0:0:0:0:
256,191,106392,1,8,0:0:0:0:
256,191,106618,1,8,0:0:0:0:
256,191,106731,1,0,0:0:0:0:
256,191,106843,1,0,0:0:0:0:
256,191,107069,1,8,0:0:0:0:
256,191,107520,1,0,0:0:0:0:
256,191,107633,1,0,0:0:0:0:
256,191,107746,1,8,0:0:0:0:
256,191,107971,1,0,0:0:0:0:
256,191,108197,1,8,0:0:0:0:
256,191,108422,1,8,0:0:0:0:
256,191,108535,1,0,0:0:0:0:
256,191,108648,1,0,0:0:0:0:
256,191,108874,1,8,0:0:0:0:
256,191,109099,1,0,0:0:0:0:
256,191,109212,1,0,0:0:0:0:
256,191,109325,1,8,0:0:0:0:
256,191,109550,1,0,0:0:0:0:
256,191,109776,1,8,0:0:0:0:
256,191,110001,1,0,0:0:0:0:
256,191,110114,1,0,0:0:0:0:
256,191,110227,1,8,0:0:0:0:
256,191,110340,1,8,0:0:0:0:
256,191,110453,1,0,0:0:0:0:
256,191,110565,1,0,0:0:0:0:
256,191,110678,1,12,0:0:0:0:
256,191,111129,1,0,0:0:0:0:
256,191,111242,1,0,0:0:0:0:
256,191,111355,1,8,0:0:0:0:
256,191,111580,1,0,0:0:0:0:
256,191,111806,1,8,0:0:0:0:
256,191,112031,1,8,0:0:0:0:
256,191,112144,1,0,0:0:0:0:
256,191,112257,1,8,0:0:0:0:
256,191,112483,1,0,0:0:0:0:
256,191,112708,1,8,0:0:0:0:
256,191,112934,1,0,0:0:0:0:
256,191,113047,1,0,0:0:0:0:
256,191,113159,1,8,0:0:0:0:
256,191,113385,1,8,0:0:0:0:
256,191,113610,1,0,0:0:0:0:
256,191,113836,1,8,0:0:0:0:
256,191,113949,1,8,0:0:0:0:
256,191,114062,1,0,0:0:0:0:
256,191,114287,1,8,0:0:0:0:
256,191,114738,1,0,0:0:0:0:
256,191,114851,1,0,0:0:0:0:
256,191,114964,1,8,0:0:0:0:
256,191,115189,1,8,0:0:0:0:
256,191,115415,1,0,0:0:0:0:
256,191,115640,1,8,0:0:0:0:
256,191,115753,1,0,0:0:0:0:
256,191,115866,1,0,0:0:0:0:
256,191,116092,1,8,0:0:0:0:
256,191,116317,1,0,0:0:0:0:
256,191,116430,1,8,0:0:0:0:
256,191,116543,1,0,0:0:0:0:
256,191,116768,1,0,0:0:0:0:
256,191,116994,1,8,0:0:0:0:
256,191,117107,1,8,0:0:0:0:
256,191,117219,1,0,0:0:0:0:
256,191,117332,1,8,0:0:0:0:
256,191,117445,1,8,0:0:0:0:
256,191,117558,1,8,0:0:0:0:
256,191,117671,1,0,0:0:0:0:
256,191,117783,1,0,0:0:0:0:
256,191,117896,1,12,0:0:0:0:
256,191,118122,1,0,0:0:0:0:
256,191,118573,1,8,0:0:0:0:
256,191,119024,1,0,0:0:0:0:
256,191,119250,1,8,0:0:0:0:
256,191,119475,1,0,0:0:0:0:
256,191,119701,1,8,0:0:0:0:
256,191,119813,1,0,0:0:0:0:
256,191,119926,1,8,0:0:0:0:
256,191,120152,1,8,0:0:0:0:
256,191,120603,1,0,0:0:0:0:
256,191,120828,1,8,0:0:0:0:
256,191,121054,1,8,0:0:0:0:
256,191,121505,1,0,0:0:0:0:
256,191,121956,1,8,0:0:0:0:
256,191,122182,1,8,0:0:0:0:
256,191,122407,1,0,0:0:0:0:
256,191,122520,1,0,0:0:0:0:
256,191,122633,1,0,0:0:0:0:
256,191,122859,1,8,0:0:0:0:
256,191,123084,1,0,0:0:0:0:
256,191,123310,1,8,0:0:0:0:
256,191,123422,1,0,0:0:0:0:
256,191,123535,1,0,0:0:0:0:
256,191,123761,1,8,0:0:0:0:
256,191,124212,1,0,0:0:0:0:
256,191,124437,1,8,0:0:0:0:
256,191,124663,1,8,0:0:0:0:
256,191,124889,1,0,0:0:0:0:
256,191,125114,1,8,0:0:0:0:
256,191,125565,1,0,0:0:0:0:
256,191,126016,1,0,0:0:0:0:
256,191,126129,1,0,0:0:0:0:
256,191,126242,1,8,0:0:0:0:
256,191,126468,1,8,0:0:0:0:
256,191,126693,1,0,0:0:0:0:
256,191,126919,1,8,0:0:0:0:
256,191,127031,1,8,0:0:0:0:
256,191,127144,1,0,0:0:0:0:
256,191,127370,1,8,0:0:0:0:
256,191,127821,1,0,0:0:0:0:
256,191,128272,1,0,0:0:0:0:
256,191,128498,1,8,0:0:0:0:
256,191,128723,1,8,0:0:0:0:
256,191,129174,1,8,0:0:0:0:
256,191,129400,1,0,0:0:0:0:
256,191,129625,1,8,0:0:0:0:
256,191,130077,1,0,0:0:0:0:
256,191,130302,1,0,0:0:0:0:
256,191,130528,1,8,0:0:0:0:
256,191,130640,1,0,0:0:0:0:
256,191,130753,1,8,0:0:0:0:
256,191,130979,1,0,0:0:0:0:
256,191,131204,1,8,0:0:0:0:
256,191,131656,1,0,0:0:0:0:
256,191,131731,1,0,0:0:0:0:
256,191,131806,1,0,0:0:0:0:
256,191,131881,1,8,0:0:0:0:
256,191,132107,1,0,0:0:0:0:
256,191,132332,1,12,0:0:0:0:
256,191,132783,1,0,0:0:0:0:
256,191,133009,1,8,0:0:0:0:
256,191,133234,1,8,0:0:0:0:
256,191,133686,1,8,0:0:0:0:
256,191,133911,1,0,0:0:0:0:
256,191,134137,1,8,0:0:0:0:
256,191,134250,1,0,0:0:0:0:
256,191,134362,1,0,0:0:0:0:
256,191,134588,1,8,0:0:0:0:
256,191,135039,1,0,0:0:0:0:
256,191,135490,1,8,0:0:0:0:
256,191,135716,1,8,0:0:0:0:
256,191,135941,1,0,0:0:0:0:
256,191,136054,1,0,0:0:0:0:
256,191,136167,1,0,0:0:0:0:
256,191,136392,1,8,0:0:0:0:
256,191,136505,1,0,0:0:0:0:
256,191,136618,1,8,0:0:0:0:
256,191,136843,1,0,0:0:0:0:
256,191,137069,1,0,0:0:0:0:
256,191,137295,1,8,0:0:0:0:
256,191,137407,1,8,0:0:0:0:
256,191,137520,1,0,0:0:0:0:
256,191,137746,1,8,0:0:0:0:
256,191,137971,1,0,0:0:0:0:
256,191,138197,1,8,0:0:0:0:
256,191,138648,1,0,0:0:0:0:
256,191,138874,1,8,0:0:0:0:
256,191,139099,1,8,0:0:0:0:
256,191,139325,1,0,0:0:0:0:
256,191,139550,1,8,0:0:0:0:
256,191,140001,1,0,0:0:0:0:
256,191,140453,1,8,0:0:0:0:
256,191,140904,1,0,0:0:0:0:
256,191,141129,1,0,0:0:0:0:
256,191,141355,1,8,0:0:0:0:
256,191,141468,1,8,0:0:0:0:
256,191,141580,1,0,0:0:0:0:
256,191,141806,1,8,0:0:0:0:
256,191,142031,1,0,0:0:0:0:
256,191,142257,1,8,0:0:0:0:
256,191,142708,1,8,0:0:0:0:
256,191,142934,1,0,0:0:0:0:
256,191,143159,1,0,0:0:0:0:
256,191,143610,1,8,0:0:0:0:
256,191,143836,1,8,0:0:0:0:
256,191,144062,1,0,0:0:0:0:
256,191,144513,1,8,0:0:0:0:
256,191,144738,1,0,0:0:0:0:
256,191,144964,1,8,0:0:0:0:
256,191,145077,1,0,0:0:0:0:
256,191,145189,1,8,0:0:0:0:
256,191,145415,1,0,0:0:0:0:
256,191,145640,1,0,0:0:0:0:
256,191,145753,1,8,0:0:0:0:
256,191,145866,1,8,0:0:0:0:
256,191,146092,1,0,0:0:0:0:
256,191,146317,1,8,0:0:0:0:
256,191,146430,1,8,0:0:0:0:
256,191,146543,1,8,0:0:0:0:
256,191,146656,1,8,0:0:0:0:
256,191,146768,1,4,0:0:0:0:
256,191,147219,1,8,0:0:0:0:
256,191,147332,1,0,0:0:0:0:
256,191,147445,1,8,0:0:0:0:
256,191,147671,1,0,0:0:0:0:
256,191,147896,1,8,0:0:0:0:
256,191,148122,1,8,0:0:0:0:
256,191,148347,1,0,0:0:0:0:
256,191,148460,1,0,0:0:0:0:
256,191,148573,1,8,0:0:0:0:
256,191,148798,1,0,0:0:0:0:
256,191,149024,1,8,0:0:0:0:
256,191,149250,1,0,0:0:0:0:
256,191,149701,1,0,0:0:0:0:
256,191,149926,1,8,0:0:0:0:
256,191,150152,1,0,0:0:0:0:
256,191,150377,1,8,0:0:0:0:
256,191,150490,1,0,0:0:0:0:
256,191,150603,1,8,0:0:0:0:
256,191,150828,1,0,0:0:0:0:
256,191,151054,1,0,0:0:0:0:
256,191,151167,1,0,0:0:0:0:
256,191,151280,1,8,0:0:0:0:
256,191,151505,1,0,0:0:0:0:
256,191,151731,1,8,0:0:0:0:
256,191,151956,1,0,0:0:0:0:
256,191,152069,1,8,0:0:0:0:
256,191,152182,1,0,0:0:0:0:
256,191,152407,1,8,0:0:0:0:
256,191,152633,1,0,0:0:0:0:
256,191,152859,1,8,0:0:0:0:
256,191,153310,1,0,0:0:0:0:
256,191,153535,1,8,0:0:0:0:
256,191,153761,1,0,0:0:0:0:
256,191,153986,1,12,0:0:0:0:
256,191,154437,1,8,0:0:0:0:
256,191,154550,1,0,0:0:0:0:
256,191,154663,1,8,0:0:0:0:
256,191,154889,1,0,0:0:0:0:
256,191,155114,1,8,0:0:0:0:
256,191,155340,1,8,0:0:0:0:
256,191,155565,1,8,0:0:0:0:
256,191,155678,1,0,0:0:0:0:
256,191,155791,1,0,0:0:0:0:
256,191,156016,1,8,0:0:0:0:
256,191,156242,1,0,0:0:0:0:
256,191,156355,1,0,0:0:0:0:
256,191,156468,1,8,0:0:0:0:
256,191,156693,1,0,0:0:0:0:
256,191,157144,1,8,0:0:0:0:
256,191,157370,1,0,0:0:0:0:
256,191,157595,1,8,0:0:0:0:
256,191,157708,1,0,0:0:0:0:
256,191,157821,1,8,0:0:0:0:
256,191,158047,1,8,0:0:0:0:
256,191,158272,1,0,0:0:0:0:
256,191,158498,1,8,0:0:0:0:
256,191,158610,1,8,0:0:0:0:
256,191,158723,1,0,0:0:0:0:
256,191,158949,1,8,0:0:0:0:
256,191,159174,1,0,0:0:0:0:
256,191,159287,1,0,0:0:0:0:
256,191,159400,1,8,0:0:0:0:
256,191,159625,1,0,0:0:0:0:
256,191,159738,1,8,0:0:0:0:
256,191,159851,1,0,0:0:0:0:
256,191,160077,1,8,0:0:0:0:
256,191,160302,1,8,0:0:0:0:
256,191,160415,1,0,0:0:0:0:
256,191,160528,1,8,0:0:0:0:
256,191,160640,1,8,0:0:0:0:
256,191,160753,1,0,0:0:0:0:
256,191,160866,1,0,0:0:0:0:
256,191,160979,1,8,0:0:0:0:
256,191,161092,1,0,0:0:0:0:
256,191,161204,1,12,0:0:0:0:
256,191,161656,1,8,0:0:0:0:
256,191,161768,1,8,0:0:0:0:
256,191,161881,1,0,0:0:0:0:
256,191,162107,1,8,0:0:0:0:
256,191,162219,1,0,0:0:0:0:
256,191,162332,1,8,0:0:0:0:
256,191,162445,1,0,0:0:0:0:
256,191,162558,1,0,0:0:0:0:
256,191,162783,1,8,0:0:0:0:
256,191,163234,1,8,0:0:0:0:
256,191,163460,1,0,0:0:0:0:
256,191,163686,1,8,0:0:0:0:
256,191,163798,1,0,0:0:0:0:
256,191,163911,1,8,0:0:0:0:
256,191,164137,1,0,0:0:0:0:
256,191,164362,1,8,0:0:0:0:
256,191,164475,1,8,0:0:0:0:
256,191,164588,1,8,0:0:0:0:
256,191,164813,1,0,0:0:0:0:
256,191,164926,1,0,0:0:0:0:
256,191,165039,1,8,0:0:0:0:
256,191,165265,1,8,0:0:0:0:
256,191,165490,1,0,0:0:0:0:
256,191,165716,1,8,0:0:0:0:
256,191,165828,1,8,0:0:0:0:
256,191,165941,1,0,0:0:0:0:
256,191,166054,1,0,0:0:0:0:
256,191,166167,1,8,0:0:0:0:
256,191,166392,1,8,0:0:0:0:
256,191,166618,1,0,0:0:0:0:
256,191,166843,1,8,0:0:0:0:
256,191,166956,1,0,0:0:0:0:
256,191,167069,1,8,0:0:0:0:
256,191,167295,1,0,0:0:0:0:
256,191,167407,1,0,0:0:0:0:
256,191,167520,1,8,0:0:0:0:
256,191,167746,1,0,0:0:0:0:
256,191,167971,1,8,0:0:0:0:
256,191,168084,1,8,0:0:0:0:
256,191,168197,1,0,0:0:0:0:
256,191,168310,1,0,0:0:0:0:
256,191,168422,1,12,0:0:0:0:
256,191,168874,1,0,0:0:0:0:
256,191,168986,1,0,0:0:0:0:
256,191,169099,1,0,0:0:0:0:
256,191,169325,1,8,0:0:0:0:
256,191,169437,1,0,0:0:0:0:
256,191,169550,1,8,0:0:0:0:
256,191,169776,1,0,0:0:0:0:
256,191,170001,1,8,0:0:0:0:
256,191,170114,1,8,0:0:0:0:
256,191,170227,1,0,0:0:0:0:
256,191,170340,1,0,0:0:0:0:
256,191,170453,1,8,0:0:0:0:
256,191,170678,1,0,0:0:0:0:
256,191,170791,1,0,0:0:0:0:
256,191,170904,1,8,0:0:0:0:
256,191,171129,1,0,0:0:0:0:
256,191,171355,1,0,0:0:0:0:
256,191,171580,1,8,0:0:0:0:
256,191,171693,1,8,0:0:0:0:
256,191,171806,1,0,0:0:0:0:
256,191,172031,1,8,0:0:0:0:
256,191,172144,1,8,0:0:0:0:
256,191,172257,1,0,0:0:0:0:
256,191,172483,1,8,0:0:0:0:
256,191,172595,1,0,0:0:0:0:
256,191,172708,1,8,0:0:0:0:
256,191,172821,1,8,0:0:0:0:
256,191,172934,1,0,0:0:0:0:
256,191,173159,1,8,0:0:0:0:
256,191,173610,1,0,0:0:0:0:
256,191,173723,1,0,0:0:0:0:
256,191,173836,1,8,0:0:0:0:
256,191,174062,1,0,0:0:0:0:
256,191,174287,1,8,0:0:0:0:
256,191,174400,1,0,0:0:0:0:
256,191,174513,1,8,0:0:0:0:
256,191,174738,1,0,0:0:0:0:
256,191,174964,1,0,0:0:0:0:
256,191,175189,1,8,0:0:0:0:
256,191,175302,1,8,0:0:0:0:
256,191,175415,1,0,0:0:0:0:
256,191,175528,1,0,0:0:0:0:
256,191,175640,1,12,0:0:0:0:
256,191,176092,1,0,0:0:0:0:
256,191,176204,1,0,0:0:0:0:
256,191,176317,1,8,0:0:0:0:
256,191,176543,1,8,0:0:0:0:
256,191,176768,1,0,0:0:0:0:
256,191,176994,1,8,0:0:0:0:
256,191,177107,1,0,0:0:0:0:
256,191,177219,1,8,0:0:0:0:
256,191,177445,1,0,0:0:0:0:
256,191,177671,1,8,0:0:0:0:
256,191,177783,1,8,0:0:0:0:
256,191,177896,1,0,0:0:0:0:
256,191,178122,1,8,0:0:0:0:
256,191,178573,1,0,0:0:0:0:
256,191,178798,1,8,0:0:0:0:
256,191,178911,1,8,0:0:0:0:
256,191,179024,1,0,0:0:0:0:
256,191,179250,1,8,0:0:0:0:
256,191,179475,1,0,0:0:0:0:
256,191,179701,1,8,0:0:0:0:
256,191,179813,1,0,0:0:0:0:
256,191,179926,1,8,0:0:0:0:
256,191,180152,1,8,0:0:0:0:
256,191,180377,1,0,0:0:0:0:
256,191,180603,1,0,0:0:0:0:
256,191,180716,1,0,0:0:0:0:
256,191,180828,1,8,0:0:0:0:
256,191,181054,1,0,0:0:0:0:
256,191,181280,1,8,0:0:0:0:
256,191,181392,1,0,0:0:0:0:
256,191,181505,1,0,0:0:0:0:
256,191,181731,1,8,0:0:0:0:
256,191,181956,1,8,0:0:0:0:
256,191,182407,1,8,0:0:0:0:
256,191,182520,1,8,0:0:0:0:
256,191,182633,1,0,0:0:0:0:
256,191,182746,1,0,0:0:0:0:
256,191,182859,1,12,0:0:0:0:
256,191,183084,1,0,0:0:0:0:
256,191,183310,1,8,0:0:0:0:
256,191,183422,1,0,0:0:0:0:
256,191,183535,1,8,0:0:0:0:
256,191,183761,1,8,0:0:0:0:
256,191,183986,1,0,0:0:0:0:
256,191,184212,1,8,0:0:0:0:
256,191,184437,1,0,0:0:0:0:
256,191,184550,1,0,0:0:0:0:
256,191,184663,1,0,0:0:0:0:
256,191,184889,1,8,0:0:0:0:
256,191,185001,1,8,0:0:0:0:
256,191,185114,1,0,0:0:0:0:
256,191,185340,1,8,0:0:0:0:
256,191,185453,1,0,0:0:0:0:
256,191,185565,1,8,0:0:0:0:
256,191,186016,1,0,0:0:0:0:
256,191,186129,1,8,0:0:0:0:
256,191,186242,1,0,0:0:0:0:
256,191,186468,1,12,0:0:0:0:
256,191,186693,1,0,0:0:0:0:
256,191,186919,1,8,0:0:0:0:
256,191,187031,1,8,0:0:0:0:
256,191,187144,1,0,0:0:0:0:
256,191,187370,1,8,0:0:0:0:
256,191,187595,1,0,0:0:0:0:
256,191,188047,1,8,0:0:0:0:
256,191,188159,1,0,0:0:0:0:
256,191,188272,1,8,0:0:0:0:
256,191,188498,1,0,0:0:0:0:
256,191,188610,1,8,0:0:0:0:
256,191,188723,1,0,0:0:0:0:
256,191,188949,1,8,0:0:0:0:
256,191,189174,1,0,0:0:0:0:
256,191,189287,1,0,0:0:0:0:
256,191,189400,1,0,0:0:0:0:
256,191,189513,1,0,0:0:0:0:
256,191,189625,1,8,0:0:0:0:
256,191,189738,1,8,0:0:0:0:
256,191,189851,1,0,0:0:0:0:
256,191,189964,1,0,0:0:0:0:
256,191,190077,1,12,0:0:0:0:
256,191,190528,1,0,0:0:0:0:
256,191,190640,1,0,0:0:0:0:
256,191,190753,1,8,0:0:0:0:
256,191,190979,1,8,0:0:0:0:
256,191,191204,1,0,0:0:0:0:
256,191,191430,1,8,0:0:0:0:
256,191,191543,1,0,0:0:0:0:
256,191,191656,1,0,0:0:0:0:
256,191,191881,1,8,0:0:0:0:
256,191,192107,1,8,0:0:0:0:
256,191,192332,1,0,0:0:0:0:
256,191,192445,1,0,0:0:0:0:
256,191,192558,1,8,0:0:0:0:
256,191,192783,1,0,0:0:0:0:
256,191,193009,1,0,0:0:0:0:
256,191,193234,1,8,0:0:0:0:
256,191,193347,1,8,0:0:0:0:
256,191,193460,1,0,0:0:0:0:
256,191,193686,1,8,0:0:0:0:
256,191,194137,1,0,0:0:0:0:
256,191,194250,1,0,0:0:0:0:
256,191,194362,1,8,0:0:0:0:
256,191,194588,1,0,0:0:0:0:
256,191,194813,1,8,0:0:0:0:
256,191,195039,1,8,0:0:0:0:
256,191,195152,1,0,0:0:0:0:
256,191,195265,1,8,0:0:0:0:
256,191,195490,1,8,0:0:0:0:
256,191,195716,1,0,0:0:0:0:
256,191,195828,1,8,0:0:0:0:
256,191,195941,1,0,0:0:0:0:
256,191,196167,1,0,0:0:0:0:
256,191,196392,1,8,0:0:0:0:
256,191,196618,1,8,0:0:0:0:
256,191,196731,1,0,0:0:0:0:
256,191,196843,1,8,0:0:0:0:
256,191,196956,1,8,0:0:0:0:
256,191,197069,1,0,0:0:0:0:
256,191,197182,1,0,0:0:0:0:
256,191,197295,1,12,0:0:0:0:
256,191,197746,1,8,0:0:0:0:
256,191,197859,1,0,0:0:0:0:
256,191,197971,1,8,0:0:0:0:
256,191,198197,1,0,0:0:0:0:
256,191,198422,1,8,0:0:0:0:
256,191,198648,1,8,0:0:0:0:
256,191,198761,1,0,0:0:0:0:
256,191,198874,1,0,0:0:0:0:
256,191,199099,1,8,0:0:0:0:
256,191,199325,1,0,0:0:0:0:
256,191,199550,1,8,0:0:0:0:
256,191,199663,1,0,0:0:0:0:
256,191,199776,1,8,0:0:0:0:
256,191,200001,1,8,0:0:0:0:
256,191,200227,1,0,0:0:0:0:
256,191,200453,1,8,0:0:0:0:
256,191,200565,1,8,0:0:0:0:
256,191,200678,1,0,0:0:0:0:
256,191,200904,1,8,0:0:0:0:
256,191,201355,1,0,0:0:0:0:
256,191,201468,1,0,0:0:0:0:
256,191,201580,1,8,0:0:0:0:
256,191,201806,1,8,0:0:0:0:
256,191,202031,1,0,0:0:0:0:
256,191,202257,1,8,0:0:0:0:
256,191,202370,1,0,0:0:0:0:
256,191,202483,1,0,0:0:0:0:
256,191,202708,1,8,0:0:0:0:
256,191,202934,1,0,0:0:0:0:
256,191,203047,1,8,0:0:0:0:
256,191,203159,1,0,0:0:0:0:
256,191,203385,1,0,0:0:0:0:
256,191,203610,1,8,0:0:0:0:
256,191,203723,1,8,0:0:0:0:
256,191,203836,1,0,0:0:0:0:
256,191,203949,1,0,0:0:0:0:
256,191,204062,1,8,0:0:0:0:
256,191,204174,1,0,0:0:0:0:
256,191,204287,1,0,0:0:0:0:
256,191,204400,1,0,0:0:0:0:
256,191,204513,1,12,0:0:0:0:
256,191,204738,1,0,0:0:0:0:
256,191,204851,1,0,0:0:0:0:
256,191,204964,1,8,0:0:0:0:
256,191,205189,1,0,0:0:0:0:
256,191,205415,1,8,0:0:0:0:
256,191,205528,1,0,0:0:0:0:
256,191,205640,1,8,0:0:0:0:
256,191,205866,1,0,0:0:0:0:
256,191,206092,1,8,0:0:0:0:
256,191,206543,1,8,0:0:0:0:
256,191,206656,1,8,0:0:0:0:
256,191,206768,1,0,0:0:0:0:
256,191,206994,1,8,0:0:0:0:
256,191,207219,1,0,0:0:0:0:
256,191,207332,1,0,0:0:0:0:
256,191,207445,1,8,0:0:0:0:
256,191,207671,1,0,0:0:0:0:
256,191,207783,1,8,0:0:0:0:
256,191,207896,1,0,0:0:0:0:
256,191,208122,1,8,0:0:0:0:
256,191,208347,1,8,0:0:0:0:
256,191,208460,1,0,0:0:0:0:
256,191,208573,1,8,0:0:0:0:
256,191,208798,1,0,0:0:0:0:
256,191,209024,1,8,0:0:0:0:
256,191,209137,1,8,0:0:0:0:
256,191,209250,1,0,0:0:0:0:
256,191,209475,1,0,0:0:0:0:
256,191,209701,1,8,0:0:0:0:
256,191,210152,1,8,0:0:0:0:
256,191,210603,1,0,0:0:0:0:
256,191,210828,1,8,0:0:0:0:
256,191,211054,1,0,0:0:0:0:
256,191,211280,1,8,0:0:0:0:
256,191,211392,1,8,0:0:0:0:
256,191,211505,1,0,0:0:0:0:
256,191,211618,1,8,0:0:0:0:
256,191,211731,1,4,0:0:0:0:
256,191,211956,1,8,0:0:0:0:
256,191,212069,1,0,0:0:0:0:
256,191,212182,1,8,0:0:0:0:
256,191,212407,1,0,0:0:0:0:
256,191,212633,1,8,0:0:0:0:
256,191,212746,1,8,0:0:0:0:
256,191,212859,1,0,0:0:0:0:
256,191,213084,1,0,0:0:0:0:
256,191,213310,1,8,0:0:0:0:
256,191,213761,1,0,0:0:0:0:
256,191,213874,1,0,0:0:0:0:
256,191,213986,1,8,0:0:0:0:
256,191,214212,1,8,0:0:0:0:
256,191,214437,1,8,0:0:0:0:
256,191,214550,1,0,0:0:0:0:
256,191,214663,1,0,0:0:0:0:
256,191,214889,1,8,0:0:0:0:
256,191,215001,1,8,0:0:0:0:
256,191,215114,1,0,0:0:0:0:
256,191,215340,1,8,0:0:0:0:
256,191,215565,1,0,0:0:0:0:
256,191,215678,1,0,0:0:0:0:
256,191,215791,1,8,0:0:0:0:
256,191,216016,1,0,0:0:0:0:
256,191,216242,1,8,0:0:0:0:
256,191,216355,1,0,0:0:0:0:
256,191,216468,1,8,0:0:0:0:
256,191,216693,1,0,0:0:0:0:
256,191,216919,1,8,0:0:0:0:
256,191,217370,1,8,0:0:0:0:
256,191,217595,1,0,0:0:0:0:
256,191,217821,1,0,0:0:0:0:
256,191,218047,1,8,0:0:0:0:
256,191,218159,1,8,0:0:0:0:
256,191,218272,1,0,0:0:0:0:
256,191,218385,1,8,0:0:0:0:
256,191,218498,1,0,0:0:0:0:
256,191,218610,1,0,0:0:0:0:
256,191,218723,1,8,0:0:0:0:
256,191,218836,1,8,0:0:0:0:
256,191,218949,1,4,0:0:0:0:
256,191,219174,1,8,0:0:0:0:
256,191,219287,1,0,0:0:0:0:
256,191,219400,1,8,0:0:0:0:
256,191,219625,1,8,0:0:0:0:
256,191,219738,1,8,0:0:0:0:
256,191,219851,1,0,0:0:0:0:
256,191,220077,1,8,0:0:0:0:
256,191,220302,1,0,0:0:0:0:
256,191,220415,1,0,0:0:0:0:
256,191,220528,1,8,0:0:0:0:
256,191,220753,1,0,0:0:0:0:
256,191,220979,1,8,0:0:0:0:
256,191,221092,1,0,0:0:0:0:
256,191,221204,1,8,0:0:0:0:
256,191,221430,1,8,0:0:0:0:
256,191,221656,1,0,0:0:0:0:
256,191,221768,1,0,0:0:0:0:
256,191,221881,1,8,0:0:0:0:
256,191,222107,1,8,0:0:0:0:
256,191,222219,1,8,0:0:0:0:
256,191,222332,1,0,0:0:0:0:
256,191,222558,1,8,0:0:0:0:
256,191,222671,1,0,0:0:0:0:
256,191,222783,1,8,0:0:0:0:
256,191,223009,1,0,0:0:0:0:
256,191,223234,1,0,0:0:0:0:
256,191,223460,1,8,0:0:0:0:
256,191,223573,1,0,0:0:0:0:
256,191,223686,1,8,0:0:0:0:
256,191,223911,1,0,0:0:0:0:
256,191,224137,1,8,0:0:0:0:
256,191,224362,1,0,0:0:0:0:
256,191,224475,1,0,0:0:0:0:
256,191,224588,1,8,0:0:0:0:
256,191,224813,1,8,0:0:0:0:
256,191,224926,1,0,0:0:0:0:
256,191,225039,1,0,0:0:0:0:
256,191,225265,1,8,0:0:0:0:
256,191,225490,1,0,0:0:0:0:
256,191,225716,1,8,0:0:0:0:
256,191,225828,1,8,0:0:0:0:
256,191,225941,1,0,0:0:0:0:
256,191,226054,1,8,0:0:0:0:
256,191,226167,1,4,0:0:0:0:
256,191,226392,1,8,0:0:0:0:
256,191,226618,1,0,0:0:0:0:
256,191,227069,1,8,0:0:0:0:
256,191,227182,1,0,0:0:0:0:
256,191,227295,1,8,0:0:0:0:
256,191,227520,1,0,0:0:0:0:
256,191,227746,1,8,0:0:0:0:
256,191,228197,1,8,0:0:0:0:
256,191,228422,1,0,0:0:0:0:
256,191,228535,1,0,0:0:0:0:
256,191,228648,1,8,0:0:0:0:
256,191,228874,1,0,0:0:0:0:
256,191,229099,1,8,0:0:0:0:
256,191,229325,1,8,0:0:0:0:
256,191,229437,1,0,0:0:0:0:
256,191,229550,1,0,0:0:0:0:
256,191,229776,1,8,0:0:0:0:
256,191,230001,1,0,0:0:0:0:
256,191,230114,1,0,0:0:0:0:
256,191,230227,1,8,0:0:0:0:
256,191,230340,1,8,0:0:0:0:
256,191,230453,1,0,0:0:0:0:
256,191,230678,1,8,0:0:0:0:
256,191,230904,1,0,0:0:0:0:
256,191,231016,1,8,0:0:0:0:
256,191,231129,1,8,0:0:0:0:
256,191,231242,1,0,0:0:0:0:
256,191,231355,1,8,0:0:0:0:
256,191,231580,1,8,0:0:0:0:
256,191,231806,1,0,0:0:0:0:
256,191,231919,1,8,0:0:0:0:
256,191,232031,1,0,0:0:0:0:
256,191,232257,1,8,0:0:0:0:
256,191,232483,1,0,0:0:0:0:
256,191,232595,1,8,0:0:0:0:
256,191,232708,1,0,0:0:0:0:
256,191,232821,1,8,0:0:0:0:
256,191,232934,1,8,0:0:0:0:
256,191,233047,1,0,0:0:0:0:
256,191,233159,1,12,0:0:0:0:
256,191,234738,1,0,0:0:0:0:
256,191,234964,1,12,0:0:0:0:
256,191,236317,1,8,0:0:0:0:
256,191,236392,1,0,0:0:0:0:
256,191,236468,1,0,0:0:0:0:
256,191,236543,1,8,0:0:0:0:
256,191,236768,1,12,0:0:0:0:
256,191,237219,1,0,0:0:0:0:
256,191,237332,1,0,0:0:0:0:
256,191,237445,1,8,0:0:0:0:
256,191,237671,1,0,0:0:0:0:
256,191,237896,1,8,0:0:0:0:
256,191,238009,1,0,0:0:0:0:
256,191,238122,1,0,0:0:0:0:
256,191,238347,1,8,0:0:0:0:
256,191,238460,1,0,0:0:0:0:
256,191,238573,1,8,0:0:0:0:
256,191,238686,1,8,0:0:0:0:
256,191,238798,1,0,0:0:0:0:
256,191,239024,1,8,0:0:0:0:
256,191,239137,1,0,0:0:0:0:
256,191,239250,1,8,0:0:0:0:
256,191,239475,1,0,0:0:0:0:
256,191,239588,1,0,0:0:0:0:
256,191,239701,1,8,0:0:0:0:
256,191,239926,1,0,0:0:0:0:
256,191,240152,1,8,0:0:0:0:
256,191,240265,1,8,0:0:0:0:
256,191,240377,1,0,0:0:0:0:
256,191,240603,1,8,0:0:0:0:
256,191,241054,1,0,0:0:0:0:
256,191,241167,1,0,0:0:0:0:
256,191,241280,1,8,0:0:0:0:
256,191,241505,1,0,0:0:0:0:
256,191,241731,1,8,0:0:0:0:
256,191,241956,1,0,0:0:0:0:
256,191,242069,1,0,0:0:0:0:
256,191,242182,1,8,0:0:0:0:
256,191,242295,1,0,0:0:0:0:
256,191,242407,1,0,0:0:0:0:
256,191,242633,1,8,0:0:0:0:
256,191,242746,1,0,0:0:0:0:
256,191,242859,1,8,0:0:0:0:
256,191,243084,1,0,0:0:0:0:
256,191,243197,1,0,0:0:0:0:
256,191,243310,1,8,0:0:0:0:
256,191,243535,1,0,0:0:0:0:
256,191,243761,1,8,0:0:0:0:
256,191,243874,1,8,0:0:0:0:
256,191,243986,1,0,0:0:0:0:
256,191,244099,1,8,0:0:0:0:
256,191,244212,1,4,0:0:0:0:
256,191,244437,1,8,0:0:0:0:
256,191,244663,1,0,0:0:0:0:
256,191,244776,1,0,0:0:0:0:
256,191,244889,1,8,0:0:0:0:
256,191,245114,1,8,0:0:0:0:
256,191,245565,1,8,0:0:0:0:
256,191,245678,1,0,0:0:0:0:
256,191,245791,1,8,0:0:0:0:
256,191,245904,1,0,0:0:0:0:
256,191,246016,1,0,0:0:0:0:
256,191,246242,1,8,0:0:0:0:
256,191,246355,1,0,0:0:0:0:
256,191,246468,1,8,0:0:0:0:
256,191,246693,1,0,0:0:0:0:
256,191,246806,1,0,0:0:0:0:
256,191,246919,1,8,0:0:0:0:
256,191,247144,1,0,0:0:0:0:
256,191,247370,1,8,0:0:0:0:
256,191,247483,1,8,0:0:0:0:
256,191,247595,1,0,0:0:0:0:
256,191,247821,1,8,0:0:0:0:
256,191,248047,1,0,0:0:0:0:
256,191,248272,1,8,0:0:0:0:
256,191,248385,1,0,0:0:0:0:
256,191,248498,1,8,0:0:0:0:
256,191,248723,1,8,0:0:0:0:
256,191,248949,1,0,0:0:0:0:
256,191,249400,1,8,0:0:0:0:
256,191,249513,1,0,0:0:0:0:
256,191,249625,1,8,0:0:0:0:
256,191,249851,1,0,0:0:0:0:
256,191,250077,1,8,0:0:0:0:
256,191,250189,1,8,0:0:0:0:
256,191,250302,1,0,0:0:0:0:
256,191,250528,1,0,0:0:0:0:
256,191,250640,1,0,0:0:0:0:
256,191,250753,1,8,0:0:0:0:
256,191,250866,1,0,0:0:0:0:
256,191,250979,1,8,0:0:0:0:
256,191,251092,1,8,0:0:0:0:
256,191,251204,1,0,0:0:0:0:
256,191,251317,1,0,0:0:0:0:
256,191,251430,1,12,0:0:0:0:
256,191,251656,1,0,0:0:0:0:
256,191,251881,1,8,0:0:0:0:
256,191,251994,1,0,0:0:0:0:
256,191,252107,1,8,0:0:0:0:
256,191,252332,1,8,0:0:0:0:
256,191,252445,1,8,0:0:0:0:
256,191,252558,1,0,0:0:0:0:
256,191,252783,1,8,0:0:0:0:
256,191,253234,1,8,0:0:0:0:
256,191,253347,1,8,0:0:0:0:
256,191,253460,1,0,0:0:0:0:
256,191,253686,1,8,0:0:0:0:
256,191,253911,1,0,0:0:0:0:
256,191,254024,1,0,0:0:0:0:
256,191,254137,1,8,0:0:0:0:
256,191,254362,1,0,0:0:0:0:
256,191,254588,1,8,0:0:0:0:
256,191,254701,1,8,0:0:0:0:
256,191,254813,1,0,0:0:0:0:
256,191,255039,1,8,0:0:0:0:
256,191,255265,1,8,0:0:0:0:
256,191,255377,1,0,0:0:0:0:
256,191,255490,1,8,0:0:0:0:
256,191,255716,1,0,0:0:0:0:
256,191,255941,1,8,0:0:0:0:
256,191,256054,1,8,0:0:0:0:
256,191,256167,1,0,0:0:0:0:
256,191,256392,1,8,0:0:0:0:
256,191,256843,1,0,0:0:0:0:
256,191,256956,1,0,0:0:0:0:
256,191,257069,1,0,0:0:0:0:
256,191,257295,1,8,0:0:0:0:
256,191,257520,1,8,0:0:0:0:
256,191,257633,1,8,0:0:0:0:
256,191,257746,1,0,0:0:0:0:
256,191,257971,1,8,0:0:0:0:
256,191,258197,1,0,0:0:0:0:
256,191,258310,1,0,0:0:0:0:
256,191,258422,1,8,0:0:0:0:
256,191,258535,1,0,0:0:0:0:
256,191,258648,1,12,0:0:0:0:
256,191,259099,1,8,0:0:0:0:
256,191,259212,1,0,0:0:0:0:
256,191,259325,1,8,0:0:0:0:
256,191,259550,1,0,0:0:0:0:
256,191,259663,1,0,0:0:0:0:
256,191,259776,1,8,0:0:0:0:
256,191,260001,1,0,0:0:0:0:
256,191,260227,1,8,0:0:0:0:
256,191,260340,1,8,0:0:0:0:
256,191,260453,1,0,0:0:0:0:
256,191,260678,1,0,0:0:0:0:
256,191,260791,1,0,0:0:0:0:
256,191,260904,1,8,0:0:0:0:
256,191,261129,1,8,0:0:0:0:
256,191,261242,1,0,0:0:0:0:
256,191,261355,1,8,0:0:0:0:
256,191,261580,1,0,0:0:0:0:
256,191,261806,1,0,0:0:0:0:
256,191,261919,1,8,0:0:0:0:
256,191,262031,1,0,0:0:0:0:
256,191,262257,1,12,0:0:0:0:
256,191,262483,1,0,0:0:0:0:
256,191,262708,1,8,0:0:0:0:
256,191,262821,1,8,0:0:0:0:
256,191,262934,1,0,0:0:0:0:
256,191,263159,1,8,0:0:0:0:
256,191,263610,1,0,0:0:0:0:
256,191,263836,1,8,0:0:0:0:
256,191,263949,1,0,0:0:0:0:
256,191,264062,1,8,0:0:0:0:
256,191,264287,1,0,0:0:0:0:
256,191,264400,1,8,0:0:0:0:
256,191,264513,1,0,0:0:0:0:
256,191,264738,1,8,0:0:0:0:
256,191,264964,1,0,0:0:0:0:
256,191,265077,1,0,0:0:0:0:
256,191,265189,1,8,0:0:0:0:
256,191,265302,1,0,0:0:0:0:
256,191,265415,1,8,0:0:0:0:
256,191,265528,1,8,0:0:0:0:
256,191,265640,1,0,0:0:0:0:
256,191,265753,1,0,0:0:0:0:
256,191,265866,1,12,0:0:0:0:
256,191,266317,1,0,0:0:0:0:
256,191,266430,1,0,0:0:0:0:
256,191,266543,1,8,0:0:0:0:
256,191,266768,1,8,0:0:0:0:
256,191,266994,1,0,0:0:0:0:
256,191,267219,1,8,0:0:0:0:
256,191,267332,1,0,0:0:0:0:
256,191,267445,1,8,0:0:0:0:
256,191,267671,1,0,0:0:0:0:
256,191,267896,1,0,0:0:0:0:
256,191,268122,1,8,0:0:0:0:
256,191,268234,1,0,0:0:0:0:
256,191,268347,1,8,0:0:0:0:
256,191,268573,1,0,0:0:0:0:
256,191,268798,1,8,0:0:0:0:
256,191,269024,1,8,0:0:0:0:
256,191,269137,1,8,0:0:0:0:
256,191,269250,1,0,0:0:0:0:
256,191,269475,1,8,0:0:0:0:
256,191,269926,1,0,0:0:0:0:
256,191,270039,1,0,0:0:0:0:
256,191,270152,1,8,0:0:0:0:
256,191,270377,1,0,0:0:0:0:
256,191,270603,1,8,0:0:0:0:
256,191,270828,1,8,0:0:0:0:
256,191,270941,1,0,0:0:0:0:
256,191,271054,1,0,0:0:0:0:
256,191,271280,1,8,0:0:0:0:
256,191,271505,1,8,0:0:0:0:
256,191,271618,1,8,0:0:0:0:
256,191,271731,1,0,0:0:0:0:
256,191,271956,1,0,0:0:0:0:
256,191,272182,1,8,0:0:0:0:
256,191,272407,1,0,0:0:0:0:
256,191,272520,1,8,0:0:0:0:
256,191,272633,1,0,0:0:0:0:
256,191,272746,1,0,0:0:0:0:
256,191,272859,1,8,0:0:0:0:
256,191,272971,1,0,0:0:0:0:
256,191,273084,1,12,0:0:0:0:
256,191,273535,1,8,0:0:0:0:
256,191,273648,1,0,0:0:0:0:
256,191,273761,1,8,0:0:0:0:
256,191,273986,1,8,0:0:0:0:
256,191,274212,1,0,0:0:0:0:
256,191,274437,1,0,0:0:0:0:
256,191,274550,1,0,0:0:0:0:
256,191,274663,1,8,0:0:0:0:
256,191,274889,1,0,0:0:0:0:
256,191,275114,1,8,0:0:0:0:
256,191,275340,1,0,0:0:0:0:
256,191,275453,1,0,0:0:0:0:
256,191,275565,1,0,0:0:0:0:
256,191,275791,1,8,0:0:0:0:
256,191,276016,1,0,0:0:0:0:
256,191,276242,1,8,0:0:0:0:
256,191,276355,1,8,0:0:0:0:
256,191,276468,1,0,0:0:0:0:
256,191,276693,1,8,0:0:0:0:
256,191,277144,1,0,0:0:0:0:
256,191,277257,1,0,0:0:0:0:
256,191,277370,1,8,0:0:0:0:
256,191,277595,1,0,0:0:0:0:
256,191,277821,1,8,0:0:0:0:
256,191,278047,1,8,0:0:0:0:
256,191,278159,1,0,0:0:0:0:
256,191,278272,1,0,0:0:0:0:
256,191,278498,1,8,0:0:0:0:
256,191,278723,1,0,0:0:0:0:
256,191,278836,1,8,0:0:0:0:
256,191,278949,1,0,0:0:0:0:
256,191,279174,1,0,0:0:0:0:
256,191,279400,1,8,0:0:0:0:
256,191,279513,1,8,0:0:0:0:
256,191,279625,1,0,0:0:0:0:
256,191,279738,1,8,0:0:0:0:
256,191,279851,1,0,0:0:0:0:
256,191,279964,1,0,0:0:0:0:
256,191,280077,1,0,0:0:0:0:
256,191,280189,1,0,0:0:0:0:
256,191,280302,1,12,0:0:0:0:
256,191,280753,1,0,0:0:0:0:
256,191,280866,1,0,0:0:0:0:
256,191,280979,1,8,0:0:0:0:
256,191,281204,1,8,0:0:0:0:
256,191,281430,1,0,0:0:0:0:
256,191,281656,1,8,0:0:0:0:
256,191,281768,1,0,0:0:0:0:
256,191,281881,1,8,0:0:0:0:
256,191,282107,1,0,0:0:0:0:
256,191,282332,1,8,0:0:0:0:
256,191,282558,1,0,0:0:0:0:
256,191,282671,1,0,0:0:0:0:
256,191,282783,1,8,0:0:0:0:
256,191,283009,1,8,0:0:0:0:
256,191,283234,1,0,0:0:0:0:
256,191,283460,1,8,0:0:0:0:
256,191,283573,1,8,0:0:0:0:
256,191,283686,1,0,0:0:0:0:
256,191,283911,1,8,0:0:0:0:
256,191,284362,1,0,0:0:0:0:
256,191,284475,1,0,0:0:0:0:
256,191,284588,1,8,0:0:0:0:
256,191,284813,1,8,0:0:0:0:
256,191,285039,1,0,0:0:0:0:
256,191,285265,1,8,0:0:0:0:
256,191,285377,1,0,0:0:0:0:
256,191,285490,1,8,0:0:0:0:
256,191,285716,1,8,0:0:0:0:
256,191,285941,1,0,0:0:0:0:
256,191,286054,1,0,0:0:0:0:
256,191,286167,1,8,0:0:0:0:
256,191,286392,1,0,0:0:0:0:
256,191,286618,1,8,0:0:0:0:
256,191,286843,1,0,0:0:0:0:
256,191,286956,1,0,0:0:0:0:
256,191,287069,1,8,0:0:0:0:
256,191,287182,1,0,0:0:0:0:
256,191,287295,1,8,0:0:0:0:
256,191,287407,1,0,0:0:0:0:
256,191,287520,1,12,0:0:0:0:
256,191,287971,1,0,0:0:0:0:
256,191,288084,1,0,0:0:0:0:
256,191,288197,1,8,0:0:0:0:
256,191,288422,1,0,0:0:0:0:
256,191,288648,1,8,0:0:0:0:
256,191,288874,1,8,0:0:0:0:
256,191,288986,1,0,0:0:0:0:
256,191,289099,1,0,0:0:0:0:
256,191,289325,1,8,0:0:0:0:
256,191,289550,1,0,0:0:0:0:
256,191,289776,1,8,0:0:0:0:
256,191,289889,1,0,0:0:0:0:
256,191,290001,1,8,0:0:0:0:
256,191,290227,1,8,0:0:0:0:
256,191,290453,1,0,0:0:0:0:
256,191,290678,1,8,0:0:0:0:
256,191,290791,1,8,0:0:0:0:
256,191,290904,1,0,0:0:0:0:
256,191,291129,1,8,0:0:0:0:
256,191,291580,1,8,0:0:0:0:
256,191,291693,1,0,0:0:0:0:
256,191,291806,1,8,0:0:0:0:
256,191,292031,1,8,0:0:0:0:
256,191,292257,1,0,0:0:0:0:
256,191,292483,1,8,0:0:0:0:
256,191,292595,1,8,0:0:0:0:
256,191,292708,1,0,0:0:0:0:
256,191,292934,1,8,0:0:0:0:
256,191,293047,1,0,0:0:0:0:
256,191,293159,1,0,0:0:0:0:
256,191,293272,1,0,0:0:0:0:
256,191,293385,1,8,0:0:0:0:
256,191,293610,1,8,0:0:0:0:
256,191,293723,1,0,0:0:0:0:
256,191,293836,1,8,0:0:0:0:
256,191,293949,1,0,0:0:0:0:
256,191,294062,1,8,0:0:0:0:
256,191,294287,1,8,0:0:0:0:
256,191,294400,1,8,0:0:0:0:
256,191,294513,1,0,0:0:0:0:
256,191,294625,1,0,0:0:0:0:
256,191,294738,1,12,0:0:0:0:
256,191,294964,1,0,0:0:0:0:
256,191,295077,1,0,0:0:0:0:
256,191,295189,1,8,0:0:0:0:
256,191,295415,1,0,0:0:0:0:
256,191,295640,1,8,0:0:0:0:
256,191,295753,1,0,0:0:0:0:
256,191,295866,1,8,0:0:0:0:
256,191,296092,1,0,0:0:0:0:
256,191,296317,1,8,0:0:0:0:
256,191,296543,1,0,0:0:0:0:
256,191,296768,1,8,0:0:0:0:
256,191,296881,1,8,0:0:0:0:
256,191,296994,1,0,0:0:0:0:
256,191,297219,1,8,0:0:0:0:
256,191,297445,1,0,0:0:0:0:
256,191,297558,1,0,0:0:0:0:
256,191,297671,1,0,0:0:0:0:
256,191,297896,1,8,0:0:0:0:
256,191,298009,1,8,0:0:0:0:
256,191,298122,1,8,0:0:0:0:
256,191,298347,1,8,0:0:0:0:
256,191,298573,1,0,0:0:0:0:
256,191,298686,1,8,0:0:0:0:
256,191,298798,1,0,0:0:0:0:
256,191,299024,1,0,0:0:0:0:
256,191,299250,1,8,0:0:0:0:
256,191,299362,1,8,0:0:0:0:
256,191,299475,1,0,0:0:0:0:
256,191,299701,1,0,0:0:0:0:
256,191,299926,1,8,0:0:0:0:
256,191,300377,1,8,0:0:0:0:
256,191,300828,1,0,0:0:0:0:
256,191,301054,1,8,0:0:0:0:
256,191,301280,1,8,0:0:0:0:
256,191,301505,1,0,0:0:0:0:
256,191,301618,1,8,0:0:0:0:
256,191,301731,1,0,0:0:0:0:
256,191,301843,1,8,0:0:0:0:
256,191,301956,1,4,0:0:0:0:
256,191,302182,1,8,0:0:0:0:
256,191,302295,1,0,0:0:0:0:
256,191,302407,1,8,0:0:0:0:
256,191,302633,1,0,0:0:0:0:
256,191,302859,1,8,0:0:0:0:
256,191,302971,1,8,0:0:0:0:
256,191,303084,1,0,0:0:0:0:
256,191,303310,1,0,0:0:0:0:
256,191,303535,1,8,0:0:0:0:
256,191,303761,1,0,0:0:0:0:
256,191,303986,1,8,0:0:0:0:
256,191,304099,1,0,0:0:0:0:
256,191,304212,1,8,0:0:0:0:
256,191,304437,1,8,0:0:0:0:
256,191,304663,1,0,0:0:0:0:
256,191,304776,1,0,0:0:0:0:
256,191,304889,1,8,0:0:0:0:
256,191,305114,1,8,0:0:0:0:
256,191,305227,1,8,0:0:0:0:
256,191,305340,1,0,0:0:0:0:
256,191,305565,1,8,0:0:0:0:
256,191,305791,1,0,0:0:0:0:
256,191,305904,1,0,0:0:0:0:
256,191,306016,1,8,0:0:0:0:
256,191,306242,1,0,0:0:0:0:
256,191,306468,1,8,0:0:0:0:
256,191,306580,1,8,0:0:0:0:
256,191,306693,1,0,0:0:0:0:
256,191,306919,1,0,0:0:0:0:
256,191,307144,1,8,0:0:0:0:
256,191,307595,1,8,0:0:0:0:
256,191,307821,1,0,0:0:0:0:
256,191,308047,1,0,0:0:0:0:
256,191,308272,1,8,0:0:0:0:
256,191,308385,1,8,0:0:0:0:
256,191,308498,1,8,0:0:0:0:
256,191,308610,1,8,0:0:0:0:
256,191,308723,1,0,0:0:0:0:
256,191,308836,1,0,0:0:0:0:
256,191,308949,1,12,0:0:0:0:
256,192,309174,12,0,316392,0:0:0:0:
