osu file format v14

[General]
AudioFilename: audio.mp3
AudioLeadIn: 0
PreviewTime: 91766
Countdown: 0
SampleSet: Soft
StackLeniency: 0.5
Mode: 0
LetterboxInBreaks: 0
WidescreenStoryboard: 1

[Editor]
Bookmarks: 92721,120150
DistanceSpacing: 1.4
BeatDivisor: 4
GridSize: 32
TimelineZoom: 1

[Metadata]
Title:Acacia
TitleUnicode:アカシア
Artist:BUMP OF CHICKEN
ArtistUnicode:BUMP OF CHICKEN
Creator:Sotarks
Version:Chiren's Hard
Source:GOTCHA!
Tags:ポケモン pokemon スペシャルミュージックビデオ japanese pop jpop j-pop male vocalist pocket monsters special music video pokémon ! ポケットモンスター toy’s factory chiga mamayu kanau fuyuyu- silky kowari ren derandom otaku basensorex
BeatmapID:2658259
BeatmapSetID:1272018

[Difficulty]
HPDrainRate:4
CircleSize:3.8
OverallDifficulty:5.5
ApproachRate:8
SliderMultiplier:1.4
SliderTickRate:1

[Events]
//Background and Video events
0,0,"bg.jpg",0,0
Video,-108,"video.mp4"
//Break Periods
2,79109,85016
//Storyboard Layer 0 (Background)
//Storyboard Layer 1 (Fail)
//Storyboard Layer 2 (Pass)
//Storyboard Layer 3 (Foreground)
//Storyboard Layer 4 (Overlay)
//Storyboard Sound Samples

[TimingPoints]
3471,428.571428571429,4,2,22,42,1,0
3471,-142.857142857143,4,2,22,42,0,0
5721,-142.857142857143,4,2,22,5,0,0
5828,-142.857142857143,4,2,22,42,0,0
8399,-142.857142857143,4,2,22,5,0,0
8613,-142.857142857143,4,2,22,42,0,0
10328,-142.857142857143,4,2,22,72,0,0
11078,-142.857142857143,4,2,22,5,0,0
11185,-142.857142857143,4,2,22,72,0,0
17935,-142.857142857143,4,2,22,5,0,0
18042,-142.857142857143,4,2,22,72,0,0
19113,-142.857142857143,4,2,22,5,0,0
19221,-142.857142857143,4,2,22,72,0,0
19435,-142.857142857143,4,2,22,5,0,0
19542,-142.857142857143,4,2,22,72,0,0
19863,-142.857142857143,4,2,22,5,0,0
19971,-142.857142857143,4,2,22,72,0,0
24042,-133.333333333333,4,2,22,82,0,0
24363,-133.333333333333,4,2,22,5,0,0
24471,-133.333333333333,4,2,22,82,0,0
26078,-133.333333333333,4,2,22,5,0,0
26186,-133.333333333333,4,2,22,82,0,0
27792,-133.333333333333,4,2,22,5,0,0
27900,-133.333333333333,4,2,22,82,0,0
28863,-133.333333333333,4,2,22,5,0,0
28971,-133.333333333333,4,2,22,82,0,0
29935,-133.333333333333,4,2,22,5,0,0
30043,-133.333333333333,4,2,22,82,0,0
30363,-133.333333333333,4,2,22,5,0,0
30471,-133.333333333333,4,2,22,82,0,0
31221,-133.333333333333,4,2,22,5,0,0
31328,-133.333333333333,4,2,22,82,0,0
33578,-133.333333333333,4,2,22,5,0,0
33686,-133.333333333333,4,2,22,82,0,0
36792,-133.333333333333,4,2,22,5,0,0
36899,-133.333333333333,4,2,22,82,0,0
40757,-133.333333333333,4,2,22,82,0,0
45578,-133.333333333333,4,2,22,5,0,0
45686,-133.333333333333,4,2,22,82,0,0
47292,-133.333333333333,4,2,22,5,0,0
47400,-133.333333333333,4,2,22,82,0,0
49756,-125,4,2,22,82,0,0
50185,-117.647058823529,4,2,22,82,0,0
50613,-105.263157894737,4,2,22,62,0,0
51256,-105.263157894737,4,2,22,72,0,0
51363,-105.263157894737,4,2,22,5,0,0
51481,428.571428571429,4,2,22,92,1,1
51481,-105.263157894737,4,2,22,92,0,1
78909,-117.647058823529,4,2,22,92,0,0
79231,-117.647058823529,4,2,22,5,0,0
79338,-117.647058823529,4,2,22,72,0,0
85766,-117.647058823529,4,2,22,92,0,0
86088,-117.647058823529,4,2,22,5,0,0
86195,-117.647058823529,4,2,22,92,0,0
88659,-117.647058823529,4,2,22,5,0,0
88766,-117.647058823529,4,2,22,92,0,0
89088,-117.647058823529,4,2,22,5,0,0
89195,-117.647058823529,4,2,22,92,0,0
89516,-117.647058823529,4,2,22,5,0,0
89623,-105.263157894737,4,2,22,92,0,0
89945,-105.263157894737,4,2,22,5,0,0
90052,-105.263157894737,4,2,22,92,0,0
90695,-117.64705882353,4,2,22,92,0,0
91231,-117.64705882353,4,2,22,5,0,0
91338,-117.64705882353,4,2,22,92,0,0
91445,-117.64705882353,4,2,22,5,0,0
91552,-117.64705882353,4,2,22,92,0,0
91659,-117.64705882353,4,2,22,5,0,0
91766,-117.64705882353,4,2,22,62,0,0
92195,-117.64705882353,4,2,22,82,0,0
92623,-100,4,2,22,92,0,1
120052,-100,4,2,22,92,0,0
147802,-100,4,2,22,5,0,0
147909,-90.9090909090909,4,2,22,92,0,0
148231,-100,4,2,22,5,0,0
148338,-100,4,2,22,92,0,0
148766,-90.9090909090909,4,2,22,92,0,0
149516,-100,4,2,22,5,0,0
149623,-100,4,2,22,92,0,0
150588,-100,4,2,22,5,0,0
150695,-100,4,2,22,92,0,0
150802,-100,4,2,22,5,0,0

[Colours]
Combo1 : 206,253,255
Combo2 : 152,150,180
Combo3 : 216,201,197
Combo4 : 254,247,107
Combo5 : 242,77,53
Combo6 : 206,166,111
Combo7 : 214,112,139
Combo8 : 92,122,199

[HitObjects]
55,69,3471,6,0,L|70:159,2,73.499997756958,2|0|2,0:2|0:2|0:2,0:0:0:0:
176,251,5185,2,0,L|161:341,2,73.499997756958,2|2|2,0:2|0:2|0:2,0:0:0:0:
286,188,6256,1,0,0:2:0:0:
286,187,6471,2,0,P|310:189|332:200,1,48.9999985046387,0|0,0:2|0:2,0:0:0:0:
403,162,6899,6,0,P|431:184|442:219,2,73.4999977569581,2|2|2,0:2|0:2|0:2,0:0:0:0:
248,40,8613,2,0,P|219:62|208:97,2,73.4999977569581,2|0|2,0:2|0:2|0:2,0:0:0:0:
367,10,9685,1,2,0:2:0:0:
367,10,9899,2,0,P|359:34|352:67,1,48.9999985046387,2|2,0:2|0:2,0:0:0:0:
401,125,10328,101,0,3:2:0:0:
280,210,10756,2,0,P|255:206|235:193,1,48.9999985046387,2|0,3:2|0:0,0:0:0:0:
335,274,11185,2,0,P|361:269|387:266,2,48.9999985046387,2|2|2,3:2|0:2|3:2,0:0:0:0:
292,349,11828,1,2,0:2:0:0:
292,349,12042,1,2,3:2:0:0:
235,193,12471,6,0,P|227:216|222:240,1,48.9999985046387,2|0,3:2|0:2,0:0:0:0:
151,281,12899,2,0,P|159:309|165:337,2,48.9999985046387,2|0|2,3:2|0:2|3:2,0:0:0:0:
100,215,13542,1,0,0:2:0:0:
100,215,13756,102,0,P|60:197|8:209,2,97.9999970092774,2|2|2,3:2|3:2|3:2,0:0:0:0:
151,281,14828,2,0,P|191:299|243:287,1,97.9999970092774,2|0,0:2|0:2,0:0:0:0:
256,278,15363,1,0,0:2:0:0:
267,264,15471,6,0,P|275:226|270:201,1,48.9999985046387,2|2,3:2|0:2,0:0:0:0:
218,160,15899,2,0,P|210:136|210:112,1,48.9999985046387,2|0,3:2|0:2,0:0:0:0:
266,51,16328,2,0,P|315:63|370:73,2,97.9999970092774,2|2|0,3:2|3:2|3:2,0:0:0:0:
112,1,17613,102,0,P|97:27|95:66,1,48.9999985046387,2|0,3:2|0:0,0:0:0:0:
133,118,18042,2,0,P|161:126|216:101,2,73.4999977569581,2|2|2,3:2|0:2|0:2,0:0:0:0:
46,128,18899,2,0,P|56:162|65:201,1,73.4999977569581,2|2,3:2|0:2,0:0:0:0:
62,216,19328,1,0,0:0:0:0:
149,220,19542,2,0,P|134:268|125:315,1,97.9999970092774,2|2,0:2|0:2,0:0:0:0:
186,379,20185,2,0,P|234:380|273:352,1,97.9999970092774,2|0,3:2|3:2,0:0:0:0:
360,352,20828,6,0,P|360:320|351:300,1,48.9999985046387,0|2,0:2|3:2,0:0:0:0:
274,272,21256,2,0,P|323:263|374:247,1,97.9999970092774,2|0,0:2|0:2,0:0:0:0:
430,195,21899,1,2,3:2:0:0:
430,195,22113,102,0,B|428:168|413:150|413:150|385:147|365:159,1,97.9999970092774,2|0,0:2|0:2,0:0:0:0:
302,106,22756,2,0,P|286:132|285:163,1,48.9999985046387,2|2,3:2|0:2,0:0:0:0:
210,188,23185,2,0,P|226:213|254:227,1,48.9999985046387,2|2,3:2|3:2,0:0:0:0:
297,287,23613,2,0,P|324:278|354:272,1,48.9999985046387,2|2,3:2|3:2,0:0:0:0:
435,292,24042,85,4,1:2:0:0:
381,169,24471,2,0,P|372:141|366:109,1,52.5000020027161,2|2,1:2|3:2,0:0:0:0:
466,73,24899,2,0,P|457:100|449:134,2,52.5000020027161,2|0|2,1:2|0:2|1:2,0:0:0:0:
384,28,25542,1,0,3:2:0:0:
383,27,25756,6,0,P|337:2|287:16,1,105.000004005432,2|2,1:2|1:2,0:0:0:0:
195,19,26399,1,2,0:2:0:0:
195,18,26613,2,0,P|183:42|186:73,1,52.5000020027161,2|0,1:2|0:2,0:0:0:0:
251,131,27042,2,0,P|262:154|260:185,1,52.5000020027161,2|0,1:2|0:2,0:0:0:0:
180,237,27471,102,0,P|156:282|172:330,1,105.000004005432,2|2,1:2|1:2,0:0:0:0:
260,363,28113,2,0,P|254:327|253:291,1,52.5000020027161,0|2,3:2|1:2,0:0:0:0:
318,252,28542,2,0,P|370:248|422:241,1,105.000004005432,2|2,0:2|3:2,0:0:0:0:
438,231,29078,1,2,3:2:0:0:
452,219,29185,6,0,P|463:184|454:149,1,52.5000020027161,2|2,1:2|0:2,0:0:0:0:
512,92,29613,2,0,P|484:67|449:60,1,52.5000020027161,2|0,1:2|0:0,0:0:0:0:
405,0,30042,2,0,P|355:15|332:68,1,105.000004005432,2|2,1:2|1:2,0:0:0:0:
387,130,30685,1,0,3:2:0:0:
387,130,30899,101,0,1:2:0:0:
277,205,31328,2,0,P|244:194|208:187,1,52.5000020027161,2|0,1:2|3:2,0:0:0:0:
165,115,31756,2,0,P|126:124|91:141,2,78.7500030040742,0|2|2,1:2|3:2|3:2,0:0:0:0:
230,40,32613,6,0,P|268:49|303:66,1,78.7500030040742,2|2,1:2|0:2,0:0:0:0:
311,83,33042,1,0,1:2:0:0:
395,45,33256,2,0,B|418:39|448:45|448:45|461:73|450:101,1,105.000004005432,2|2,0:2|0:2,0:0:0:0:
501,179,33899,1,2,1:2:0:0:
501,179,34113,2,0,P|477:188|441:183,1,52.5000020027161,2|0,0:2|1:2,0:0:0:0:
357,153,34542,102,0,P|366:187|372:222,1,52.5000020027161,2|2,0:2|1:2,0:0:0:0:
433,275,34971,2,0,P|402:323|341:331,1,105.000004005432,2|2,0:2|0:2,0:0:0:0:
294,272,35613,1,2,1:2:0:0:
294,272,35828,6,0,P|243:261|178:244,1,105.000004005432,2|2,0:2|0:2,0:0:0:0:
123,180,36471,2,0,P|169:169|216:158,1,78.7500030040742,2|0,1:2|0:2,0:0:0:0:
215,152,36899,2,0,P|222:128|220:102,1,52.5000020027161,2|2,1:2|0:2,0:0:0:0:
134,48,37328,1,2,1:2:0:0:
134,48,37542,1,2,0:2:0:0:
63,115,37756,102,0,P|36:110|5:99,1,52.5000020027161,4|2,1:2|3:2,0:0:0:0:
123,180,38185,2,0,P|149:175|181:164,1,52.5000020027161,2|0,1:2|0:2,0:0:0:0:
40,242,38613,1,2,1:2:0:0:
40,242,38828,2,0,P|27:264|25:290,1,52.5000020027161,2|2,0:2|1:2,0:0:0:0:
91,355,39256,1,0,3:2:0:0:
177,309,39471,6,0,P|169:279|163:241,2,52.5000020027161,2|2|2,1:2|0:2|1:2,0:0:0:0:
260,356,40113,1,2,0:2:0:0:
260,356,40328,2,0,P|298:348|336:339,2,78.7500030040742,2|0|0,1:2|0:2|3:2,0:0:0:0:
177,309,41185,102,0,P|148:297|117:296,1,52.5000020027161,0|2,1:2|0:2,0:0:0:0:
38,235,41613,2,0,P|63:231|87:221,1,52.5000020027161,2|2,1:2|0:2,0:0:0:0:
120,138,42042,1,2,1:2:0:0:
120,138,42256,2,0,P|113:111|109:79,1,52.5000020027161,2|2,0:2|1:2,0:0:0:0:
158,13,42685,1,0,3:2:0:0:
235,69,42899,6,0,P|259:77|285:77,1,52.5000020027161,2|2,1:2|0:2,0:0:0:0:
358,16,43328,2,0,P|382:7|408:7,1,52.5000020027161,2|2,1:2|0:2,0:0:0:0:
483,64,43756,2,0,P|498:99|492:137,2,78.7500030040742,2|2|2,1:2|0:2|0:2,0:0:0:0:
408,7,44613,102,0,B|385:1|355:7|355:7|342:35|353:63,1,105.000004005432,6|2,1:2|1:2,0:0:0:0:
273,90,45256,2,0,B|261:110|259:141|259:141|282:160|312:157,1,105.000004005432,2|0,0:2|0:2,0:0:0:0:
383,204,45899,2,0,P|399:174|396:150,1,52.5000020027161,2|2,1:2|3:2,0:0:0:0:
295,251,46328,6,0,P|302:279|307:309,1,52.5000020027161,2|2,1:2|0:2,0:0:0:0:
385,381,46756,1,2,1:2:0:0:
385,381,46971,2,0,P|395:325|408:270,1,105.000004005432,2|2,0:2|0:2,0:0:0:0:
359,188,47613,1,2,1:2:0:0:
359,188,47828,2,0,P|321:165|300:165,1,52.5000020027161,2|0,3:2|1:2,0:0:0:0:
255,84,48256,102,0,P|205:96|178:140,1,105.000004005432,2|2,0:2|0:2,0:0:0:0:
222,226,48899,1,2,1:2:0:0:
222,226,49113,2,0,P|210:284|201:343,1,105.000004005432,2|2,0:2|0:2,0:0:0:0:
121,367,49756,6,0,P|93:347|59:345,1,56,2|0,1:2|0:0,0:0:0:0:
0,275,50185,102,0,P|27:268|52:245,1,59.5000011348725,2|0,1:2|0:0,0:0:0:0:
45,155,50613,5,2,0:2:0:0:
45,155,50828,1,2,0:2:0:0:
264,305,51256,1,0,0:0:0:0:
264,305,51481,6,0,P|296:310|337:315,1,66.4999982242585,6|0,1:2|0:0,0:0:0:0:
414,296,51909,1,2,1:2:0:0:
466,226,52123,2,0,P|509:261|515:285,1,66.4999982242585,2|0,0:2|1:0,0:0:0:0:
400,156,52552,2,0,P|356:191|351:215,1,66.4999982242585,2|2,0:2|1:2,0:0:0:0:
492,138,52981,102,0,P|502:93|436:35,1,132.999996448517,2|2,0:2|0:2,0:0:0:0:
348,64,53623,2,0,P|298:72|258:34,1,99.7499973363877,2|0,1:2|0:2,0:0:0:0:
253,20,54052,2,0,P|248:52|241:85,1,66.4999982242585,2|0,1:0|0:2,0:0:0:0:
234,103,54373,1,8,0:2:0:0:
224,120,54481,1,8,1:2:0:0:
130,85,54695,102,0,B|113:74|98:52|98:52|102:91|115:139,1,132.999996448517,2|0,0:2|0:0,0:0:0:0:
181,212,55338,2,0,P|199:253|189:287,1,66.4999982242585,2|0,1:2|3:2,0:0:0:0:
125,329,55766,1,2,1:2:0:0:
206,384,55981,2,0,P|241:372|307:361,1,99.7499973363877,2|0,0:2|0:2,0:0:0:0:
302,341,56409,6,0,P|360:312|414:345,1,132.999996448517,2|0,0:2|0:0,0:0:0:0:
504,290,57052,2,0,P|503:343|485:362,1,66.4999982242585,2|0,1:2|3:2,0:0:0:0:
427,242,57481,1,2,1:2:0:0:
480,167,57695,2,0,P|499:171|522:176,2,33.2499991121292,2|8|8,3:2|0:2|1:2,0:0:0:0:
425,87,58123,1,8,0:2:0:0:
425,87,58231,1,8,0:2:0:0:
425,87,58338,102,0,P|390:62|361:64,1,66.4999982242585,6|0,1:2|0:0,0:0:0:0:
295,134,58766,2,0,B|260:137|236:109|236:109|213:81|170:85,1,132.999996448517,2|2,1:2|1:2,0:0:0:0:
119,18,59409,1,0,3:2:0:0:
119,18,59623,2,0,P|156:9|190:-3,1,66.4999982242585,2|2,1:2|0:2,0:0:0:0:
58,86,60052,6,0,P|11:77|-7:53,1,66.4999982242585,2|2,1:2|0:2,0:0:0:0:
121,148,60481,1,2,1:2:0:0:
64,219,60695,2,0,P|49:257|56:289,1,66.4999982242585,2|0,3:2|1:2,0:0:0:0:
141,332,61123,2,0,P|136:313|134:291,2,33.2499991121292,2|8|8,0:2|0:2|1:2,0:0:0:0:
191,235,61552,1,2,0:2:0:0:
264,294,61766,102,0,P|319:297|361:254,1,99.7499973363877,2|0,1:2|0:2,0:0:0:0:
369,259,62195,2,0,P|376:218|362:194,1,66.4999982242585,2|0,1:2|0:0,0:0:0:0:
281,165,62623,1,2,1:2:0:0:
281,165,62838,1,0,0:2:0:0:
339,93,63052,2,0,P|374:99|411:103,1,66.4999982242585,2|2,1:2|3:2,0:0:0:0:
421,113,63373,1,0,3:2:0:0:
435,127,63481,6,0,P|473:89|441:21,1,132.999996448517,2|2,1:2|1:2,0:0:0:0:
358,13,64123,1,2,3:2:0:0:
309,88,64338,1,2,1:2:0:0:
229,47,64552,2,0,P|219:20|218:8,2,33.2499991121292,2|8|8,3:2|0:2|0:2,0:0:0:0:
166,117,64981,1,10,0:2:0:0:
166,117,65088,1,8,0:2:0:0:
166,117,65195,102,0,P|146:147|149:187,1,66.4999982242585,4|0,1:2|0:0,0:0:0:0:
218,234,65623,1,2,1:2:0:0:
218,234,65838,1,2,0:2:0:0:
292,183,66052,2,0,B|324:169|360:185|360:185|373:221|353:254,1,132.999996448517,2|2,1:2|1:2,0:0:0:0:
284,294,66695,1,2,0:2:0:0:
351,366,66909,6,0,P|381:358|420:354,1,66.4999982242585,2|0,1:2|0:0,0:0:0:0:
492,282,67338,2,0,P|441:275|391:263,1,99.7499973363877,2|0,1:2|0:2,0:0:0:0:
383,247,67766,2,0,P|373:212|386:179,1,66.4999982242585,2|0,1:2|0:2,0:0:0:0:
396,170,68088,1,8,0:2:0:0:
415,165,68195,1,8,1:2:0:0:
364,88,68409,102,0,P|435:68|485:111,1,132.999996448517,2|0,0:2|0:0,0:0:0:0:
473,189,69052,2,0,P|431:180|408:154,1,66.4999982242585,2|2,1:2|0:2,0:0:0:0:
328,256,69481,2,0,P|305:199|338:160,1,99.7499973363877,2|0,1:2|0:2,0:0:0:0:
340,161,69909,1,6,1:2:0:0:
246,93,70123,6,0,B|210:94|185:109|185:109|178:115|178:115|155:130|120:132,1,132.999996448517,2|2,0:2|0:2,0:0:0:0:
102,126,70659,1,0,0:0:0:0:
82,120,70766,2,0,P|68:80|76:51,1,66.4999982242585,2|2,1:2|0:2,0:0:0:0:
24,187,71195,1,2,1:2:0:0:
109,230,71409,2,0,P|126:224|149:221,2,33.2499991121292,2|8|8,3:2|0:2|1:2,0:0:0:0:
52,307,71838,1,10,0:2:0:0:
52,307,71945,1,8,0:2:0:0:
52,307,72052,102,0,P|45:352|60:378,1,66.4999982242585,6|0,1:2|0:2,0:0:0:0:
109,230,72481,2,0,P|147:284|222:282,1,132.999996448517,2|2,1:2|1:2,0:0:0:0:
265,221,73123,1,2,0:2:0:0:
265,221,73338,2,0,P|296:206|330:210,1,66.4999982242585,2|2,1:2|3:2,0:0:0:0:
341,223,73659,1,2,3:2:0:0:
349,240,73766,6,0,P|341:274|335:313,1,66.4999982242585,2|2,1:2|0:2,0:0:0:0:
374,384,74195,1,2,1:2:0:0:
441,325,74409,2,0,P|485:320|513:337,1,66.4999982242585,2|0,0:2|0:0,0:0:0:0:
381,246,74838,2,0,P|360:242|335:236,2,33.2499991121292,2|8|8,0:2|0:2|1:2,0:0:0:0:
450,186,75266,1,2,0:2:0:0:
403,103,75481,102,0,P|371:92|339:98,1,66.4999982242585,2|2,1:2|0:2,0:0:0:0:
281,170,75909,2,0,P|249:180|217:174,1,66.4999982242585,2|2,1:2|0:2,0:0:0:0:
152,106,76338,2,0,P|150:51|196:13,2,99.7499973363877,2|2|2,1:2|0:2|0:2,0:0:0:0:
217,174,77195,6,0,P|247:211|243:260,1,99.7499973363877,2|0,1:2|0:2,0:0:0:0:
230,275,77623,1,10,0:2:0:0:
159,335,77838,2,0,P|166:359|169:377,2,33.2499991121292,2|8|0,1:2|0:2|1:2,0:0:0:0:
81,289,78266,1,2,1:2:0:0:
81,289,78373,1,8,0:2:0:0:
81,289,78481,2,0,P|86:273|89:256,3,33.2499991121292,10|8|10|8,1:2|0:2|0:2|0:2,0:0:0:0:
85,237,78909,101,6,1:2:0:0:
84,237,85766,22,0,P|118:208|166:206,1,89.2500017023087,4|0,1:2|0:2,0:0:0:0:
179,201,86195,2,0,P|205:214|220:243,1,59.5000011348725,10|0,0:1|0:0,0:0:0:0:
156,313,86623,2,0,P|154:301|149:281,2,29.7500005674362,0|8|0,1:2|0:2|0:0,0:0:0:0:
226,358,87052,2,0,P|254:350|284:345,1,59.5000011348725,10|0,0:1|3:2,0:0:0:0:
326,260,87481,6,0,P|372:268|418:279,1,89.2500017023087,4|0,0:3|0:0,0:0:0:0:
427,282,87909,2,0,P|441:256|441:226,1,59.5000011348725,10|0,0:1|1:2,0:0:0:0:
434,213,88231,1,8,0:2:0:0:
422,203,88338,1,0,1:2:0:0:
481,139,88552,1,0,0:0:0:0:
412,88,88766,2,0,P|373:90|337:135,1,89.2500017023087,10|0,0:1|0:2,0:0:0:0:
335,139,89195,102,0,P|329:104|319:71,1,59.5000011348725,6|0,0:3|0:0,0:0:0:0:
263,186,89623,2,0,P|215:190|183:154,1,99.7499973363877,12|0,0:1|0:2,0:0:0:0:
188,138,90052,5,2,1:2:0:0:
105,182,90266,1,0,0:0:0:0:
82,94,90481,2,0,P|38:72|15:77,1,66.4999982242585,12|10,0:1|0:2,0:0:0:0:
10,81,90802,1,8,0:2:0:0:
3,94,90909,2,0,P|-1:116|4:141,2,29.7500005674362,10|0|0,0:2|0:0|0:0,0:0:0:0:
86,0,91338,101,12,0:3:0:0:
86,0,91552,1,12,0:3:0:0:
188,138,92195,21,8,0:1:0:0:
188,138,92302,1,8,0:1:0:0:
188,138,92409,2,0,P|205:132|225:129,1,29.7500005674362,10|8,0:1|0:1,0:0:0:0:
228,117,92623,38,0,P|255:96|290:94,1,70,6|0,1:2|0:0,0:0:0:0:
372,143,93052,1,10,1:1:0:0:
451,86,93266,2,0,P|444:37|440:2,1,70,2|0,0:2|1:2,0:0:0:0:
512,158,93695,2,0,P|507:192|502:227,1,70,0|8,0:0|1:1,0:0:0:0:
512,327,94123,102,0,P|479:269|394:268,1,140,2|0,3:2|0:0,0:0:0:0:
323,319,94766,2,0,B|279:306|279:306|259:308|259:308|212:291,1,105,8|8,1:1|0:2,0:0:0:0:
199,293,95195,2,0,P|192:261|205:219,1,70,0|0,1:2|0:0,0:0:0:0:
259,143,95623,1,8,1:1:0:0:
183,34,95838,6,0,B|130:69|130:69|162:146,1,140,2|0,3:2|0:0,0:0:0:0:
201,225,96481,2,0,L|270:233,1,70,8|0,1:1|0:2,0:0:0:0:
341,313,96909,1,0,1:2:0:0:
341,313,97016,1,8,0:2:0:0:
341,313,97123,2,0,L|410:321,1,70,0|8,0:0|1:1,0:0:0:0:
512,242,97552,102,0,P|481:179|412:168,1,140,0|0,0:2|0:2,0:0:0:0:
343,234,98195,2,0,P|333:187|323:152,1,70,8|0,1:1|1:2,0:0:0:0:
315,148,98516,1,8,0:2:0:0:
302,130,98623,1,0,1:2:0:0:
225,67,98838,2,0,P|216:100|209:135,1,70,0|8,0:0|1:1,0:0:0:0:
232,236,99266,1,0,0:0:0:0:
137,295,99481,6,0,P|89:285|40:280,1,70,4|0,1:2|0:0,0:0:0:0:
188,378,99909,2,0,P|222:372|256:365,1,70,8|0,1:1|0:2,0:0:0:0:
275,356,100231,1,0,0:0:0:0:
295,346,100338,1,0,1:2:0:0:
233,268,100552,2,0,P|225:227|238:187,1,70,0|8,0:0|1:1,0:0:0:0:
290,117,100981,1,0,0:0:0:0:
217,33,101195,102,0,L|135:37,1,70,0|0,1:2|0:2,0:0:0:0:
57,0,101623,1,8,1:1:0:0:
0,80,101838,2,0,P|7:126|9:180,1,70,0|0,0:2|1:2,0:0:0:0:
90,206,102266,2,0,P|92:171|98:136,1,70,0|8,0:0|1:1,0:0:0:0:
0,248,102695,1,0,3:2:0:0:
82,303,102909,6,0,P|125:292|172:289,1,70,0|0,1:2|0:0,0:0:0:0:
209,371,103338,2,0,P|242:380|277:384,1,70,8|0,1:1|0:0,0:0:0:0:
358,332,103766,1,0,1:2:0:0:
358,332,103873,1,8,0:2:0:0:
358,332,103981,2,0,B|370:299|370:299|356:264,1,70,0|8,0:0|1:1,0:0:0:0:
313,171,104409,1,2,3:2:0:0:
313,171,104516,1,2,3:2:0:0:
314,170,104623,102,0,B|354:152|391:173|375:183|405:204|445:191,1,140,0|8,1:2|1:1,0:0:0:0:
512,104,105266,1,0,1:2:0:0:
512,104,105373,1,8,0:2:0:0:
512,104,105481,1,0,1:2:0:0:
414,45,105695,2,0,P|420:79|424:114,1,70,0|8,0:0|1:1,0:0:0:0:
377,221,106123,1,8,0:2:0:0:
377,221,106231,1,8,0:2:0:0:
377,221,106338,6,0,L|386:290,1,70,4|0,1:2|0:0,0:0:0:0:
291,159,106766,2,0,L|221:168,1,70,8|0,1:1|0:2,0:0:0:0:
138,241,107195,2,0,P|103:198|125:119,1,140,0|8,1:2|1:1,0:0:0:0:
184,39,107838,1,2,3:2:0:0:
86,1,108052,102,0,L|10:13,1,70,0|0,1:2|0:0,0:0:0:0:
34,124,108481,2,0,L|103:113,1,70,8|0,1:1|0:0,0:0:0:0:
122,121,108802,1,8,0:2:0:0:
139,129,108909,2,0,B|179:175|179:175|146:248,1,140,0|8,1:2|1:1,0:0:0:0:
78,354,109552,6,0,B|137:334|137:334|158:337|158:337|220:318,1,140,2|0,3:2|0:0,0:0:0:0:
313,338,110195,2,0,P|301:293|294:254,1,70,8|0,1:1|0:2,0:0:0:0:
338,175,110623,1,0,1:2:0:0:
338,175,110731,1,8,0:2:0:0:
338,175,110838,2,0,P|347:141|354:106,1,70,0|8,0:0|1:1,0:0:0:0:
266,9,111266,102,0,B|218:51|218:51|254:117,1,140,0|0,0:2|0:2,0:0:0:0:
338,175,111909,2,0,P|388:169|420:168,1,70,8|0,1:1|1:2,0:0:0:0:
427,175,112231,1,8,0:2:0:0:
446,182,112338,1,0,1:2:0:0:
505,96,112552,2,0,P|470:93|435:89,1,70,0|8,0:0|1:1,0:0:0:0:
379,1,112981,1,0,0:0:0:0:
328,105,113195,6,0,L|339:179,1,70,4|0,1:2|0:0,0:0:0:0:
278,256,113623,2,0,P|235:208|162:211,1,140,8|0,1:1|1:2,0:0:0:0:
74,247,114266,2,0,P|79:209|79:173,1,70,0|8,0:0|1:1,0:0:0:0:
27,96,114695,1,0,0:0:0:0:
104,29,114909,102,0,P|164:37|202:41,1,70,0|0,1:2|0:0,0:0:0:0:
269,2,115338,1,8,1:1:0:0:
346,68,115552,2,0,L|335:137,1,70,0|0,0:2|1:2,0:0:0:0:
443,76,115981,2,0,L|432:6,1,70,0|8,0:0|1:1,0:0:0:0:
512,142,116409,1,0,0:0:0:0:
444,214,116623,6,0,L|364:198,1,70,0|0,1:2|0:0,0:0:0:0:
296,140,117052,1,12,1:1:0:0:
225,210,117266,1,0,0:0:0:0:
134,160,117481,2,0,P|122:116|130:88,1,70,0|0,1:2|0:0,0:0:0:0:
156,0,117909,1,14,1:1:0:0:
66,20,118123,1,0,0:0:0:0:
5,117,118338,102,0,L|13:197,1,70,4|0,1:3|0:0,0:0:0:0:
71,264,118766,1,12,1:1:0:0:
15,343,118981,2,0,B|59:302|59:302|151:323,1,140,0|0,0:0|0:2,0:0:0:0:
230,375,119623,1,8,1:2:0:0:
230,375,119731,1,8,0:2:0:0:
230,375,119838,2,0,L|273:370,1,35,8|8,0:2|0:2,0:0:0:0:
301,378,120052,6,0,B|284:307|284:307|308:278|343:281,1,140,6|10,1:2|1:1,0:0:0:0:
432,321,120695,2,0,P|448:278|440:250,1,70,2|0,0:2|1:2,0:0:0:0:
434,242,121016,1,8,0:2:0:0:
419,232,121123,1,0,0:0:0:0:
326,198,121338,2,0,P|322:163|339:133,1,70,10|2,1:1|0:2,0:0:0:0:
427,98,121766,22,0,P|353:98|319:39,1,140,0|10,1:2|1:1,0:0:0:0:
243,0,122409,2,0,P|235:36|230:59,2,35,2|8|0,1:2|0:2|1:2,0:0:0:0:
170,85,122838,1,0,0:0:0:0:
108,27,123052,2,0,P|63:15|15:35,1,70,8|2,1:1|0:2,0:0:0:0:
1,112,123481,102,0,P|60:163|124:147,1,140,2|10,1:2|1:1,0:0:0:0:
170,85,124123,1,0,0:0:0:0:
238,146,124338,1,2,1:2:0:0:
251,135,124445,2,0,P|288:141|340:164,1,70,8|0,2:2|0:0,0:0:0:0:
321,134,124766,2,0,P|354:150|397:187,1,70,10|0,1:1|0:0,0:0:0:0:
448,105,125195,6,0,P|477:109|477:208,1,140,2|10,1:2|1:1,0:0:0:0:
407,253,125838,1,2,1:2:0:0:
407,253,125945,1,8,0:2:0:0:
407,253,126052,2,0,P|382:245|359:240,2,35,0|8|0,1:2|0:2|0:0,0:0:0:0:
466,331,126481,1,10,1:1:0:0:
466,331,126695,1,2,0:2:0:0:
355,330,126909,102,0,B|311:323|291:351|291:351|267:384|220:377,1,140,6|10,1:2|1:1,0:0:0:0:
184,301,127552,2,0,P|152:280|112:286,1,70,2|0,0:2|1:2,0:0:0:0:
107,291,127873,1,8,0:2:0:0:
95,304,127981,1,0,0:0:0:0:
28,241,128195,2,0,P|2:269|3:310,1,70,10|2,1:1|0:2,0:0:0:0:
105,201,128623,6,0,P|91:137|78:60,1,140,0|10,1:2|1:1,0:0:0:0:
178,15,129266,1,0,0:2:0:0:
178,15,129373,1,8,0:2:0:0:
178,15,129481,2,0,P|171:49|165:83,1,70,2|0,1:2|0:0,0:0:0:0:
216,163,129909,2,0,P|254:185|301:175,1,70,10|0,1:1|3:2,0:0:0:0:
336,265,130338,102,0,P|386:244|402:156,1,140,4|10,1:3|1:1,0:0:0:0:
346,106,130981,1,0,1:2:0:0:
346,106,131088,1,8,0:2:0:0:
346,106,131195,2,0,P|350:88|355:59,2,35,2|8|0,1:2|0:2|0:0,0:0:0:0:
256,6,131623,2,0,P|265:46|272:87,1,70,10|0,1:1|3:2,0:0:0:0:
183,124,132052,6,0,B|156:141|153:170|153:170|160:195|181:208,1,105,2|0,1:2|0:2,0:0:0:0:
198,207,132481,1,14,1:1:0:0:
158,307,132695,2,0,P|193:296|237:290,1,70,0|10,0:0|0:2,0:0:0:0:
242,295,133016,1,8,0:3:0:0:
257,303,133123,1,0,0:0:0:0:
336,250,133338,1,8,0:2:0:0:
408,333,133552,1,8,0:2:0:0:
408,333,133659,1,8,0:2:0:0:
407,333,133766,102,0,P|446:277|421:208,1,140,6|10,1:2|1:1,0:0:0:0:
351,163,134409,2,0,P|332:133|340:86,1,70,2|0,0:2|1:2,0:0:0:0:
344,86,134731,1,8,0:2:0:0:
358,75,134838,1,0,0:0:0:0:
247,89,135052,2,0,P|213:80|176:66,1,70,10|2,1:1|0:2,0:0:0:0:
110,4,135481,6,0,B|153:53|153:53|100:131,1,140,0|10,1:2|1:1,0:0:0:0:
33,155,136123,2,0,P|17:150|-3:145,2,35,2|8|0,1:2|0:2|1:2,0:0:0:0:
83,230,136552,1,0,0:0:0:0:
8,282,136766,2,0,P|-6:321|7:358,1,70,8|2,1:1|0:2,0:0:0:0:
93,378,137195,102,0,B|124:367|145:371|145:371|148:374|148:374|178:382|224:367,1,105,2|0,1:2|0:2,0:0:0:0:
210,366,137623,2,0,P|202:331|196:289,1,70,10|0,1:1|0:0,0:0:0:0:
266,220,138052,1,2,1:2:0:0:
266,220,138159,1,8,0:2:0:0:
266,220,138266,2,0,P|301:225|335:232,1,70,0|10,0:0|1:1,0:0:0:0:
398,294,138695,1,0,3:2:0:0:
479,242,138909,6,0,P|492:183|461:142,1,105,2|0,1:2|0:2,0:0:0:0:
452,145,139338,1,10,1:1:0:0:
426,61,139552,1,0,1:2:0:0:
426,61,139659,1,8,0:2:0:0:
426,61,139766,2,0,P|384:67|354:107,1,70,0|0,1:2|0:0,0:0:0:0:
292,154,140195,2,0,P|285:119|276:85,1,70,10|0,1:1|3:2,0:0:0:0:
178,32,140623,102,0,B|143:22|115:48|115:48|101:87|132:119,1,140,4|14,1:3|1:1,0:0:0:0:
96,197,141266,2,0,P|140:214|171:202,1,70,0|0,0:0|1:2,0:0:0:0:
173,196,141588,1,8,0:2:0:0:
185,183,141695,1,0,0:0:0:0:
258,256,141909,2,0,P|280:214|273:182,1,70,14|0,1:1|0:0,0:0:0:0:
364,97,142338,6,0,B|347:86|332:64|332:64|336:103|353:157,1,140,4|14,1:3|1:1,0:0:0:0:
421,228,142981,1,0,0:0:0:0:
421,228,143088,1,0,0:2:0:0:
421,228,143195,2,0,P|460:232|499:208,1,70,4|0,1:3|0:0,0:0:0:0:
320,242,143623,2,0,P|298:269|294:303,1,70,14|0,1:1|1:2,0:0:0:0:
302,318,143945,1,8,0:2:0:0:
311,331,144052,86,0,P|258:287|191:312,1,140,6|14,1:2|1:1,0:0:0:0:
121,367,144695,2,0,P|113:332|104:298,1,70,0|6,0:0|1:2,0:0:0:0:
98,282,145016,1,8,0:2:0:0:
87,267,145123,1,0,0:0:0:0:
158,208,145338,2,0,P|140:177|121:148,1,70,14|0,1:1|0:0,0:0:0:0:
28,126,145766,102,0,P|99:113|171:98,1,140,6|14,1:2|1:1,0:0:0:0:
218,26,146409,2,0,P|264:17|297:36,1,70,0|6,0:0|1:2,0:0:0:0:
293,40,146731,1,8,0:2:0:0:
299,56,146838,1,0,0:0:0:0:
261,137,147052,1,14,1:1:0:0:
344,199,147266,1,8,0:2:0:0:
344,199,147373,1,8,0:2:0:0:
344,199,147481,6,0,P|396:187|449:178,1,105,6|0,1:3|0:2,0:0:0:0:
465,181,147909,2,0,P|497:226|487:259,1,77.0000023498536,14|0,1:1|0:0,0:0:0:0:
433,338,148338,1,2,1:2:0:0:
433,338,148445,2,0,P|423:301|407:254,1,70,8|0,0:2|0:2,0:0:0:0:
399,257,148766,102,0,P|347:253|325:273,1,77.0000023498536,8|2,1:1|3:2,0:0:0:0:
277,346,149195,2,0,P|309:294|243:213,1,154.000004699707,6|8,1:2|1:1,0:0:0:0:
210,151,149838,1,0,1:2:0:0:
210,151,149945,1,8,0:2:0:0:
210,151,150052,2,0,P|186:157|152:166,2,35,0|8|0,1:2|0:2|0:0,0:0:0:0:
271,71,150481,5,12,0:3:0:0:
271,71,150695,1,12,0:3:0:0:
