osu file format v14

[General]
AudioFilename: audio.mp3
AudioLeadIn: 0
PreviewTime: 91766
Countdown: 0
SampleSet: Soft
StackLeniency: 0.5
Mode: 0
LetterboxInBreaks: 0
WidescreenStoryboard: 1

[Editor]
Bookmarks: 51579,79007,92721,120150
DistanceSpacing: 1
BeatDivisor: 4
GridSize: 16
TimelineZoom: 1

[Metadata]
Title:Acacia
TitleUnicode:アカシア
Artist:BUMP OF CHICKEN
ArtistUnicode:BUMP OF CHICKEN
Creator:Sotarks
Version:Basen's Normal
Source:GOTCHA!
Tags:ポケモン pokemon スペシャルミュージックビデオ japanese pop jpop j-pop male vocalist pocket monsters special music video pokémon ! ポケットモンスター toy’s factory chiga mamayu kanau fuyuyu- silky kowari ren derandom otaku basensorex
BeatmapID:2655767
BeatmapSetID:1272018

[Difficulty]
HPDrainRate:3.6
CircleSize:3.5
OverallDifficulty:3.8
ApproachRate:5
SliderMultiplier:0.999999999999999
SliderTickRate:1

[Events]
//Background and Video events
0,0,"bg.jpg",0,0
Video,-108,"video.mp4"
//Break Periods
2,79109,84566
//Storyboard Layer 0 (Background)
//Storyboard Layer 1 (Fail)
//Storyboard Layer 2 (Pass)
//Storyboard Layer 3 (Foreground)
//Storyboard Layer 4 (Overlay)
//Storyboard Sound Samples

[TimingPoints]
3471,428.571428571429,4,2,22,42,1,0
3471,-111.111111111111,4,2,22,42,0,0
5721,-111.111111111111,4,2,22,5,0,0
5828,-111.111111111111,4,2,22,42,0,0
8399,-111.111111111111,4,2,22,42,0,0
8613,-111.111111111111,4,2,22,42,0,0
10328,-111.111111111111,4,2,22,72,0,0
11078,-111.111111111111,4,2,22,5,0,0
11185,-111.111111111111,4,2,22,72,0,0
17935,-111.111111111111,4,2,22,5,0,0
18042,-111.111111111111,4,2,22,72,0,0
19113,-111.111111111111,4,2,22,5,0,0
19221,-111.111111111111,4,2,22,72,0,0
19435,-111.111111111111,4,2,22,5,0,0
19542,-111.111111111111,4,2,22,72,0,0
19863,-111.111111111111,4,2,22,5,0,0
19971,-111.111111111111,4,2,22,72,0,0
24042,-100,4,2,22,82,0,0
24363,-100,4,2,22,5,0,0
24471,-100,4,2,22,82,0,0
26078,-100,4,2,22,5,0,0
26186,-100,4,2,22,82,0,0
27792,-100,4,2,22,5,0,0
27900,-100,4,2,22,82,0,0
28863,-100,4,2,22,5,0,0
28971,-100,4,2,22,82,0,0
29935,-100,4,2,22,5,0,0
30043,-100,4,2,22,82,0,0
30363,-100,4,2,22,5,0,0
30471,-100,4,2,22,82,0,0
31221,-100,4,2,22,5,0,0
31328,-100,4,2,22,82,0,0
33578,-100,4,2,22,5,0,0
33686,-100,4,2,22,82,0,0
36792,-100,4,2,22,5,0,0
36899,-100,4,2,22,82,0,0
45578,-100,4,2,22,5,0,0
45686,-100,4,2,22,82,0,0
47292,-100,4,2,22,5,0,0
47400,-100,4,2,22,82,0,0
50613,-100,4,2,22,62,0,0
51256,-90.9090909090909,4,2,22,72,0,0
51363,-90.9090909090909,4,2,22,5,0,0
51481,428.571428571429,4,2,22,92,1,0
51481,-90.9090909090909,4,2,22,92,0,0
78909,-100,4,2,22,92,0,0
79231,-100,4,2,22,5,0,0
79338,-100,4,2,22,72,0,0
85766,-100,4,2,22,92,0,0
86088,-100,4,2,22,5,0,0
86195,-100,4,2,22,92,0,0
88659,-100,4,2,22,5,0,0
88766,-100,4,2,22,92,0,0
89088,-100,4,2,22,5,0,0
89195,-100,4,2,22,92,0,0
89516,-100,4,2,22,5,0,0
89623,-100,4,2,22,92,0,0
89945,-100,4,2,22,5,0,0
90052,-100,4,2,22,92,0,0
91231,-100,4,2,22,5,0,0
91338,-100,4,2,22,92,0,0
91445,-100,4,2,22,5,0,0
91552,-100,4,2,22,92,0,0
91659,-100,4,2,22,5,0,0
91766,-100,4,2,22,62,0,0
92195,-100,4,2,22,82,0,0
92409,-90.9090909090909,4,2,22,82,0,0
92623,-90.9090909090909,4,2,22,92,0,0
120052,-100,4,2,22,92,0,0
147802,-100,4,2,22,5,0,0
147909,-100,4,2,22,92,0,0
148231,-100,4,2,22,5,0,0
148338,-100,4,2,22,92,0,0
149516,-100,4,2,22,5,0,0
149623,-100,4,2,22,92,0,0
150588,-100,4,2,22,5,0,0
150695,-100,4,2,22,92,0,0
150802,-100,4,2,22,5,0,0

[Colours]
Combo1 : 206,253,255
Combo2 : 152,150,180
Combo3 : 216,201,197
Combo4 : 254,247,107
Combo5 : 242,77,53
Combo6 : 206,166,111
Combo7 : 214,112,139
Combo8 : 92,122,199

[HitObjects]
44,106,3471,6,0,L|38:33,2,67.4999979400635,2|0|2,0:2|0:2|0:2,0:0:0:0:
204,264,5185,2,0,L|198:336,2,67.4999979400635,2|2|2,0:2|0:2|0:2,0:0:0:0:
283,218,6256,1,0,0:2:0:0:
283,218,6471,2,0,L|278:170,1,44.999998626709,0|0,0:2|0:2,0:0:0:0:
307,138,6899,6,0,L|379:132,2,67.4999979400635,2|2|2,0:2|0:2|0:2,0:0:0:0:
158,306,8613,2,0,L|85:300,2,67.4999979400635,2|0|2,0:2|0:2|0:2,0:0:0:0:
235,257,9685,1,2,0:2:0:0:
235,257,9899,2,0,L|239:209,1,44.999998626709,2|2,0:2|0:2,0:0:0:0:
245,168,10328,1,0,3:2:0:0:
313,109,10756,102,0,P|356:93|403:95,1,89.999997253418,2|2,3:2|3:2,0:0:0:0:
462,159,11613,2,0,L|525:153,2,44.999998626709,2|2|2,3:2|0:2|3:2,0:0:0:0:
428,243,12471,2,0,P|406:247|383:249,1,44.999998626709,2|0,3:2|0:2,0:0:0:0:
356,285,12899,2,0,P|334:280|311:278,1,44.999998626709,2|0,3:2|0:2,0:0:0:0:
267,287,13328,1,2,3:2:0:0:
194,339,13756,6,0,P|150:323|103:325,1,89.999997253418,2|2,3:2|3:2,0:0:0:0:
25,299,14613,1,2,3:2:0:0:
25,299,14828,2,0,L|30:235,1,44.999998626709,2|0,0:2|0:0,0:0:0:0:
87,186,15471,2,0,P|82:164|80:141,1,44.999998626709,2|2,3:2|0:2,0:0:0:0:
45,112,15899,2,0,P|49:90|51:67,1,44.999998626709,2|0,3:2|0:2,0:0:0:0:
81,34,16328,2,0,P|124:18|171:20,1,89.999997253418,2|2,3:2|3:2,0:0:0:0:
247,60,17185,101,0,3:2:0:0:
314,0,17614,1,2,3:2:0:0:
389,48,18042,2,0,L|464:54,2,67.4999979400635,2|2|2,3:2|0:2|0:2,0:0:0:0:
370,89,18899,2,0,L|294:95,2,67.4999979400635,2|2|2,3:2|0:2|0:2,0:0:0:0:
441,152,19971,1,2,0:2:0:0:
441,152,20185,2,0,P|456:195|454:242,1,89.999997253418,2|0,3:2|3:2,0:0:0:0:
429,327,21042,5,2,3:2:0:0:
429,327,21256,2,0,L|328:318,1,89.999997253418,2|0,0:2|0:2,0:0:0:0:
313,289,21899,1,2,3:2:0:0:
313,289,22113,2,0,L|321:188,1,89.999997253418,2|0,0:2|0:2,0:0:0:0:
324,154,22756,1,2,3:2:0:0:
269,82,23185,2,0,P|225:66|178:68,1,89.999997253418,2|2,3:2|3:2,0:0:0:0:
88,101,24042,101,4,1:2:0:0:
48,193,24471,2,0,L|53:256,1,50,2|2,1:2|3:2,0:0:0:0:
56,292,24899,2,0,P|103:312|158:306,1,99.9999999999999,2|2,1:2|1:2,0:0:0:0:
201,293,25542,1,0,3:2:0:0:
201,293,25756,1,2,1:2:0:0:
278,356,26185,2,0,P|302:350|329:348,1,50,2|2,1:2|0:2,0:0:0:0:
368,319,26613,2,0,P|392:324|419:326,2,50,2|0|2,1:2|0:2|1:2,0:0:0:0:
357,219,27471,86,0,L|365:119,1,99.9999999999999,2|2,1:2|1:2,0:0:0:0:
302,48,28328,1,2,1:2:0:0:
302,48,28542,1,2,0:2:0:0:
233,121,28971,1,2,3:2:0:0:
233,121,29185,2,0,L|169:126,1,50,2|2,1:2|0:2,0:0:0:0:
153,85,29613,2,0,L|89:80,1,50,2|0,1:2|0:0,0:0:0:0:
59,106,30042,2,0,P|39:153|45:208,1,99.9999999999999,2|2,1:2|1:2,0:0:0:0:
35,300,30899,5,0,1:2:0:0:
118,355,31328,1,2,1:2:0:0:
206,309,31756,2,0,L|212:384,2,74.9999999999999,0|2|2,1:2|3:2|3:2,0:0:0:0:
247,280,32613,2,0,L|253:205,2,74.9999999999999,2|2|2,1:2|0:2|0:2,0:0:0:0:
329,345,33685,1,2,0:2:0:0:
329,345,33899,2,0,P|353:339|380:337,1,50,2|2,1:2|0:2,0:0:0:0:
456,275,34542,102,0,L|451:212,1,50,2|2,0:2|1:2,0:0:0:0:
489,191,34971,2,0,L|497:91,1,99.9999999999999,2|2,0:2|0:2,0:0:0:0:
504,45,35614,1,2,1:2:0:0:
504,45,35828,1,2,0:2:0:0:
413,2,36256,2,0,P|389:8|362:10,1,50,2|2,0:2|1:2,0:0:0:0:
296,83,36899,2,0,L|304:183,1,99.9999999999999,2|2,1:2|1:2,0:0:0:0:
353,207,37542,1,2,0:2:0:0:
353,207,37756,6,0,L|345:307,1,99.9999999999999,4|2,1:2|1:2,0:0:0:0:
248,332,38613,2,0,L|253:395,2,50,2|2|2,1:2|0:2|1:2,0:0:0:0:
212,304,39256,1,0,3:2:0:0:
212,304,39471,2,0,P|188:298|161:296,1,50,2|2,1:2|0:2,0:0:0:0:
113,303,39899,1,2,1:2:0:0:
75,209,40328,2,0,L|0:215,2,74.9999999999999,2|0|0,1:2|0:2|3:2,0:0:0:0:
112,175,41185,102,0,P|132:128|126:73,1,99.9999999999999,0|2,1:2|1:2,0:0:0:0:
167,48,41828,1,2,0:2:0:0:
167,48,42042,2,0,P|161:24|159:-3,2,50,2|2|2,1:2|0:2|1:2,0:0:0:0:
252,99,42899,2,0,L|316:94,1,50,2|2,1:2|0:2,0:0:0:0:
339,128,43328,2,0,L|403:133,1,50,2|2,1:2|0:2,0:0:0:0:
434,112,43756,2,0,L|440:37,2,74.9999999999999,2|2|2,1:2|0:2|0:2,0:0:0:0:
473,143,44614,5,6,1:2:0:0:
489,245,45042,1,2,1:2:0:0:
489,245,45256,2,0,P|442:265|387:259,1,99.9999999999999,2|0,0:2|0:2,0:0:0:0:
345,247,45899,1,2,1:2:0:0:
298,335,46328,2,0,P|273:328|248:326,1,50,2|2,1:2|0:2,0:0:0:0:
215,297,46756,1,2,1:2:0:0:
215,297,46971,2,0,P|168:317|113:311,1,99.9999999999999,2|2,0:2|0:2,0:0:0:0:
71,300,47613,2,0,L|76:236,1,50,2|2,1:2|3:2,0:0:0:0:
9,174,48256,102,0,L|1:74,1,99.9999999999999,2|2,0:2|0:2,0:0:0:0:
33,36,48899,1,2,1:2:0:0:
33,36,49113,2,0,P|80:16|135:22,1,99.9999999999999,2|2,0:2|0:2,0:0:0:0:
172,43,49756,1,2,1:2:0:0:
222,129,50185,1,2,1:2:0:0:
158,207,50614,1,2,0:2:0:0:
158,207,50828,1,2,0:2:0:0:
161,316,51256,5,2,0:2:0:0:
161,316,51481,2,0,B|216:333|216:333|265:319,1,110.000003356934,6|2,1:2|1:2,0:0:0:0:
315,353,52123,2,0,B|370:335|370:335|419:349,1,110.000003356934,2|2,0:2|0:2,0:0:0:0:
476,336,52766,1,2,1:2:0:0:
476,336,52981,1,2,0:2:0:0:
512,235,53409,1,2,0:2:0:0:
512,235,53623,2,0,L|489:108,1,110.000003356934,2|2,1:2|1:0,0:0:0:0:
412,59,54481,1,8,1:2:0:0:
412,59,54695,86,0,P|364:85|310:79,1,110.000003356934,2|0,0:2|0:0,0:0:0:0:
258,60,55338,1,2,1:2:0:0:
160,110,55766,2,0,P|127:97|98:96,1,55.0000016784668,2|2,1:2|0:2,0:0:0:0:
56,103,56195,1,0,1:2:0:0:
56,103,56409,2,0,L|33:229,1,110.000003356934,2|0,0:2|0:0,0:0:0:0:
30,266,57052,1,2,1:2:0:0:
118,340,57481,1,2,1:2:0:0:
118,340,57695,1,2,3:2:0:0:
219,293,58124,1,8,0:2:0:0:
219,293,58338,102,0,L|207:229,1,55.0000016784668,6|0,1:2|0:0,0:0:0:0:
236,190,58766,2,0,P|283:163|337:169,1,110.000003356934,2|2,1:2|1:2,0:0:0:0:
434,220,59623,1,2,1:2:0:0:
373,311,60052,2,0,L|384:374,2,55.0000016784668,2|2|2,1:2|0:2|1:2,0:0:0:0:
321,291,60695,2,0,B|265:273|265:273|216:287,1,110.000003356934,2|2,3:2|0:2,0:0:0:0:
115,325,61552,1,2,0:2:0:0:
115,325,61766,6,0,L|92:198,1,110.000003356934,2|2,1:2|1:2,0:0:0:0:
4,155,62623,2,0,L|15:91,1,55.0000016784668,2|0,1:2|0:2,0:0:0:0:
53,63,63052,2,0,P|78:74|105:77,1,55.0000016784668,2|2,1:2|3:2,0:0:0:0:
159,70,63481,1,2,1:2:0:0:
243,148,63909,1,2,1:2:0:0:
243,148,64123,2,0,P|268:136|295:133,2,55.0000016784668,2|2|2,3:2|1:2|3:2,0:0:0:0:
161,221,64981,102,0,P|134:268|140:322,1,110.000003356934,10|0,0:2|0:0,0:0:0:0:
177,362,65623,2,0,L|240:373,1,55.0000016784668,2|2,1:2|0:2,0:0:0:0:
263,326,66052,2,0,L|389:303,1,110.000003356934,2|2,1:2|1:2,0:0:0:0:
428,298,66695,1,2,0:2:0:0:
428,298,66909,2,0,B|445:242|445:242|431:193,2,110.000003356934,2|2|2,1:2|1:2|1:2,0:0:0:0:
351,377,68195,1,8,1:2:0:0:
351,377,68409,6,0,L|224:354,1,110.000003356934,2|0,0:2|0:0,0:0:0:0:
189,342,69052,2,0,P|177:316|174:289,1,55.0000016784668,2|2,1:2|0:2,0:0:0:0:
134,251,69481,2,0,P|160:203|154:149,1,110.000003356934,2|6,1:2|1:2,0:0:0:0:
180,101,70123,2,0,B|235:83|235:83|284:97,1,110.000003356934,2|2,0:2|0:2,0:0:0:0:
332,125,70766,1,2,1:2:0:0:
388,225,71195,1,2,1:2:0:0:
388,225,71409,1,2,3:2:0:0:
487,174,71838,1,10,0:2:0:0:
487,174,72052,102,0,L|498:110,1,55.0000016784668,6|0,1:2|0:2,0:0:0:0:
481,66,72481,2,0,P|433:39|379:45,1,110.000003356934,2|2,1:2|1:2,0:0:0:0:
290,108,73338,1,2,1:2:0:0:
182,91,73766,2,0,L|170:27,2,55.0000016784668,2|2|2,1:2|0:2|1:2,0:0:0:0:
140,127,74409,2,0,B|84:109|84:109|35:123,1,110.000003356934,2|2,0:2|0:2,0:0:0:0:
7,233,75266,1,2,0:2:0:0:
7,233,75481,6,0,L|18:296,1,55.0000016784668,2|2,1:2|0:2,0:0:0:0:
63,316,75909,2,0,P|88:304|115:301,1,55.0000016784668,2|2,1:2|0:2,0:0:0:0:
160,269,76338,2,0,L|152:174,2,82.5000025177002,2|2|2,1:2|0:2|0:2,0:0:0:0:
207,297,77195,1,2,1:2:0:0:
301,363,77624,1,10,0:2:0:0:
301,363,77838,2,0,B|356:380|356:380|405:366,1,110.000003356934,2|2,1:2|1:2,0:0:0:0:
454,339,78481,2,0,P|465:313|468:286,1,55.0000016784668,10|10,1:2|0:2,0:0:0:0:
470,236,78909,101,6,1:2:0:0:
470,236,85766,54,0,L|358:245,1,99.9999999999999,4|10,1:2|0:1,0:0:0:0:
309,323,86623,2,0,L|247:317,1,50,0|0,1:2|0:0,0:0:0:0:
209,312,87052,1,10,0:1:0:0:
128,371,87481,2,0,P|108:324|114:269,1,99.9999999999999,4|10,0:3|0:1,0:0:0:0:
82,242,88123,1,0,1:2:0:0:
82,242,88338,2,0,P|88:218|90:191,1,50,0|0,1:2|0:0,0:0:0:0:
90,142,88767,1,10,0:1:0:0:
162,72,89195,86,0,P|209:92|264:86,1,99.9999999999999,6|12,0:3|0:1,0:0:0:0:
345,135,90052,2,0,P|392:115|447:121,1,99.9999999999999,2|12,1:2|0:1,0:0:0:0:
488,144,90695,1,10,0:2:0:0:
488,144,90909,2,0,L|482:205,1,50,10|0,0:2|0:0,0:0:0:0:
485,247,91338,1,12,0:3:0:0:
485,247,91552,1,12,0:3:0:0:
381,53,92409,21,10,0:1:0:0:
381,53,92623,2,0,B|325:70|325:70|276:56,1,110.000003356934,6|10,1:2|1:1,0:0:0:0:
228,32,93266,2,0,B|172:14|172:14|123:28,1,110.000003356934,2|0,0:2|0:0,0:0:0:0:
78,49,93909,1,10,1:1:0:0:
78,49,94124,1,2,3:2:0:0:
22,145,94552,1,0,0:0:0:0:
22,145,94766,2,0,L|44:271,1,110.000003356934,10|2,1:1|1:2,0:0:0:0:
145,302,95624,1,8,1:1:0:0:
145,302,95838,38,0,P|192:275|246:281,1,110.000003356934,2|0,3:2|0:0,0:0:0:0:
295,306,96481,1,10,1:1:0:0:
403,286,96909,2,0,P|416:253|417:224,1,55.0000016784668,2|0,1:2|0:0,0:0:0:0:
464,202,97338,1,8,1:1:0:0:
464,202,97552,2,0,L|441:75,1,110.000003356934,2|2,0:2|0:2,0:0:0:0:
436,39,98195,1,10,1:1:0:0:
336,5,98624,1,2,1:2:0:0:
336,5,98838,1,0,0:0:0:0:
253,77,99267,1,0,0:0:0:0:
253,77,99481,102,0,L|189:65,1,55.0000016784668,6|0,1:2|0:0,0:0:0:0:
145,78,99909,2,0,P|118:125|124:179,1,110.000003356934,8|2,1:1|1:2,0:0:0:0:
190,266,100766,1,8,1:1:0:0:
299,272,101195,2,0,L|287:335,2,55.0000016784668,2|2|10,1:2|0:2|1:1,0:0:0:0:
348,247,101838,2,0,B|403:229|403:229|452:243,1,110.000003356934,0|0,0:2|0:0,0:0:0:0:
501,348,102695,1,2,3:2:0:0:
501,348,102909,6,0,B|445:365|445:365|396:351,1,110.000003356934,2|10,1:2|1:1,0:0:0:0:
290,318,103766,2,0,L|226:329,1,55.0000016784668,2|0,1:2|0:0,0:0:0:0:
202,371,104195,2,0,L|138:359,1,55.0000016784668,10|2,1:1|3:2,0:0:0:0:
93,350,104624,1,2,1:2:0:0:
52,253,105052,1,10,1:1:0:0:
52,253,105266,2,0,P|19:240|-10:239,2,55.0000016784668,0|2|0,1:2|1:2|0:0,0:0:0:0:
149,201,106123,102,0,L|126:74,1,110.000003356934,10|0,0:2|0:0,0:0:0:0:
170,55,106766,2,0,P|203:68|232:69,1,55.0000016784668,10|2,1:1|0:2,0:0:0:0:
265,103,107195,2,0,P|312:76|366:82,1,110.000003356934,2|10,1:2|1:1,0:0:0:0:
420,109,107838,1,2,3:2:0:0:
420,109,108052,2,0,B|437:53|437:53|423:4,2,110.000003356934,2|10|2,1:2|1:1|1:2,0:0:0:0:
498,194,109338,1,8,1:1:0:0:
498,194,109552,6,0,L|475:320,1,110.000003356934,2|0,3:2|0:0,0:0:0:0:
444,345,110195,2,0,P|418:333|391:330,1,55.0000016784668,10|2,1:1|0:2,0:0:0:0:
341,308,110624,2,0,P|293:334|239:328,1,110.000003356934,2|8,1:2|1:1,0:0:0:0:
195,295,111266,2,0,B|177:239|177:239|191:190,1,110.000003356934,2|2,0:2|0:2,0:0:0:0:
214,139,111909,1,10,1:1:0:0:
142,62,112338,1,2,1:2:0:0:
142,62,112552,1,0,0:0:0:0:
45,110,112981,1,0,0:0:0:0:
45,110,113195,102,0,L|56:173,1,55.0000016784668,6|0,1:2|0:0,0:0:0:0:
26,211,113623,2,0,L|3:337,1,110.000003356934,8|2,1:1|1:2,0:0:0:0:
104,369,114481,1,8,1:1:0:0:
204,322,114909,2,0,L|192:258,2,55.0000016784668,2|0|10,1:2|0:0|1:1,0:0:0:0:
256,337,115552,2,0,B|311:354|311:354|360:340,1,110.000003356934,2|0,0:2|0:0,0:0:0:0:
466,299,116409,1,0,0:0:0:0:
466,299,116623,6,0,L|443:173,1,110.000003356934,2|14,1:2|1:1,0:0:0:0:
404,163,117266,1,0,0:0:0:0:
404,163,117481,2,0,L|412:68,2,82.5000025177002,2|0|0,1:2|0:2|0:0,0:0:0:0:
355,188,118338,1,6,1:3:0:0:
269,255,118767,1,14,1:1:0:0:
269,255,118981,2,0,B|213:272|213:272|164:258,1,110.000003356934,0|0,0:0|0:2,0:0:0:0:
111,239,119624,2,0,P|100:213|97:186,1,55.0000016784668,10|10,1:2|0:2,0:0:0:0:
95,136,120052,101,6,1:2:0:0:
138,45,120481,2,0,L|249:35,1,99.9999999999999,10|0,1:1|1:2,0:0:0:0:
293,119,121338,2,0,L|404:128,1,99.9999999999999,10|0,1:1|1:2,0:0:0:0:
460,201,122195,2,0,P|480:248|474:303,1,99.9999999999999,10|0,1:1|1:2,0:0:0:0:
462,346,122838,1,0,0:0:0:0:
462,346,123052,2,0,P|438:340|411:338,1,50,8|2,1:1|0:2,0:0:0:0:
363,343,123481,38,0,L|251:352,1,99.9999999999999,2|10,1:2|1:1,0:0:0:0:
177,300,124338,2,0,L|184:219,2,74.9999999999999,2|0|0,1:2|0:2|0:0,0:0:0:0:
137,330,125195,1,2,1:2:0:0:
41,330,125623,1,10,1:1:0:0:
41,330,125838,2,0,P|21:283|27:228,1,99.9999999999999,2|0,1:2|0:0,0:0:0:0:
47,190,126481,2,0,P|71:183|98:182,1,50,10|2,1:1|0:2,0:0:0:0:
144,192,126909,101,6,1:2:0:0:
213,263,127338,2,0,L|324:253,1,99.9999999999999,10|0,1:1|1:2,0:0:0:0:
411,239,128195,2,0,P|431:192|425:137,1,99.9999999999999,10|0,1:1|1:2,0:0:0:0:
376,57,129052,2,0,P|329:37|274:43,1,99.9999999999999,10|2,1:1|1:2,0:0:0:0:
238,63,129695,1,0,0:0:0:0:
238,63,129909,2,0,P|214:69|187:71,1,50,10|0,1:1|3:2,0:0:0:0:
138,67,130338,6,0,L|128:178,1,99.9999999999999,4|10,1:3|1:1,0:0:0:0:
119,266,131195,2,0,L|199:273,2,74.9999999999999,2|0|0,1:2|0:2|3:2,0:0:0:0:
86,303,132052,2,0,L|5:310,2,74.9999999999999,2|0|0,1:2|0:2|0:0,0:0:0:0:
174,360,133123,1,0,0:0:0:0:
174,360,133338,2,0,L|229:364,1,50,8|8,0:2|0:2,0:0:0:0:
273,371,133766,101,6,1:2:0:0:
340,297,134195,2,0,P|387:317|442:311,1,99.9999999999999,10|0,1:1|1:2,0:0:0:0:
497,235,135052,2,0,L|487:123,1,99.9999999999999,10|0,1:1|1:2,0:0:0:0:
480,35,135909,2,0,P|433:15|378:21,1,99.9999999999999,10|0,1:1|1:2,0:0:0:0:
345,47,136552,1,0,0:0:0:0:
345,47,136766,2,0,P|338:70|337:97,1,50,8|2,1:1|0:2,0:0:0:0:
337,146,137195,6,0,P|290:166|235:160,1,99.9999999999999,2|10,1:2|1:1,0:0:0:0:
149,125,138052,2,0,L|141:205,2,74.9999999999999,2|0|0,1:2|0:2|3:2,0:0:0:0:
112,92,138909,2,0,L|104:11,2,74.9999999999999,2|0|0,1:2|0:2|1:2,0:0:0:0:
35,156,139981,1,0,0:0:0:0:
35,156,140195,2,0,P|41:179|43:206,1,50,10|0,1:1|3:2,0:0:0:0:
45,255,140623,101,4,1:3:0:0:
124,316,141052,2,0,P|171:296|226:302,1,99.9999999999999,14|0,1:1|1:2,0:0:0:0:
267,280,141695,1,0,0:0:0:0:
267,280,141909,2,0,P|314:300|369:294,1,99.9999999999999,14|4,1:1|1:3,0:0:0:0:
449,247,142766,2,0,L|439:135,1,99.9999999999999,14|4,1:1|1:3,0:0:0:0:
438,101,143409,1,0,0:0:0:0:
438,101,143623,2,0,P|391:81|336:87,1,99.9999999999999,14|6,1:1|1:2,0:0:0:0:
248,118,144481,102,0,L|257:229,1,99.9999999999999,14|6,1:1|1:2,0:0:0:0:
305,242,145123,1,0,0:0:0:0:
305,242,145338,2,0,L|299:305,1,50,14|0,1:1|0:0,0:0:0:0:
297,341,145766,1,6,1:2:0:0:
206,298,146195,2,0,P|159:278|104:284,1,99.9999999999999,14|6,1:1|1:2,0:0:0:0:
65,291,146838,1,0,0:0:0:0:
65,291,147052,2,0,L|59:227,1,50,14|8,1:1|0:2,0:0:0:0:
21,209,147481,102,0,L|30:97,1,99.9999999999999,6|14,1:3|1:1,0:0:0:0:
112,54,148338,2,0,P|159:74|214:68,1,99.9999999999999,2|8,1:2|1:1,0:0:0:0:
257,93,148981,1,2,3:2:0:0:
257,93,149195,2,0,P|281:86|308:85,1,50,6|0,1:2|0:0,0:0:0:0:
353,99,149623,2,0,L|343:210,1,99.9999999999999,8|0,1:1|1:2,0:0:0:0:
338,302,150481,1,12,0:3:0:0:
338,302,150695,1,12,0:3:0:0:
