osu file format v14

[General]
AudioFilename: [ARC - V] Bullettrain - Believe x Believe.mp3
AudioLeadIn: 0
PreviewTime: 49916
Countdown: 0
SampleSet: Soft
StackLeniency: 0.7
Mode: 0
LetterboxInBreaks: 0
WidescreenStoryboard: 0

[Editor]
Bookmarks: 8930,12310,15691,32592,39353,44212,57944,64705,68085,71465
DistanceSpacing: 1
BeatDivisor: 4
GridSize: 16
TimelineZoom: 1.4

[Metadata]
Title:Believe x Believe
TitleUnicode:Believe × Believe
Artist:BULLET TRAIN
ArtistUnicode:超特急
Creator:-Harpuia-
Version:Normal
Source:遊☆戯☆王ARC-V
Tags:Yu-Gi-Oh! ARC-V yugioh tv size opening 1 choutokkyuu bullettrain ビリ Takafumi Fujino フジノタカフミ SDR BelievexBelieve hytex
BeatmapID:1297595
BeatmapSetID:615143

[Difficulty]
HPDrainRate:4
CircleSize:3.5
OverallDifficulty:3.5
ApproachRate:5
SliderMultiplier:1.4
SliderTickRate:1

[Events]
//Background and Video events
0,0,"bgB.jpg",0,0
Video,0,"thank you cdfa.avi"
//Break Periods
//Storyboard Layer 0 (Background)
//Storyboard Layer 1 (Fail)
//Storyboard Layer 2 (Pass)
//Storyboard Layer 3 (Foreground)
//Storyboard Sound Samples

[TimingPoints]
480,422.535211267606,4,2,2,50,1,0
5550,-100,4,2,3,80,0,1
5972,-100,4,2,2,60,0,1
19071,-100,4,2,2,50,0,0
32592,-100,4,2,12,50,0,0
32803,-100,4,2,2,50,0,0
34282,-100,4,2,13,50,0,0
34494,-100,4,2,2,50,0,0
35972,-100,4,2,12,50,0,0
36184,-100,4,2,2,50,0,0
37663,-100,4,2,13,50,0,0
37874,-100,4,2,2,50,0,0
39353,-100,4,2,12,50,0,0
39564,-100,4,2,2,50,0,0
41043,-100,4,2,13,50,0,0
41254,-100,4,2,2,50,0,0
42733,-100,4,2,12,50,0,0
42944,-100,4,2,2,50,0,0
44212,-100,4,2,2,60,0,0
49916,-100,4,2,2,30,0,0
51184,-100,4,2,8,90,0,1
51606,-100,4,2,2,80,0,1
64916,-100,4,2,2,60,0,1
67874,-100,4,2,2,80,0,1
68085,-100,4,2,2,60,0,1
71254,-100,4,2,2,80,0,1
81606,-100,4,2,2,50,0,0
83930,-100,4,2,3,50,0,0
84141,-100,4,2,2,5,0,0

[Colours]
Combo1 : 192,192,192
Combo2 : 255,102,102
Combo3 : 192,192,192
Combo4 : 151,255,151
SliderBorder : 151,255,151
SliderTrackOverride : 100,100,100

[HitObjects]
287,134,480,5,4,0:0:0:0:
336,184,691,2,0,P|372:192|416:180,1,70,0|2,0:0|0:0,0:0:0:0:
369,50,1325,2,0,P|333:42|289:54,1,70,0|2,0:0|0:0,0:0:0:0:
208,152,1958,1,0,1:2:0:0:
208,152,2170,2,0,L|128:152,1,70,0|0,1:2|1:2,1:2:0:0:
90,100,2592,1,2,1:2:0:0:
30,136,2803,2,0,P|14:216|56:278,1,140,2|0,0:0|1:0,0:0:0:0:
100,300,3437,1,8,0:0:0:0:
212,216,3860,6,4,L|212:308,1,70,4|6,0:2|0:2,0:2:0:0:
336,348,4494,1,6,0:2:0:0:
328,208,4916,1,6,0:2:0:0:
212,286,5339,1,8,1:2:0:0:
156,244,5550,6,0,P|120:176|132:96,1,140,6|8,0:0|0:0,0:0:0:0:
260,152,6395,2,0,P|308:112|331:26,1,140,2|8,0:0|0:0,0:0:0:0:
448,120,7240,2,0,B|488:152|488:152|488:244,1,140,2|8,0:0|0:0,0:0:0:0:
444,296,7874,2,0,B|410:296|410:296|376:308|376:308|342:296|342:296|308:296,1,140
250,337,8508,2,0,L|166:337,1,70,8|0,0:0|0:0,0:0:0:0:
112,324,8930,6,0,B|72:296|72:296|72:200,1,140,6|8,0:0|0:0,0:0:0:0:
208,176,9775,2,0,B|236:216|236:216|332:216,1,140,2|8,0:0|0:0,0:0:0:0:
452,276,10620,2,0,P|464:192|428:124,1,140,2|8,0:0|0:0,0:0:0:0:
389,97,11254,2,0,B|355:97|355:97|321:84|321:84|287:97|287:97|253:97,1,140
187,121,11888,2,0,L|115:121,1,70,8|2,0:0|0:0,0:0:0:0:
52,96,12310,6,0,P|7:165|17:245,1,140,6|8,0:0|0:0,0:0:0:0:
145,198,13156,2,0,P|186:232|199:330,1,140,2|8,0:0|0:0,0:0:0:0:
338,351,14001,2,0,B|429:351|429:351|457:311,1,140,2|8,0:0|0:0,0:0:0:0:
486,247,14634,2,0,B|486:213|486:213|473:179|473:179|486:145|486:145|486:111,1,140
429,69,15268,2,0,L|345:69,1,70,8|2,0:0|0:0,0:0:0:0:
303,112,15691,6,0,B|263:140|263:140|263:240,1,140,6|8,0:0|0:0,0:0:0:0:
272,372,16536,2,0,B|232:336|232:336|136:336,1,140,2|8,0:0|0:0,0:0:0:0:
27,261,17381,2,0,P|43:162|87:125,1,140,10|8,0:0|0:0,0:0:0:0:
134,114,18015,2,8,L|194:166,1,70,8|10,0:0|0:0,0:0:0:0:
256,159,18437,1,10,0:0:0:0:
325,159,18649,2,8,L|378:114,1,70,8|10,0:0|0:0,0:0:0:0:
437,151,19071,6,0,B|489:203|489:203|489:303,1,140,6|8,0:0|0:0,0:0:0:0:
480,340,19705,1,0,0:0:0:0:
412,324,19916,2,0,B|340:308|340:308|272:324,1,140,2|8,0:0|0:0,0:0:0:0:
136,340,20761,2,0,L|44:340,2,70,0|2|8,0:0|0:0|0:0,0:0:0:0:
184,288,21395,1,0,0:0:0:0:
164,220,21606,2,0,B|132:184|132:184|32:184,1,140,2|8,0:0|0:0,0:0:0:0:
116,68,22451,6,0,P|188:80|236:128,1,140,2|8,0:0|0:0,0:0:0:0:
256,192,23085,1,0,0:0:0:0:
264,260,23296,2,0,P|314:307|382:317,1,140,2|8,0:0|0:0,0:0:0:0:
380,176,24141,1,0,0:0:0:0:
447,196,24353,2,0,L|447:280,2,70,2|10|0,0:0|0:0|0:0,0:0:0:0:
507,160,24987,2,0,L|507:90,1,70,0|2,0:0|0:0,0:0:0:0:
490,22,25409,2,0,B|457:9|457:9|423:12,1,70,10|0,0:0|0:0,0:0:0:0:
380,68,25832,6,0,P|304:52|236:76,1,140,6|8,0:0|0:0,0:0:0:0:
312,192,26677,2,0,P|244:208|177:190,1,140,2|8,0:0|0:0,0:0:0:0:
108,68,27522,2,0,P|52:116|40:200,2,140,2|8|2,0:0|0:0|0:0,0:0:0:0:
245,69,28789,1,8,0:0:0:0:
217,133,29001,1,0,0:0:0:0:
177,190,29212,6,0,B|144:252|144:252|188:336,1,140,6|8,0:0|0:0,0:0:0:0:
304,368,30057,2,0,B|337:306|337:306|293:222,1,140,2|8,0:0|0:0,0:0:0:0:
288,104,30902,2,0,B|360:104|360:104|428:164,2,140,2|8|6,1:2|0:0|0:0,0:0:0:0:
177,190,32170,1,14,0:0:0:0:
233,231,32381,1,8,0:0:0:0:
302,244,32592,6,0,P|196:326|71:280,1,280,6|10,0:0|0:0,0:0:0:0:
44,142,33860,1,0,0:0:0:0:
160,60,34282,2,0,B|200:116|176:190|176:190|205:109|291:107|291:107,1,280,4|10,0:0|0:0,0:0:0:0:
302,244,35550,1,0,0:0:0:0:
413,160,35972,2,0,B|468:117|468:117|514:176|514:176|468:215|468:215|485:249|468:295,1,280,6|10,0:0|0:0,0:0:0:0:
358,372,37240,1,0,0:0:0:0:
302,252,37663,6,0,B|236:226|236:226|146:259,1,140,6|0,0:0|0:0,0:0:0:0:
124,301,38296,1,0,0:0:0:0:
60,270,38508,2,0,P|38:234|35:191,1,70,14|0,0:0|0:0,0:0:0:0:
30,137,38930,2,0,P|36:102|56:74,1,70,2|0,0:0|0:0,0:0:0:0:
118,41,39353,6,0,P|196:117|358:87,1,280,6|10,0:0|0:0,0:0:0:0:
481,34,40620,1,0,0:0:0:0:
466,173,41043,2,0,B|450:262|481:314|481:314|443:269|357:269,1,280,4|10,0:0|0:0,0:0:0:0:
243,349,42310,1,0,0:0:0:0:
228,209,42733,6,0,B|228:161|228:161|220:137|220:137|228:113|228:113|228:71,1,140,6|0,0:0|0:0,0:0:0:0:
102,133,43578,2,0,L|102:291,1,140,8|8,0:0|0:0,0:0:0:0:
142,330,44212,6,0,P|208:359|298:331,1,140,6|0,0:0|0:0,0:0:0:0:
330,307,44846,1,8,0:0:0:0:
228,209,45268,1,0,0:0:0:0:
300,84,45691,1,8,0:0:0:0:
369,84,45902,1,6,0:0:0:0:
492,256,46536,5,8,0:0:0:0:
352,308,46958,2,0,L|400:376,2,70,0|2|8,0:0|0:0|0:0,0:0:0:0:
288,277,47592,2,0,B|248:305|248:305|140:305,1,140,6|0,0:0|0:0,0:0:0:0:
92,276,48226,1,8,0:0:0:0:
192,176,48649,6,0,L|272:176,2,70,0|2|8,0:0|0:0|0:0,0:0:0:0:
137,132,49282,1,6,0:0:0:0:
344,144,49916,6,0,P|348:200|280:264,2,140,0|0|0,0:0|0:0|0:0,0:0:0:0:
260,32,51184,6,0,B|192:16|192:16|116:36,1,140,6|8,0:0|0:0,0:0:0:0:
48,148,52029,2,0,B|116:164|116:164|192:144,1,140,2|8,0:0|0:0,0:0:0:0:
241,186,52663,2,0,B|213:250|213:250|141:266,1,140,2|0,0:0|0:0,0:0:0:0:
79,291,53296,1,10,0:0:0:0:
88,360,53508,1,2,0:0:0:0:
156,372,53719,2,0,L|308:340,1,140,2|8,0:0|0:0,0:0:0:0:
372,228,54564,6,0,P|384:300|443:343,2,140,6|12|6,0:0|0:0|0:0,0:0:0:0:
369,87,55832,1,8,0:0:0:0:
308,120,56043,2,0,B|212:120|212:120|164:92,1,140,6|0,0:0|0:0,0:0:0:0:
108,72,56677,2,0,L|32:72,1,70,8|6,0:0|0:0,0:0:0:0:
64,208,57310,2,0,L|140:208,2,70,2|8|2,0:0|0:0|0:0,0:0:0:0:
24,268,57944,6,0,B|72:324|72:324|152:324,1,140,6|8,0:0|0:0,0:0:0:0:
228,220,58789,2,0,B|222:153|222:153|163:111,1,140,2|8,0:0|0:0,0:0:0:0:
178,42,59423,2,0,B|230:26|230:26|306:78,1,140,2|0,0:0|0:0,0:0:0:0:
357,115,60057,1,8,0:0:0:0:
421,87,60268,1,2,0:0:0:0:
474,133,60480,2,0,B|494:279,1,140,0|8,0:0|0:0,0:0:0:0:
354,259,61325,6,0,P|296:221|220:221,2,140,6|12|6,0:0|0:0|0:0,0:0:0:0:
251,354,62592,1,10,0:0:0:0:
198,308,62803,2,0,B|112:282|112:282|94:219,1,140,6|0,0:0|0:0,0:0:0:0:
159,199,63437,2,0,L|227:219,1,70,8|6,0:0|0:0,0:0:0:0:
356,184,64071,2,0,L|343:258,2,70,0|8|2,0:0|0:0|0:0,0:0:0:0:
324,120,64705,6,0,P|268:88|180:96,1,140,6|8,0:0|0:0,0:0:0:0:
232,224,65550,2,0,P|195:282|133:313,1,140,2|8,0:0|0:0,0:0:0:0:
4,256,66395,2,0,B|4:172|4:172|44:132,1,140,2|8,0:0|0:0,0:0:0:0:
108,104,67029,1,0,0:0:0:0:
132,244,67451,1,0,0:0:0:0:
130,314,67663,1,8,0:0:0:0:
188,352,67874,6,0,P|276:358|321:310,1,140,6|0,0:0|0:0,0:0:0:0:
341,263,68508,1,8,0:0:0:0:
264,147,68930,2,0,P|228:206|239:274,1,140,2|8,0:0|0:0,0:0:0:0:
360,344,69775,2,0,B|432:352|432:352|484:276,1,140,2|8,0:0|0:0,0:0:0:0:
484,228,70409,1,0,0:0:0:0:
344,228,70832,1,0,0:0:0:0:
376,164,71043,1,8,0:0:0:0:
356,96,71254,6,0,B|320:56|320:56|232:56,1,140,6|0,0:0|0:0,0:0:0:0:
184,104,71888,1,8,0:0:0:0:
160,168,72099,2,0,P|104:200|20:176,1,140,2|0,0:0|0:0,0:0:0:0:
4,121,72733,1,8,0:0:0:0:
107,23,73156,2,0,L|194:23,1,70,2|0,0:0|0:0,0:0:0:0:
241,49,73578,1,8,0:0:0:0:
272,112,73789,2,0,B|304:144|304:144|398:144,1,140,2|0,0:0|0:0,0:0:0:0:
454,101,74423,1,8,0:0:0:0:
488,236,74846,6,0,P|480:308|436:364,1,140,6|8,0:0|0:0,0:0:0:0:
352,252,75691,2,0,L|324:168,2,70,0|2|8,0:0|0:0|0:0,0:0:0:0:
330,318,76325,2,0,P|282:354|190:338,1,140,6|0,0:0|0:0,0:0:0:0:
152,304,76958,2,0,L|72:304,1,70,10|0,0:0|0:0,0:0:0:0:
28,260,77381,1,10,0:0:0:0:
56,196,77592,1,8,0:0:0:0:
196,192,78015,1,6,0:0:0:0:
256,192,78226,12,6,81606,0:0:0:0:
384,320,83085,5,0,1:2:0:0:
416,256,83296,1,0,1:2:0:0:
384,192,83508,1,0,1:2:0:0:
416,128,83719,1,10,1:2:0:0:
384,64,83930,6,0,B|313:94|246:58|246:58|201:104|201:104|162:24|75:32|37:47|6:100|0:140|-11:211|61:242|114:261|163:233|196:189|196:189|130:311|243:371,1,910,6|0,0:0|0:0,0:0:0:0:
