osu file format v14

[General]
AudioFilename: [ARC - V] Bullettrain - Believe x Believe.mp3
AudioLeadIn: 0
PreviewTime: 49916
Countdown: 0
SampleSet: Soft
StackLeniency: 0.7
Mode: 0
LetterboxInBreaks: 0
WidescreenStoryboard: 0

[Editor]
Bookmarks: 8930,12310,15691,25832,32592,39353,44212,57944,64705,68085,71465
DistanceSpacing: 1.4
BeatDivisor: 4
GridSize: 4
TimelineZoom: 2

[Metadata]
Title:Believe x Believe
TitleUnicode:Believe × Believe
Artist:BULLET TRAIN
ArtistUnicode:超特急
Creator:-Harpuia-
Version:Light Insane
Source:遊☆戯☆王ARC-V
Tags:Yu-Gi-Oh! ARC-V yugioh tv size opening 1 choutokkyuu bullettrain ビリ Takafumi Fujino フジノタカフミ SDR BelievexBelieve hytex
BeatmapID:1341990
BeatmapSetID:615143

[Difficulty]
HPDrainRate:6
CircleSize:4
OverallDifficulty:6.5
ApproachRate:7.8
SliderMultiplier:1.7
SliderTickRate:1

[Events]
//Background and Video events
0,0,"bgD.jpg",0,0
Video,0,"thank you cdfa.avi"
//Break Periods
//Storyboard Layer 0 (Background)
//Storyboard Layer 1 (Fail)
//Storyboard Layer 2 (Pass)
//Storyboard Layer 3 (Foreground)
//Storyboard Sound Samples

[TimingPoints]
480,422.535211267606,4,2,2,50,1,0
480,-111.111111111111,4,2,2,50,0,0
3120,-111.111111111111,4,2,2,5,0,0
3226,-111.111111111111,4,2,2,50,0,0
3332,-111.111111111111,4,2,2,5,0,0
3437,-111.111111111111,4,2,2,50,0,0
5550,-90.9090909090909,4,2,3,80,0,1
5761,-90.9090909090909,4,2,2,60,0,1
17381,-90.9090909090909,4,2,2,30,0,1
17803,-90.9090909090909,4,2,2,40,0,1
18226,-90.9090909090909,4,2,2,50,0,1
18649,-90.9090909090909,4,2,2,70,0,1
19071,-100,4,2,2,50,0,0
30902,-133.333333333333,4,2,2,50,0,0
31536,-100,4,2,2,50,0,0
32592,-125,4,2,12,50,0,0
32803,-125,4,2,2,50,0,0
34282,-125,4,2,13,50,0,0
34494,-125,4,2,2,50,0,0
35972,-125,4,2,12,50,0,0
36184,-125,4,2,2,50,0,0
37663,-125,4,2,13,50,0,0
37874,-125,4,2,2,50,0,0
39353,-125,4,2,12,50,0,0
39564,-125,4,2,2,50,0,0
41043,-125,4,2,13,50,0,0
41254,-125,4,2,2,50,0,0
42733,-125,4,2,12,50,0,0
42944,-125,4,2,2,50,0,0
44212,-100,4,2,2,60,0,0
49916,-125,4,2,2,30,0,0
51184,-90.9090909090909,4,2,8,90,0,1
51395,-90.9090909090909,4,2,2,80,0,1
64916,-90.9090909090909,4,2,2,60,0,1
68085,-90.9090909090909,4,2,2,80,0,1
68296,-90.9090909090909,4,2,2,60,0,1
71465,-90.9090909090909,4,2,2,80,0,1
81606,-100,4,2,2,50,0,0
83930,-100,4,2,3,50,0,0
84036,-100,4,2,2,5,0,0

[Colours]
Combo1 : 192,192,192
Combo2 : 255,102,102
Combo3 : 192,192,192
Combo4 : 151,255,151
SliderBorder : 151,255,151
SliderTrackOverride : 100,100,100

[HitObjects]
424,320,480,5,6,0:0:0:0:
356,164,691,2,0,L|444:216,1,76.4999976654053,0|2,0:0|0:0,0:0:0:0:
252,228,1325,2,0,L|317:266,1,76.4999976654053,0|2,0:0|0:0,0:0:0:0:
160,288,1958,5,0,1:2:0:0:
252,228,2170,1,0,1:2:0:0:
192,136,2381,1,0,1:2:0:0:
100,196,2592,1,2,1:2:0:0:
252,228,2803,2,0,B|312:228|312:228|368:168,1,114.749996498108,2|0,0:0|0:0,0:0:0:0:
468,120,3226,6,0,L|468:164,1,38.2499988327027,0|0,1:0|0:0,0:0:0:0:
468,256,3437,1,8,0:0:0:0:
468,256,3860,5,6,0:0:0:0:
352,56,4071,1,6,0:0:0:0:
352,56,4494,1,6,0:0:0:0:
352,56,4916,1,2,1:2:0:0:
320,76,5022,1,0,1:2:0:0:
284,92,5127,2,0,L|228:92,1,38.2499988327027,8|0,1:2|1:2,1:2:0:0:
168,32,5339,2,0,L|120:32,1,38.2499988327027,8|0,1:2|1:2,1:2:0:0:
48,156,5550,6,0,B|84:192|84:192|128:204,1,93.5000028533936,6|0,0:0|0:0,0:0:0:0:
164,308,5972,2,0,L|70:284,1,93.5000028533936,8|0,0:0|0:0,0:0:0:0:
244,224,6395,2,0,P|292:216|356:236,1,93.5000028533936,2|0,0:0|0:0,0:0:0:0:
420,304,6818,1,8,0:0:0:0:
276,336,7029,1,2,0:0:0:0:
125,203,7240,6,0,P|140:156|180:124,1,93.5000028533936,2|0,0:0|0:0,0:0:0:0:
244,224,7663,1,8,0:0:0:0:
392,112,7874,2,0,L|284:112,2,93.5000028533936,2|0|2,0:0|0:0|0:0,0:0:0:0:
480,40,8508,1,8,0:0:0:0:
479,40,8719,1,2,0:0:0:0:
512,240,8930,6,0,B|467:250|467:250|400:236,1,93.5000028533936,6|0,0:0|0:0,0:0:0:0:
352,328,9353,2,0,L|460:352,1,93.5000028533936,8|0,0:0|0:0,0:0:0:0:
304,228,9775,2,0,P|259:219|214:230,1,93.5000028533936,2|0,0:0|0:0,0:0:0:0:
160,332,10198,1,8,0:0:0:0:
352,328,10409,1,2,0:0:0:0:
272,161,10620,6,0,P|235:189|214:231,1,93.5000028533936,2|0,0:0|0:0,0:0:0:0:
160,332,11043,1,8,0:0:0:0:
0,240,11254,2,0,L|104:240,2,93.5000028533936,2|0|2,0:0|0:0|0:0,0:0:0:0:
48,140,11888,1,8,0:0:0:0:
48,140,12099,1,0,0:0:0:0:
263,152,12310,6,0,B|305:165|305:165|353:153,1,93.5000028533936,6|0,0:0|0:0,0:0:0:0:
401,249,12733,2,0,L|293:277,1,93.5000028533936,8|0,0:0|0:0,0:0:0:0:
469,157,13156,2,0,P|504:192|512:252,1,93.5000028533936,2|0,0:0|0:0,0:0:0:0:
460,336,13578,1,8,0:0:0:0:
304,280,13789,1,2,0:0:0:0:
469,156,14001,6,0,P|460:104|432:64,1,93.5000028533936,2|0,0:0|0:0,0:0:0:0:
353,152,14423,1,8,0:0:0:0:
232,20,14634,2,0,L|349:56,2,93.5000028533936,2|0|2,0:0|0:0|0:0,0:0:0:0:
140,84,15268,1,10,0:0:0:0:
140,84,15480,1,2,0:0:0:0:
260,220,15691,6,0,B|272:172|272:172|260:129,1,93.5000028533936,6|0,0:0|0:0,0:0:0:0:
148,200,16113,2,0,B|172:290,1,93.5000028533936,10|0,0:0|0:0,0:0:0:0:
4,208,16536,2,0,P|5:161|26:120,1,93.5000028533936,2|0,0:0|0:0,0:0:0:0:
140,84,16958,1,8,0:0:0:0:
248,216,17170,1,2,0:0:0:0:
427,66,17381,5,10,1:2:0:0:
248,216,17592,1,10,1:2:0:0:
368,264,17803,1,10,1:2:0:0:
303,26,18015,1,10,1:2:0:0:
168,117,18226,6,0,L|121:121,1,46.7500014266968,8|0,1:2|1:2,1:2:0:0:
353,152,18437,2,0,L|399:156,1,46.7500014266968,8|0,1:2|1:2,1:2:0:0:
204,197,18649,6,0,L|157:201,1,46.7500014266968,8|0,1:2|1:2,1:2:0:0:
380,61,18860,2,0,L|426:65,1,46.7500014266968,8|0,1:2|1:2,1:2:0:0:
394,248,19071,6,0,B|352:248|352:248|312:233,1,85,6|0,0:0|0:0,0:0:0:0:
204,264,19494,1,8,0:0:0:0:
284,340,19705,1,0,0:0:0:0:
138,356,19916,2,0,P|106:329|92:290,1,85,2|0,0:0|0:0,0:0:0:0:
128,184,20339,1,8,0:0:0:0:
204,264,20550,1,0,0:0:0:0:
316,128,20761,6,0,B|272:128|272:128|236:156,1,85,2|0,0:0|0:0,0:0:0:0:
180,60,21184,1,8,0:0:0:0:
180,60,21395,1,0,0:0:0:0:
352,28,21606,2,0,L|456:28,1,85,2|0,0:0|0:0,0:0:0:0:
401,128,22029,1,8,0:0:0:0:
401,128,22134,2,0,L|293:128,1,85,0|0,0:0|0:0,0:0:0:0:
387,251,22451,6,0,B|432:252|432:252|468:235,1,85,6|0,0:0|0:0,0:0:0:0:
508,196,22768,1,0,0:0:0:0:
508,196,22874,1,10,0:0:0:0:
401,128,23085,1,0,0:0:0:0:
268,244,23296,2,0,P|272:296|296:332,1,85,2|0,0:0|0:0,0:0:0:0:
387,251,23719,1,8,0:0:0:0:
387,251,23930,1,0,0:0:0:0:
239,153,24141,5,4,0:0:0:0:
168,308,24353,1,2,0:0:0:0:
168,308,24458,1,0,0:0:0:0:
168,308,24564,2,0,L|80:308,1,85,10|0,0:0|0:0,0:0:0:0:
40,172,24987,1,0,0:0:0:0:
148,208,25198,1,2,0:0:0:0:
148,208,25303,1,0,0:0:0:0:
148,208,25409,2,0,L|232:208,1,85,10|0,0:0|0:0,0:0:0:0:
358,330,25832,6,0,B|314:338|314:338|254:322,1,85,6|0,0:0|0:0,0:0:0:0:
352,232,26254,2,0,B|396:224|396:224|456:240,1,85,8|0,0:0|0:0,0:0:0:0:
476,344,26677,1,2,1:2:0:0:
476,344,26888,1,2,1:2:0:0:
358,330,27099,1,8,0:0:0:0:
358,330,27310,1,0,0:0:0:0:
233,208,27522,6,0,L|249:124,1,85,2|0,0:0|0:0,0:0:0:0:
352,232,27944,2,0,L|368:148,1,85,10|0,0:0|0:0,0:0:0:0:
266,41,28367,2,0,L|249:124,1,85,2|0,1:2|1:2,1:2:0:0:
147,17,28789,2,0,L|130:100,1,85,8|0,0:0|0:0,0:0:0:0:
199,282,29212,6,0,B|225:251|225:251|232:207,1,85,2|0,0:0|0:0,0:0:0:0:
112,212,29634,2,0,B|85:242|85:242|78:286,1,85,10|0,0:0|0:0,0:0:0:0:
203,285,30057,1,2,1:2:0:0:
203,285,30268,1,2,1:2:0:0:
296,348,30480,1,8,0:0:0:0:
296,348,30691,1,0,0:0:0:0:
392,184,30902,6,0,B|344:268|344:268|420:352,1,191.250007295609,0|0,1:0|0:0,0:0:0:0:
452,372,31641,1,0,0:0:0:0:
452,372,31747,2,0,L|480:324,1,42.5,12|0,0:0|0:0,0:0:0:0:
492,278,31958,2,0,L|492:202,1,42.5
480,176,32170,2,0,L|452:128,2,42.5,12|0|8,0:0|0:0|0:0,0:0:0:0:
216,224,32592,6,0,B|284:224|284:224|320:160|320:160|292:96,1,204,6|0,0:0|0:0,0:0:0:0:
152,100,33437,1,8,0:0:0:0:
216,224,33649,1,0,0:0:0:0:
92,292,33860,1,0,0:0:0:0:
28,168,34071,1,2,0:0:0:0:
216,224,34282,6,0,B|284:224|284:224|316:164|316:164|396:164,1,204,4|0,0:0|0:0,0:0:0:0:
220,100,35127,2,0,L|124:100,1,68,10|0,0:0|0:0,0:0:0:0:
148,224,35550,2,0,L|220:224,1,68,2|0,0:0|0:0,0:0:0:0:
383,163,35972,6,0,B|323:187|323:187|323:223|323:223|323:259|323:259|391:283,1,204,6|0,0:0|0:0,0:0:0:0:
484,216,36818,1,10,0:0:0:0:
476,104,37029,1,2,0:0:0:0:
383,163,37240,1,0,0:0:0:0:
372,52,37451,1,2,0:0:0:0:
220,100,37663,6,0,L|124:100,1,68,4|0,0:0|0:0,0:0:0:0:
128,224,38085,2,0,L|212:224,1,68,0|0,0:0|0:0,0:0:0:0:
240,204,38402,1,0,0:0:0:0:
240,204,38508,5,10,0:0:0:0:
152,100,38719,1,0,0:0:0:0:
344,112,38930,5,2,0:0:0:0:
240,204,39141,1,0,0:0:0:0:
424,264,39353,6,0,B|348:264|348:264|316:320|316:320|224:320,1,204,6|0,0:0|0:0,0:0:0:0:
412,340,40198,2,0,L|496:340,1,68,10|0,0:0|0:0,0:0:0:0:
352,188,40620,2,0,L|420:188,1,68,2|0,0:0|0:0,0:0:0:0:
252,320,41043,6,0,B|200:349|200:349|120:321|120:321|100:265,1,204,4|0,0:0|0:0,0:0:0:0:
192,128,41888,2,0,L|124:164,1,68,10|0,0:0|0:0,0:0:0:0:
264,208,42310,2,0,L|196:244,1,68,2|0,0:0|0:0,0:0:0:0:
23,275,42733,6,0,B|16:211|16:211|63:158|63:158|131:159,1,204,4|0,0:0|0:0,0:0:0:0:
164,144,43472,1,0,0:0:0:0:
192,128,43578,1,10,0:0:0:0:
104,68,43789,2,0,L|64:68,1,34,8|0,0:0|0:0,0:0:0:0:
196,24,44001,2,0,L|240:24,1,34,10|0,0:0|0:0,0:0:0:0:
409,67,44212,6,0,P|374:132|322:80,1,170,6|0,0:0|0:0,0:0:0:0:
226,128,44846,2,0,P|244:176|296:216,1,85,10|0,0:0|0:0,0:0:0:0:
372,236,45268,1,0,0:0:0:0:
372,236,45480,1,2,0:0:0:0:
322,80,45691,1,8,0:0:0:0:
488,104,45902,6,0,B|476:156|444:180|444:180|472:216|456:272,1,170,6|0,0:0|0:0,0:0:0:0:
376,328,46536,2,0,P|333:319|296:288,1,85,10|0,0:0|0:0,0:0:0:0:
360,120,46958,1,0,0:0:0:0:
371,235,47170,1,2,0:0:0:0:
360,120,47381,1,10,0:0:0:0:
301,294,47592,6,0,B|280:344|280:344|252:284|164:296,1,170,6|0,0:0|0:0,0:0:0:0:
84,344,48226,2,0,P|68:296|84:248,1,85,10|0,0:0|0:0,0:0:0:0:
224,176,48649,1,0,0:0:0:0:
183,294,48860,1,2,0:0:0:0:
224,176,49071,1,10,0:0:0:0:
32,196,49282,1,6,0:0:0:0:
301,294,49916,6,0,B|284:228|284:228|316:164,2,136,2|0|2,0:0|0:0|0:0,0:0:0:0:
440,336,51184,6,0,L|412:244,1,93.5000028533936,6|0,0:0|0:0,0:0:0:0:
432,116,51606,2,0,L|468:28,1,93.5000028533936,8|0,0:0|0:0,0:0:0:0:
287,77,52029,2,0,L|314:166,1,93.5000028533936,2|0,0:0|0:0,0:0:0:0:
412,246,52451,1,8,0:0:0:0:
208,336,52663,6,0,B|188:296|208:248|208:248|228:200|204:148,1,187.000005706787,2|0,0:0|0:0,0:0:0:0:
112,244,53296,1,8,0:0:0:0:
112,244,53508,1,0,0:0:0:0:
301,294,53719,2,0,L|328:176,1,93.5000028533936,2|0,0:0|0:0,0:0:0:0:
456,156,54141,2,0,L|496:260,1,93.5000028533936,10|0,0:0|0:0,0:0:0:0:
264,304,54564,5,6,0:0:0:0:
288,96,54775,1,0,0:0:0:0:
364,360,54987,1,14,0:0:0:0:
313,178,55198,1,0,0:0:0:0:
148,352,55409,2,0,L|241:352,1,93.5000028533936,6|0,0:0|0:0,0:0:0:0:
384,284,55832,1,8,0:0:0:0:
218,165,56043,6,0,B|181:136|181:136|88:136|88:136|51:165,1,187.000005706787,6|0,0:0|0:0,0:0:0:0:
136,240,56677,1,8,0:0:0:0:
136,240,56888,1,2,0:0:0:0:
245,83,57099,2,0,B|207:55|207:55|157:55,1,93.5000028533936,6|0,0:0|0:0,0:0:0:0:
50,165,57522,2,0,B|88:193|88:193|139:193,1,93.5000028533936,8|2,0:0|0:0,0:0:0:0:
276,56,57944,6,0,L|369:64,1,93.5000028533936,6|0,0:0|0:0,0:0:0:0:
412,188,58367,2,0,L|318:179,1,93.5000028533936,8|0,0:0|0:0,0:0:0:0:
384,352,58789,2,0,L|491:342,1,93.5000028533936,2|0,0:0|0:0,0:0:0:0:
508,216,59212,1,8,0:0:0:0:
368,368,59423,6,0,B|324:348|276:364|276:364|228:384|176:364,1,187.000005706787,2|0,0:0|0:0,0:0:0:0:
228,244,60057,1,8,0:0:0:0:
228,244,60268,1,0,0:0:0:0:
56,360,60480,2,0,L|148:347,1,93.5000028533936,2|0,0:0|0:0,0:0:0:0:
192,225,60902,2,0,L|92:225,1,93.5000028533936,10|0,0:0|0:0,0:0:0:0:
276,56,61325,5,6,0:0:0:0:
288,240,61536,1,0,0:0:0:0:
148,16,61747,1,14,0:0:0:0:
152,204,61958,1,0,0:0:0:0:
376,88,62170,2,0,B|488:88,1,93.5000028533936,6|2,0:0|0:0,0:0:0:0:
424,231,62592,1,10,0:0:0:0:
264,233,62803,6,0,B|346:280|346:280|450:216,1,187.000005706787,6|0,0:0|0:0,0:0:0:0:
344,88,63437,1,8,0:0:0:0:
264,233,63649,2,0,B|222:312|222:312|305:361,1,187.000005706787,6|2,0:0|0:0,0:0:0:0:
344,280,64282,2,0,L|443:262,1,93.5000028533936,8|2,0:0|0:0,0:0:0:0:
145,286,64705,6,0,P|131:240|145:182,1,93.5000028533936,6|0,0:0|0:0,0:0:0:0:
255,138,65127,2,0,P|268:183|255:242,1,93.5000028533936,8|0,0:0|0:0,0:0:0:0:
36,236,65550,2,0,P|28:190|42:145,1,93.5000028533936,2|0,0:0|0:0,0:0:0:0:
145,105,65972,2,0,P|152:150|140:195,1,93.5000028533936,8|0,0:0|0:0,0:0:0:0:
228,32,66395,6,0,B|284:32|284:32|316:12,2,93.5000028533936,2|0|10,0:0|0:0|0:0,0:0:0:0:
255,138,67029,2,0,B|331:138|331:138|367:110|367:110|463:110,1,187.000005706787,0|2,0:0|0:0,0:0:0:0:
476,228,67663,1,10,0:0:0:0:
428,344,67874,1,0,0:0:0:0:
256,232,68085,6,0,P|304:224|368:248,1,93.5000028533936,6|0,0:0|0:0,0:0:0:0:
296,356,68508,2,0,P|248:364|184:340,1,93.5000028533936,8|0,0:0|0:0,0:0:0:0:
254,137,68930,2,0,P|208:129|164:144,1,93.5000028533936,2|0,0:0|0:0,0:0:0:0:
220,260,69352,2,0,P|175:273|129:267,1,93.5000028533936,8|0,0:0|0:0,0:0:0:0:
104,72,69775,6,0,L|163:143,2,93.5000028533936,2|0|10,0:0|0:0|0:0,0:0:0:0:
16,172,70409,2,0,B|16:272|16:272|60:348,1,187.000005706787,0|2,0:0|0:0,0:0:0:0:
180,356,71043,1,10,0:0:0:0:
144,240,71254,1,0,0:0:0:0:
332,352,71465,6,0,L|452:352,1,93.5000028533936,6|0,0:0|0:0,0:0:0:0:
512,256,71888,1,8,0:0:0:0:
380,232,72099,2,0,B|328:204|328:204|328:128|328:128|404:76,1,187.000005706787,2|0,0:0|0:0,0:0:0:0:
512,163,72733,2,0,L|512:259,1,93.5000028533936,8|0,0:0|0:0,0:0:0:0:
332,352,73156,5,2,0:0:0:0:
216,300,73367,1,2,0:0:0:0:
380,232,73578,1,8,0:0:0:0:
264,180,73789,2,0,B|216:168|168:188|168:188|120:204|80:187,1,187.000005706787,2|0,0:0|0:0,0:0:0:0:
36,312,74423,2,0,P|88:320|132:304,1,93.5000028533936,8|0,0:0|0:0,0:0:0:0:
264,180,74846,6,0,B|237:237|262:272|262:272|300:236|364:248,1,187.000005706787,6|8,0:0|0:0,0:0:0:0:
336,356,75480,1,0,0:0:0:0:
472,216,75691,1,2,0:0:0:0:
353,253,75902,1,0,0:0:0:0:
353,253,76008,1,0,0:0:0:0:
353,253,76113,1,8,0:0:0:0:
224,60,76325,6,0,B|292:60|292:60|336:88|336:88|424:88,1,187.000005706787,6|0,0:0|0:0,0:0:0:0:
456,88,76853,1,0,0:0:0:0:
456,88,76958,1,8,0:0:0:0:
264,180,77170,1,0,0:0:0:0:
264,180,77275,1,0,0:0:0:0:
264,180,77381,1,10,0:0:0:0:
480,296,77592,1,10,0:0:0:0:
456,88,77803,1,8,0:0:0:0:
312,352,78015,1,6,0:0:0:0:
256,192,78120,12,6,81606,0:0:0:0:
376,116,81818,6,0,L|468:168,1,85,0|2,0:0|0:0,0:0:0:0:
258,172,82452,2,0,L|334:216,1,85,0|2,0:0|0:0,0:0:0:0:
144,224,83085,5,0,1:2:0:0:
180,200,83191,1,0,1:2:0:0:
216,172,83296,2,0,L|264:172,1,42.5,0|0,1:2|1:2,1:2:0:0:
300,292,83508,2,0,L|252:292,1,42.5,0|0,1:2|1:2,1:2:0:0:
144,356,83719,1,8,1:2:0:0:
56,132,83930,6,0,B|120:160|248:112|232:40|180:0|68:4|64:80|148:168|220:172|220:172|276:128|264:40|264:40|284:176|336:152|328:236|316:260|300:292|300:292|332:240|408:248|400:160|400:160|444:184|460:252,1,1105,6|0,0:0|0:0,0:0:0:0:
