osu file format v14

[General]
AudioFilename: [ARC - V] Bullettrain - Believe x Believe.mp3
AudioLeadIn: 0
PreviewTime: 49916
Countdown: 0
SampleSet: Soft
StackLeniency: 0.7
Mode: 0
LetterboxInBreaks: 0
WidescreenStoryboard: 0

[Editor]
Bookmarks: 8930,12310,15691,25832,32592,39353,44212,57944,64705,68085,71465
DistanceSpacing: 1.2
BeatDivisor: 4
GridSize: 16
TimelineZoom: 1.6

[Metadata]
Title:Believe x Believe
TitleUnicode:Believe × Believe
Artist:BULLET TRAIN
ArtistUnicode:超特急
Creator:-Harpuia-
Version:Infinite Futures
Source:遊☆戯☆王ARC-V
Tags:Yu-Gi-Oh! ARC-V yugioh tv size opening 1 choutokkyuu bullettrain ビリ Takafumi Fujino フジノタカフミ SDR BelievexBelieve hytex
BeatmapID:1297882
BeatmapSetID:615143

[Difficulty]
HPDrainRate:6
CircleSize:4
OverallDifficulty:8.5
ApproachRate:8.7
SliderMultiplier:2
SliderTickRate:1

[Events]
//Background and Video events
0,0,"EGAO-INTENSIFIES.jpg",0,0
Video,0,"thank you cdfa.avi"
//Break Periods
//Storyboard Layer 0 (Background)
//Storyboard Layer 1 (Fail)
//Storyboard Layer 2 (Pass)
//Storyboard Layer 3 (Foreground)
//Storyboard Sound Samples

[TimingPoints]
480,422.535211267606,4,2,2,50,1,0
3120,-100,4,2,2,5,0,0
3226,-100,4,2,2,50,0,0
3332,-100,4,2,2,5,0,0
3437,-100,4,2,2,50,0,0
5550,-90.9090909090909,4,2,3,80,0,1
5761,-90.9090909090909,4,2,2,60,0,1
17381,-90.9090909090909,4,2,2,30,0,1
17803,-90.9090909090909,4,2,2,40,0,1
18226,-90.9090909090909,4,2,2,50,0,1
18649,-90.9090909090909,4,2,2,70,0,1
19071,-100,4,2,2,50,0,0
30902,-133.333333333333,4,2,2,50,0,0
31536,-100,4,2,2,50,0,0
32592,-125,4,2,12,50,0,0
32803,-125,4,2,2,50,0,0
34282,-125,4,2,13,50,0,0
34494,-125,4,2,2,50,0,0
35972,-125,4,2,12,50,0,0
36184,-125,4,2,2,50,0,0
37663,-125,4,2,13,50,0,0
37874,-125,4,2,2,50,0,0
39353,-125,4,2,12,50,0,0
39564,-125,4,2,2,50,0,0
41043,-125,4,2,13,50,0,0
41254,-125,4,2,2,50,0,0
42733,-125,4,2,12,50,0,0
42944,-125,4,2,2,50,0,0
44212,-100,4,2,2,50,0,0
49916,-200,4,2,2,30,0,0
51184,-83.3333333333333,4,2,8,90,0,1
51395,-83.3333333333333,4,2,2,80,0,1
64916,-83.3333333333333,4,2,2,60,0,1
68085,-83.3333333333333,4,2,2,80,0,1
68296,-83.3333333333333,4,2,2,60,0,1
71465,-83.3333333333333,4,2,2,80,0,1
81606,-100,4,2,2,50,0,0
83930,-133.333333333333,4,2,3,50,0,0
84036,-133.333333333333,4,2,2,5,0,0

[Colours]
Combo1 : 192,192,192
Combo2 : 196,136,255
Combo3 : 192,192,192
Combo4 : 135,47,255
SliderBorder : 151,255,151
SliderTrackOverride : 100,100,100

[HitObjects]
274,319,480,5,6,0:0:0:0:
326,119,691,2,0,L|298:227,1,100,0|2,0:0|0:0,0:0:0:0:
350,111,1325,2,0,L|322:219,1,100,0|2,0:0|0:0,0:0:0:0:
374,103,1958,6,0,L|358:159,1,50,0|0,1:2|1:2,1:2:0:0:
241,193,2170,2,0,L|199:151,1,50,0|0,1:2|1:2,1:2:0:0:
228,32,2381,2,0,L|284:16,1,50,0|0,1:2|1:2,1:2:0:0:
450,175,2592,1,2,1:2:0:0:
218,327,2803,6,0,B|154:327|154:327|130:311|130:311|66:311,1,150,2|0,0:0|0:0,0:0:0:0:
196,231,3226,2,0,L|284:231,1,50,0|0,1:0|0:0,0:0:0:0:
62,159,3437,1,8,0:0:0:0:
294,99,3860,5,6,0:0:0:0:
218,327,4071,1,6,0:0:0:0:
218,327,4494,1,6,0:0:0:0:
218,327,4916,1,0,1:2:0:0:
254,339,5022,1,0,1:2:0:0:
290,351,5127,2,0,L|346:351,1,50,8|0,1:2|1:2,1:2:0:0:
196,231,5339,2,0,L|124:231,1,50,8|0,1:2|1:2,1:2:0:0:
394,131,5550,6,0,P|418:195|410:247,1,110.000003356934,6|0,0:0|0:0,0:0:0:0:
278,159,5972,2,0,P|275:104|297:54,1,110.000003356934,8|0,0:0|0:0,0:0:0:0:
506,111,6395,1,2,0:0:0:0:
413,235,6606,1,0,0:0:0:0:
413,235,6712,1,0,0:0:0:0:
413,235,6818,1,8,0:0:0:0:
278,159,7029,1,2,0:0:0:0:
166,315,7240,6,0,B|222:323|222:323|322:299,1,110.000003356934,2|0,0:0|0:0,0:0:0:0:
413,235,7663,1,8,0:0:0:0:
196,231,7874,2,0,L|76:211,2,110.000003356934,2|0|2,0:0|0:0|0:0,0:0:0:0:
322,327,8508,1,8,0:0:0:0:
322,327,8719,1,2,0:0:0:0:
458,151,8930,6,0,B|470:97|470:97|458:44,1,110.000003356934,6|0,0:0|0:0,0:0:0:0:
315,107,9353,2,0,B|282:151|282:151|274:205,1,110.000003356934,8|0,0:0|0:0,0:0:0:0:
473,300,9775,1,2,0:0:0:0:
458,151,9987,1,0,0:0:0:0:
458,151,10092,1,0,0:0:0:0:
458,151,10198,1,8,0:0:0:0:
337,245,10409,1,2,0:0:0:0:
190,67,10620,6,0,P|245:60|296:78,1,110.000003356934,2|0,0:0|0:0,0:0:0:0:
458,151,11043,1,8,0:0:0:0:
233,172,11254,2,0,L|93:197,2,110.000003356934,2|0|2,0:0|0:0|0:0,0:0:0:0:
347,68,11888,1,8,0:0:0:0:
347,68,12099,1,2,0:0:0:0:
99,89,12310,6,0,P|98:144|123:191,1,110.000003356934,6|0,0:0|0:0,0:0:0:0:
254,275,12733,2,0,P|279:227|278:172,1,110.000003356934,8|0,0:0|0:0,0:0:0:0:
99,89,13156,1,2,0:0:0:0:
74,240,13367,1,0,0:0:0:0:
74,240,13473,1,0,0:0:0:0:
74,240,13578,1,8,0:0:0:0:
219,184,13789,1,2,0:0:0:0:
318,351,14001,6,0,B|373:353|373:353|419:325,1,110.000003356934,2|0,0:0|0:0,0:0:0:0:
512,201,14423,1,8,0:0:0:0:
314,267,14634,2,0,L|178:259,2,110.000003356934,2|0|2,0:0|0:0|0:0,0:0:0:0:
450,339,15268,1,8,0:0:0:0:
450,339,15480,1,2,0:0:0:0:
204,260,15691,6,0,B|199:207|199:207|228:158,1,110.000003356934,6|0,0:0|0:0,0:0:0:0:
343,75,16113,2,0,B|372:124|372:124|367:177,1,110.000003356934,8|0,0:0|0:0,0:0:0:0:
169,274,16536,1,2,0:0:0:0:
214,115,16747,1,0,0:0:0:0:
214,115,16853,1,0,0:0:0:0:
214,115,16958,1,8,0:0:0:0:
330,235,17170,1,2,0:0:0:0:
245,17,17381,5,8,1:2:0:0:
169,274,17592,1,8,1:2:0:0:
330,98,17803,1,8,1:2:0:0:
70,175,18015,1,8,1:2:0:0:
362,243,18226,6,0,L|434:255,1,55.0000016784668,10|10,1:2|1:2,1:2:0:0:
169,274,18437,2,0,L|81:306,1,55.0000016784668,8|8,1:2|1:2,1:2:0:0:
366,147,18649,2,0,L|438:155,1,55.0000016784668,10|10,1:2|1:2,1:2:0:0:
248,328,18860,2,0,L|176:360,1,55.0000016784668,8|8,1:2|1:2,1:2:0:0:
72,194,19071,6,0,P|64:145|80:98,1,100,6|0,0:0|0:0,0:0:0:0:
178,73,19493,1,8,0:0:0:0:
230,158,19704,1,0,0:0:0:0:
74,198,19916,1,2,0:0:0:0:
166,235,20127,1,0,0:0:0:0:
178,73,20339,1,10,0:0:0:0:
80,98,20550,1,0,0:0:0:0:
230,158,20761,5,2,0:0:0:0:
266,251,20972,1,0,0:0:0:0:
394,97,21184,2,0,L|316:191,1,100,10|0,0:0|0:0,0:0:0:0:
198,66,21606,2,0,P|247:63|293:84,1,100,2|0,0:0|0:0,0:0:0:0:
230,158,22029,1,10,0:0:0:0:
230,158,22134,2,0,B|180:148|180:148|112:163,1,100,0|0,0:0|0:0,0:0:0:0:
330,174,22451,6,0,P|386:186|448:169,1,100,6|0,0:0|0:0,0:0:0:0:
427,178,22768,1,2,0:0:0:0:
427,178,22874,1,10,0:0:0:0:
386,86,23085,1,0,0:0:0:0:
230,158,23296,2,0,P|234:211|281:262,1,100,2|0,0:0|0:0,0:0:0:0:
428,190,23719,1,10,0:0:0:0:
330,174,23930,1,0,0:0:0:0:
304,343,24141,5,4,0:0:0:0:
428,190,24353,1,2,0:0:0:0:
428,190,24458,1,0,0:0:0:0:
428,190,24564,2,0,L|452:296,1,100,10|0,0:0|0:0,0:0:0:0:
350,257,24987,1,2,0:0:0:0:
394,97,25198,1,0,0:0:0:0:
394,97,25303,1,2,0:0:0:0:
394,97,25409,2,0,B|440:72,1,50,10|0,0:0|0:0,0:0:0:0:
476,185,25620,2,0,B|427:189,1,50,0|0,0:0|0:0,0:0:0:0:
293,83,25832,6,0,P|308:36|368:1,1,100,6|0,0:0|0:0,0:0:0:0:
330,174,26254,2,0,P|281:184|221:150,1,100,10|0,0:0|0:0,0:0:0:0:
394,97,26677,1,2,1:2:0:0:
427,189,26888,1,2,1:2:0:0:
236,165,27098,1,8,0:0:0:0:
293,83,27310,1,2,0:0:0:0:
395,273,27522,6,0,P|374:329|311:361,1,100,2|0,0:0|0:0,0:0:0:0:
193,257,27944,2,0,P|242:268|291:261,1,100,10|0,0:0|0:0,0:0:0:0:
459,195,28367,1,2,1:2:0:0:
395,273,28578,1,0,1:2:0:0:
246,172,28789,1,8,0:0:0:0:
290,261,29001,1,0,0:0:0:0:
130,145,29212,6,0,P|147:98|209:67,1,100,6|0,0:0|0:0,0:0:0:0:
162,238,29634,2,0,P|113:245|54:208,1,100,10|0,0:0|0:0,0:0:0:0:
230,164,30057,1,2,1:2:0:0:
258,258,30268,1,2,1:2:0:0:
68,224,30480,1,8,0:0:0:0:
130,145,30690,1,2,0:0:0:0:
206,349,30902,6,0,P|313:348|364:254,1,225.000008583069,0|0,1:0|0:0,0:0:0:0:
372,261,31641,1,0,0:0:0:0:
372,261,31747,2,0,L|462:275,1,50,14|0,0:0|0:0,0:0:0:0:
230,158,31958,2,0,L|146:148,1,50,8|0,0:0|0:0,0:0:0:0:
445,146,32170,2,0,L|396:154,1,50,14|0,0:0|0:0,0:0:0:0:
212,255,32381,2,0,L|262:250,1,50,8|0,0:0|0:0,0:0:0:0:
311,92,32592,5,6,0:0:0:0:
327,195,32803,1,0,0:0:0:0:
230,158,33015,1,2,0:0:0:0:
327,195,33226,2,0,L|327:259,1,40,0|0,0:0|0:0,0:0:0:0:
403,16,33437,5,10,0:0:0:0:
216,168,33649,1,2,0:0:0:0:
199,48,33860,1,2,0:0:0:0:
424,137,34071,1,2,0:0:0:0:
148,223,34282,5,4,0:0:0:0:
133,120,34494,1,0,0:0:0:0:
133,120,34599,1,0,0:0:0:0:
133,120,34705,1,2,0:0:0:0:
230,158,34916,1,0,0:0:0:0:
52,292,35127,5,10,0:0:0:0:
267,260,35338,1,0,0:0:0:0:
34,169,35549,1,2,0:0:0:0:
169,338,35762,1,0,0:0:0:0:
349,195,35972,5,6,0:0:0:0:
364,298,36184,1,0,0:0:0:0:
267,260,36395,1,2,0:0:0:0:
364,298,36606,2,0,L|424:299,1,40,0|0,0:0|0:0,0:0:0:0:
143,226,36818,5,10,0:0:0:0:
242,148,37029,1,2,0:0:0:0:
143,226,37240,1,0,0:0:0:0:
125,102,37452,1,2,0:0:0:0:
327,196,37663,6,0,L|312:304,1,80,6|0,0:0|0:0,0:0:0:0:
220,320,38085,2,0,L|208:240,1,80,2|0,0:0|0:0,0:0:0:0:
404,196,38508,6,0,L|393:263,2,53.3333333333333,10|2|2,0:0|0:0|0:0,0:0:0:0:
315,275,38930,2,0,L|325:342,2,53.3333333333333,2|2|2,0:0|0:0|0:0,0:0:0:0:
311,92,39353,5,6,0:0:0:0:
409,131,39564,1,0,0:0:0:0:
327,196,39775,1,2,0:0:0:0:
409,131,39987,2,0,L|457:131,1,40,2|0,0:0|0:0,0:0:0:0:
210,150,40198,5,10,0:0:0:0:
443,241,40409,1,0,0:0:0:0:
228,274,40620,1,2,0:0:0:0:
425,118,40832,1,0,0:0:0:0:
148,223,41043,5,4,0:0:0:0:
133,120,41254,1,2,0:0:0:0:
51,185,41466,1,0,0:0:0:0:
133,120,41677,1,0,0:0:0:0:
258,261,41888,5,10,0:0:0:0:
43,293,42099,1,0,0:0:0:0:
240,137,42311,1,2,0:0:0:0:
160,339,42522,1,0,0:0:0:0:
340,196,42733,5,6,0:0:0:0:
258,261,42944,1,0,0:0:0:0:
355,299,43155,1,2,0:0:0:0:
437,234,43366,5,0,0:0:0:0:
437,234,43471,1,0,0:0:0:0:
437,234,43578,2,0,L|498:234,1,40,10|0,0:0|0:0,0:0:0:0:
258,261,43789,2,0,L|192:261,1,40,10|0,0:0|0:0,0:0:0:0:
355,299,44001,2,0,L|429:300,1,40,8|0,0:0|0:0,0:0:0:0:
217,160,44212,6,0,B|145:160|145:160|106:184|106:184|13:184,1,200,6|0,0:0|0:0,0:0:0:0:
178,57,44846,1,10,0:0:0:0:
217,160,45058,1,0,0:0:0:0:
396,91,45269,1,0,0:0:0:0:
287,74,45480,1,2,0:0:0:0:
435,193,45692,1,10,0:0:0:0:
217,160,45902,6,0,B|206:240|206:240|234:280|234:280|221:358,1,200,6|0,0:0|0:0,0:0:0:0:
326,176,46536,1,10,0:0:0:0:
365,279,46748,1,0,0:0:0:0:
217,160,46959,1,0,0:0:0:0:
287,74,47170,1,2,0:0:0:0:
256,263,47382,1,10,0:0:0:0:
396,91,47592,6,0,P|436:188|368:280,1,200,6|0,0:0|0:0,0:0:0:0:
217,160,48226,1,10,0:0:0:0:
326,177,48437,1,0,0:0:0:0:
186,349,48649,1,0,0:0:0:0:
147,246,48860,1,2,0:0:0:0:
365,280,49072,1,10,0:0:0:0:
82,325,49283,1,6,0:0:0:0:
328,168,49916,6,0,B|343:195|343:195|358:206|358:206|359:223|359:223|374:251,2,100,0|0|2,0:0|0:0|0:0,0:0:0:0:
328,168,51184,6,0,P|365:107|360:28,1,119.999996337891,6|0,0:0|0:0,0:0:0:0:
200,200,51606,2,0,P|234:262|305:297,1,119.999996337891,10|0,0:0|0:0,0:0:0:0:
236,68,52029,2,0,P|164:66|98:110,1,119.999996337891,2|2,0:0|0:0,0:0:0:0:
64,220,52451,1,8,0:0:0:0:
328,168,52663,6,0,P|350:283|266:383,1,239.999992675781,2|0,0:0|0:0,0:0:0:0:
209,251,53296,1,8,0:0:0:0:
136,376,53508,1,2,0:0:0:0:
32,156,53719,2,0,L|176:136,1,119.999996337891,2|0,0:0|0:0,0:0:0:0:
224,280,54141,2,0,L|100:272,1,119.999996337891,8|0,0:0|0:0,0:0:0:0:
328,168,54564,5,6,0:0:0:0:
280,375,54775,1,0,0:0:0:0:
204,96,54987,5,14,0:0:0:0:
308,272,55198,1,0,0:0:0:0:
368,0,55409,5,6,0:0:0:0:
230,195,55620,1,0,0:0:0:0:
388,120,55832,1,8,0:0:0:0:
116,12,56043,6,0,B|123:62|107:103|107:103|130:136|130:136|96:188|129:258,1,239.999992675781,6|0,0:0|0:0,0:0:0:0:
224,340,56677,1,8,0:0:0:0:
8,356,56889,2,0,B|16:264|16:264|-7:231|-7:231|2:111,1,239.999992675781,6|2,0:0|0:0,0:0:0:0:
236,160,57522,1,8,0:0:0:0:
88,248,57733,1,2,0:0:0:0:
326,287,57944,6,0,P|402:287|458:247,1,119.999996337891,6|0,0:0|0:0,0:0:0:0:
230,195,58367,2,0,P|192:260|198:329,1,119.999996337891,10|0,0:0|0:0,0:0:0:0:
358,159,58789,2,0,P|320:93|257:64,1,119.999996337891,2|2,0:0|0:0,0:0:0:0:
160,92,59212,1,8,0:0:0:0:
326,287,59423,6,0,P|204:328|108:256,1,239.999992675781,2|0,0:0|0:0,0:0:0:0:
230,195,60057,1,10,0:0:0:0:
112,136,60268,1,2,0:0:0:0:
336,32,60480,2,0,L|351:157,1,119.999996337891,2|0,0:0|0:0,0:0:0:0:
204,208,60902,2,0,L|219:88,1,119.999996337891,10|0,0:0|0:0,0:0:0:0:
336,328,61325,5,6,0:0:0:0:
96,272,61536,1,0,0:0:0:0:
412,192,61747,5,14,0:0:0:0:
204,324,61958,1,0,0:0:0:0:
504,304,62170,5,6,0:0:0:0:
204,208,62381,1,2,0:0:0:0:
336,328,62592,1,8,0:0:0:0:
480,80,62803,6,0,B|432:96|388:88|388:88|360:116|360:116|308:96|240:136,1,239.999992675781,6|0,0:0|0:0,0:0:0:0:
156,272,63437,1,10,0:0:0:0:
16,60,63649,2,0,B|108:52|108:52|136:24|136:24|256:12,1,239.999992675781,4|2,0:0|0:0,0:0:0:0:
184,172,64282,2,0,L|64:183,1,119.999996337891,8|2,0:0|0:0,0:0:0:0:
340,304,64705,5,6,0:0:0:0:
440,104,64916,1,0,0:0:0:0:
436,344,65127,1,8,0:0:0:0:
336,144,65338,1,0,0:0:0:0:
172,304,65550,5,2,0:0:0:0:
72,104,65761,1,0,0:0:0:0:
76,344,65972,1,8,0:0:0:0:
176,144,66183,1,0,0:0:0:0:
439,224,66395,6,0,L|443:342,1,119.999996337891,2|0,0:0|0:0,0:0:0:0:
256,304,66818,1,8,0:0:0:0:
352,116,67029,2,0,B|348:203|348:203|335:235|335:235|346:267|346:267|343:371,1,239.999992675781,2|2,0:0|0:0,0:0:0:0:
260,152,67663,1,8,0:0:0:0:
439,224,67874,1,2,0:0:0:0:
172,352,68085,5,6,0:0:0:0:
52,132,68296,1,0,0:0:0:0:
200,216,68508,1,8,0:0:0:0:
52,296,68719,1,0,0:0:0:0:
340,352,68930,5,2,0:0:0:0:
460,132,69141,1,0,0:0:0:0:
312,216,69353,1,10,0:0:0:0:
460,296,69564,1,0,0:0:0:0:
189,335,69775,6,0,L|199:215,1,119.999996337891,2|2,0:0|0:0,0:0:0:0:
324,120,70198,1,8,0:0:0:0:
92,124,70409,2,0,B|98:210|98:210|89:244|89:244|104:274|104:274|114:378,1,239.999992675781,2|0,0:0|0:0,0:0:0:0:
12,156,71043,1,8,0:0:0:0:
28,332,71254,1,2,0:0:0:0:
92,124,71465,6,0,P|140:70|201:57,1,119.999996337891,6|0,0:0|0:0,0:0:0:0:
299,107,71888,1,8,0:0:0:0:
309,344,72099,2,0,P|208:290|200:175,1,239.999992675781,2|0,0:0|0:0,0:0:0:0:
308,225,72733,2,0,B|366:238|366:238|425:225,1,119.999996337891,10|0,0:0|0:0,0:0:0:0:
190,54,73156,5,2,0:0:0:0:
100,244,73367,1,2,0:0:0:0:
190,54,73579,1,8,0:0:0:0:
308,225,73789,2,0,P|409:156|385:21,1,239.999992675781,2|0,0:0|0:0,0:0:0:0:
298,105,74423,2,0,B|239:118|239:118|181:105,1,119.999996337891,10|0,0:0|0:0,0:0:0:0:
8,257,74846,6,0,P|64:238|122:249,1,119.999996337891,6|0,0:0|0:0,0:0:0:0:
188,349,75268,2,0,P|132:368|74:357,1,119.999996337891,8|0,0:0|0:0,0:0:0:0:
177,142,75691,1,2,0:0:0:0:
256,300,75902,1,0,0:0:0:0:
256,300,76008,1,0,0:0:0:0:
256,300,76113,1,8,0:0:0:0:
8,257,76325,6,0,B|0:200|40:168|40:168|24:144|24:144|64:96|44:32,1,239.999992675781,6|0,0:0|0:0,0:0:0:0:
46,39,76853,1,0,0:0:0:0:
46,39,76958,1,8,0:0:0:0:
122,249,77170,1,0,0:0:0:0:
122,249,77275,1,0,0:0:0:0:
122,249,77381,1,10,0:0:0:0:
372,32,77592,1,10,0:0:0:0:
390,249,77803,1,10,0:0:0:0:
140,32,78015,1,6,0:0:0:0:
256,192,78120,12,6,81606,0:0:0:0:
231,303,81818,6,0,L|231:196,1,100,0|2,0:0|0:0,0:0:0:0:
198,211,82451,2,0,L|198:311,1,100,0|2,0:0|0:0,0:0:0:0:
166,317,83085,6,0,L|166:251,1,50,0|0,1:2|1:2,1:2:0:0:
345,267,83296,2,0,L|345:317,1,50,0|0,1:2|1:2,1:2:0:0:
132,324,83508,6,0,L|132:265,1,50,0|0,1:2|1:2,1:2:0:0:
380,274,83719,2,0,L|380:324,1,50,2|0,1:2|1:2,1:2:0:0:
256,360,83930,6,0,B|212:320|212:320|212:227|212:227|182:211|182:211|153:141|182:55|182:55|212:102|212:102|256:78|256:16|256:16|256:78|299:102|299:102|329:55|329:55|358:141|329:211|329:211|299:227|299:227|299:320|299:320|256:360,1,975.0000371933,6|0,0:0|0:0,0:0:0:0:
