osu file format v14

[General]
AudioFilename: [ARC - V] Bullettrain - Believe x Believe.mp3
AudioLeadIn: 0
PreviewTime: 49916
Countdown: 0
SampleSet: Soft
StackLeniency: 0.4
Mode: 0
LetterboxInBreaks: 0
WidescreenStoryboard: 0

[Editor]
Bookmarks: 8930,12310,15691,25832,32592,39353,44212,57944,64705,68085,71465
DistanceSpacing: 1
BeatDivisor: 4
GridSize: 4
TimelineZoom: 2.699999

[Metadata]
Title:Believe x Believe
TitleUnicode:Believe × Believe
Artist:BULLET TRAIN
ArtistUnicode:超特急
Creator:-Harpuia-
Version:Hytex's Hard
Source:遊☆戯☆王ARC-V
Tags:Yu-Gi-Oh! ARC-V yugioh tv size opening 1 choutokkyuu bullettrain ビリ Takafumi Fujino フジノタカフミ SDR BelievexBelieve hytex
BeatmapID:1351253
BeatmapSetID:615143

[Difficulty]
HPDrainRate:6
CircleSize:3.7
OverallDifficulty:5
ApproachRate:7.5
SliderMultiplier:1.5
SliderTickRate:1

[Events]
//Background and Video events
0,0,"bgC.jpg",0,0
Video,0,"thank you cdfa.avi"
//Break Periods
//Storyboard Layer 0 (Background)
//Storyboard Layer 1 (Fail)
//Storyboard Layer 2 (Pass)
//Storyboard Layer 3 (Foreground)
//Storyboard Sound Samples

[TimingPoints]
480,422.535211267606,4,2,2,50,1,0
3437,-111.111111111111,4,2,2,35,0,0
3464,-111.111111111111,4,2,2,50,0,0
5550,-90.9090909090909,4,2,3,60,0,1
5761,-90.9090909090909,4,2,2,60,0,1
7055,-90.9090909090909,4,2,2,55,0,1
7214,-90.9090909090909,4,2,2,50,0,1
7372,-90.9090909090909,4,2,2,35,0,1
7451,-90.9090909090909,4,2,2,30,0,1
7478,-90.9090909090909,4,2,2,60,0,1
8085,-90.9090909090909,4,2,2,40,0,1
8112,-90.9090909090909,4,2,2,50,0,1
8508,-90.9090909090909,4,2,2,40,0,1
8534,-90.9090909090909,4,2,2,60,0,1
10435,-90.9090909090909,4,2,2,55,0,1
10594,-90.9090909090909,4,2,2,50,0,1
10752,-90.9090909090909,4,2,2,35,0,1
10832,-90.9090909090909,4,2,2,30,0,1
10858,-90.9090909090909,4,2,2,50,0,1
11465,-90.9090909090909,4,2,2,40,0,1
11492,-90.9090909090909,4,2,2,50,0,1
11888,-90.9090909090909,4,2,2,40,0,1
11914,-90.9090909090909,4,2,2,60,0,1
13816,-90.9090909090909,4,2,2,55,0,1
13974,-90.9090909090909,4,2,2,50,0,1
14133,-90.9090909090909,4,2,2,35,0,1
14212,-90.9090909090909,4,2,2,30,0,1
14238,-90.9090909090909,4,2,2,50,0,1
14846,-90.9090909090909,4,2,2,40,0,1
14872,-90.9090909090909,4,2,2,50,0,1
15268,-90.9090909090909,4,2,2,40,0,1
15295,-90.9090909090909,4,2,2,60,0,1
17196,-90.9090909090909,4,2,2,55,0,1
17355,-90.9090909090909,4,2,2,50,0,1
17513,-90.9090909090909,4,2,2,35,0,1
17592,-90.9090909090909,4,2,2,30,0,1
17619,-90.9090909090909,4,2,2,50,0,1
18226,-90.9090909090909,4,2,2,55,0,1
18332,-90.9090909090909,4,2,2,45,0,1
18437,-90.9090909090909,4,2,2,55,0,1
18543,-90.9090909090909,4,2,2,45,0,1
18649,-90.9090909090909,4,2,2,35,0,1
18754,-90.9090909090909,4,2,2,25,0,1
18860,-90.9090909090909,4,2,2,35,0,1
18965,-90.9090909090909,4,2,2,25,0,1
19071,-100,4,2,2,50,0,0
32592,-100,4,2,12,50,0,0
32909,-100,4,2,2,50,0,0
34282,-100,4,2,13,50,0,0
34599,-100,4,2,2,50,0,0
35972,-100,4,2,12,50,0,0
36289,-100,4,2,2,50,0,0
37663,-100,4,2,13,50,0,0
37980,-100,4,2,2,50,0,0
39353,-100,4,2,12,50,0,0
39670,-100,4,2,2,50,0,0
41043,-100,4,2,13,50,0,0
41360,-100,4,2,2,50,0,0
42733,-100,4,2,12,50,0,0
43050,-100,4,2,2,50,0,0
44212,-100,4,2,2,50,0,0
49916,-125,4,2,2,30,0,0
51184,-90.9090909090909,4,2,8,70,0,1
51395,-90.9090909090909,4,2,2,70,0,1
78015,-200,4,2,2,70,0,1
81184,-200,4,2,2,5,0,1
81289,-100,4,2,2,50,0,0
83930,-100,4,2,3,50,0,0
84036,-100,4,2,2,5,0,0

[Colours]
Combo1 : 192,192,192
Combo2 : 255,102,102
Combo3 : 192,192,192
Combo4 : 151,255,151
SliderBorder : 151,255,151
SliderTrackOverride : 100,100,100

[HitObjects]
60,76,480,5,6,0:0:0:0:
112,152,691,2,0,L|192:144,1,75,0|2,0:0|0:0,0:0:0:0:
402,91,1325,2,0,L|328:80,1,75,0|2,0:0|0:0,0:0:0:0:
430,247,1958,5,2,1:2:0:0:
388,332,2170,1,2,1:2:0:0:
344,252,2381,1,2,1:2:0:0:
252,244,2592,2,0,L|172:240,1,75,0|2,1:2|0:0,0:0:0:0:
36,220,3225,1,0,0:0:0:0:
56,128,3437,1,8,0:0:0:0:
116,300,3860,5,6,0:0:0:0:
192,352,4071,1,4,0:0:0:0:
328,268,4494,1,6,0:0:0:0:
196,172,4916,1,0,1:2:0:0:
196,172,5022,1,0,1:2:0:0:
196,172,5127,2,0,L|136:168,3,33.7499989700318,8|0|8|0,1:2|1:2|1:2|1:2,1:2:0:0:
128,160,5550,6,0,P|132:200|128:248,1,82.5000025177003,14|0,0:0|0:0,0:0:0:0:
136,348,5972,2,0,L|251:342,1,82.5000025177003,2|0,1:2|0:0,0:0:0:0:
324,336,6395,2,0,P|368:324|400:296,1,82.5000025177003,10|0,0:0|0:0,0:0:0:0:
440,204,6818,1,0,1:2:0:0:
468,100,7029,6,2,P|388:64|304:60,1,165.000005035401,10|0,0:0|0:0,0:0:0:0:
252,142,7663,1,0,1:2:0:0:
252,142,7874,2,0,L|141:135,1,82.5000025177003,2|2,0:0|0:0,0:0:0:0:
63,120,8296,1,2,0:0:0:0:
106,218,8508,1,2,0:0:0:0:
65,317,8719,1,2,0:0:0:0:
65,317,8930,6,0,L|165:305,1,82.5000025177003,14|0,0:0|0:0,0:0:0:0:
250,277,9353,1,2,1:2:0:0:
356,284,9564,1,0,0:0:0:0:
340,188,9775,2,0,P|396:192|428:220,1,82.5000025177003,10|0,0:0|0:0,0:0:0:0:
472,296,10198,1,0,1:2:0:0:
392,356,10409,6,2,L|204:340,1,165.000005035401,8|0,0:0|0:0,0:0:0:0:
128,336,11043,1,0,1:2:0:0:
128,336,11254,2,0,P|148:276|147:229,1,82.5000025177003,2|2,0:0|0:0,0:0:0:0:
143,149,11677,1,2,0:0:0:0:
220,80,11888,1,2,0:0:0:0:
324,101,12099,1,2,0:0:0:0:
348,205,12310,6,0,L|340:317,1,82.5000025177003,14|0,0:0|0:0,0:0:0:0:
253,348,12733,1,2,1:2:0:0:
167,283,12944,1,0,0:0:0:0:
167,283,13156,2,0,L|155:179,1,82.5000025177003,10|0,0:0|0:0,0:0:0:0:
115,102,13578,1,0,1:2:0:0:
205,44,13789,6,2,B|273:64|273:64|312:28|372:48,1,165.000005035401,10|0,0:0|0:0,0:0:0:0:
428,128,14423,1,0,1:2:0:0:
368,216,14634,2,0,L|268:213,1,82.5000025177003,2|2,0:0|0:0,0:0:0:0:
180,204,15057,1,2,0:0:0:0:
242,119,15268,1,2,0:0:0:0:
285,213,15480,1,2,0:0:0:0:
212,292,15691,6,0,P|148:292|108:260,1,82.5000025177003,14|0,0:0|0:0,0:0:0:0:
92,204,16113,1,2,1:2:0:0:
92,204,16325,1,0,0:0:0:0:
152,124,16536,2,0,L|252:112,1,82.5000025177003,10|0,0:0|0:0,0:0:0:0:
320,164,16958,1,0,1:2:0:0:
384,88,17170,6,0,P|419:140|395:242,1,165.000005035401,10|0,0:0|0:0,0:0:0:0:
340,308,17803,1,0,1:2:0:0:
340,308,18015,1,2,0:0:0:0:
244,280,18226,2,8,L|176:276,3,41.2500012588501
152,284,18649,2,8,L|84:288,3,41.2500012588501
68,272,19071,6,0,P|76:216|72:176,1,75,6|0,0:0|0:0,0:0:0:0:
56,108,19494,1,2,1:2:0:0:
144,132,19705,1,0,0:0:0:0:
216,80,19916,2,0,L|320:88,1,75,2|0,0:0|0:0,0:0:0:0:
380,96,20339,1,2,1:2:0:0:
380,96,20550,1,0,0:0:0:0:
344,180,20761,5,2,0:0:0:0:
344,180,20972,1,0,0:0:0:0:
392,256,21184,2,0,L|384:364,1,75,2|0,1:2|0:0,0:0:0:0:
300,352,21606,2,0,P|256:336|200:340,1,75,2|0,0:0|0:0,0:0:0:0:
184,344,21923,2,0,P|192:288|184:224,1,112.5,2|0,1:2|0:0,0:0:0:0:
124,168,22451,6,0,P|124:116|136:76,1,75,6|0,0:0|0:0,0:0:0:0:
156,52,22768,1,0,0:0:0:0:
156,52,22874,1,0,1:2:0:0:
251,35,23085,1,0,0:0:0:0:
267,129,23296,2,0,L|371:125,1,75,2|0,0:0|0:0,0:0:0:0:
434,106,23719,1,2,1:2:0:0:
434,106,23930,1,0,0:0:0:0:
394,244,24141,5,4,0:0:0:0:
452,340,24353,1,0,0:0:0:0:
452,340,24458,1,0,0:0:0:0:
452,340,24564,2,0,P|408:328|364:336,1,75,2|0,1:2|0:0,0:0:0:0:
288,328,24987,2,0,P|300:268|292:240,1,75,2|4,0:0|0:0,0:0:0:0:
280,216,25303,2,0,P|268:144|280:100,1,112.5,2|0,0:0|0:0,0:0:0:0:
348,52,25832,6,0,B|428:48|428:48|492:100,2,150,6|2|2,0:0|1:2|0:0,0:0:0:0:
256,208,27099,1,2,1:2:0:0:
164,52,27522,2,0,B|84:48|84:48|20:100,2,150,2|2|2,0:0|1:2|0:0,0:0:0:0:
256,196,28789,2,0,L|256:284,1,75
252,112,29212,6,0,B|212:88|212:88|104:128,2,150,2|2|2,0:0|1:2|0:0,0:0:0:0:
256,348,30480,1,2,1:2:0:0:
252,112,30902,2,0,B|292:88|292:88|400:128,2,150,2|2|2,0:0|1:2|0:0,0:0:0:0:
256,304,32170,2,2,L|256:256,3,37.5,2|2|2|2,1:2|1:2|1:2|1:2,1:2:0:0:
256,220,32592,6,0,B|224:192|224:192|128:196,1,112.5,6|0,0:0|0:0,0:0:0:0:
48,280,33226,1,2,1:2:0:0:
68,192,33437,2,0,L|52:112,1,75,8|2,0:0|0:0,0:0:0:0:
144,108,33860,2,0,L|128:28,1,75,0|2,0:0|0:0,0:0:0:0:
216,48,34282,6,0,B|268:56|268:56|348:40,1,112.5,6|0,0:0|0:0,0:0:0:0:
460,64,34916,1,0,1:2:0:0:
404,136,35127,2,0,P|416:172|420:228,1,75,10|0,0:0|0:0,0:0:0:0:
332,232,35550,2,0,P|320:268|316:324,1,75,2|0,0:0|0:0,0:0:0:0:
236,344,35972,6,0,B|176:348|176:348|104:328,1,112.5,6|0,0:0|0:0,0:0:0:0:
28,240,36606,1,0,1:2:0:0:
100,188,36818,2,0,P|100:144|104:108,1,75,8|2,0:0|0:0,0:0:0:0:
188,83,37240,2,0,P|188:121|184:158,1,75,0|2,0:0|0:0,0:0:0:0:
228,240,37663,6,0,B|304:248|304:248|356:216,1,112.5,6|0,0:0|0:0,0:0:0:0:
416,124,38296,1,0,1:2:0:0:
460,204,38508,2,0,L|512:200,2,50,6|2|2,0:0|0:0|0:0,0:0:0:0:
412,240,38930,2,0,L|360:236,2,50,6|2|2,0:0|0:0|0:0,0:0:0:0:
444,292,39353,6,0,B|412:324|412:324|320:320,1,112.5,6|0,0:0|0:0,0:0:0:0:
216,272,39987,1,0,1:2:0:0:
296,236,40198,2,0,L|288:148,1,75,10|0,0:0|0:0,0:0:0:0:
376,180,40620,2,0,L|368:92,1,75,2|0,0:0|0:0,0:0:0:0:
452,140,41043,6,0,P|460:212|424:256,1,112.5,6|0,0:0|0:0,0:0:0:0:
324,316,41677,1,0,1:2:0:0:
248,268,41888,2,0,P|196:264|156:268,1,75,8|2,0:0|0:0,0:0:0:0:
112,200,42310,2,0,P|60:204|20:200,1,75,0|2,0:0|0:0,0:0:0:0:
72,120,42733,6,0,B|144:116|144:116|192:156,1,112.5,6|0,0:0|0:0,0:0:0:0:
240,260,43367,1,0,1:2:0:0:
312,204,43578,2,0,P|360:200|408:208,1,75,10|0,0:0|0:0,0:0:0:0:
448,272,44001,1,0,1:2:0:0:
356,292,44212,5,6,0:0:0:0:
256,192,44318,12,2,46536,0:0:0:0:
312,56,46958,6,0,L|404:60,2,75,2|0|2,0:0|0:0|1:2,0:0:0:0:
244,116,47592,1,6,0:0:0:0:
176,376,48226,5,2,0:0:0:0:
104,324,48648,2,0,L|0:340,2,75,2|0|2,0:0|0:0|1:2,0:0:0:0:
169,250,49282,1,6,0:0:0:0:
292,64,49917,6,2,L|432:72,2,120,2|2|2,0:0|0:0|0:0,0:0:0:0:
232,152,51184,6,0,P|189:155|140:148,1,82.5000025177003,14|0,0:0|0:0,0:0:0:0:
48,117,51606,1,2,1:2:0:0:
48,117,51818,1,0,0:0:0:0:
53,223,52029,2,0,P|57:263|71:302,1,82.5000025177003,10|0,0:0|0:0,0:0:0:0:
175,281,52451,1,0,1:2:0:0:
268,333,52663,6,0,B|332:349|332:349|444:321,1,165.000005035401,10|0,0:0|0:0,0:0:0:0:
488,236,53296,1,2,1:2:0:0:
380,226,53508,1,0,0:0:0:0:
444,152,53719,2,0,P|456:100|448:60,1,82.5000025177003,10|0,0:0|0:0,0:0:0:0:
356,48,54141,2,0,L|236:56,1,82.5000025177003,2|0,1:2|0:0,0:0:0:0:
224,64,54458,1,0,0:0:0:0:
224,64,54564,6,0,P|240:104|228:160,1,82.5000025177003,12|0,0:0|0:0,0:0:0:0:
180,224,54987,2,0,L|84:216,1,82.5000025177003,0|0,1:2|0:0,0:0:0:0:
128,312,55409,2,0,L|236:320,1,82.5000025177003,8|0,0:0|0:0,0:0:0:0:
272,240,55832,1,0,1:2:0:0:
344,315,56043,6,0,P|369:276|346:166,1,165.000005035401,12|0,0:0|0:0,0:0:0:0:
236,165,56677,2,0,P|279:121|281:73,1,82.5000025177003,2|0,1:2|0:0,0:0:0:0:
215,19,57099,1,8,0:0:0:0:
116,31,57310,2,0,L|8:43,2,82.5000025177003,2|8|2,0:0|1:2|0:0,0:0:0:0:
204,88,57944,6,0,P|220:132|216:180,1,82.5000025177003,14|0,0:0|0:0,0:0:0:0:
156,244,58367,2,0,L|172:352,1,82.5000025177003,2|0,1:2|0:0,0:0:0:0:
264,352,58789,1,10,0:0:0:0:
264,352,59001,1,2,0:0:0:0:
332,280,59212,1,0,1:2:0:0:
420,324,59423,6,0,P|432:256|360:184,1,165.000005035401,10|0,0:0|0:0,0:0:0:0:
276,172,60057,1,10,1:2:0:0:
336,92,60268,1,0,0:0:0:0:
232,84,60480,2,0,L|140:76,1,82.5000025177003,10|0,0:0|0:0,0:0:0:0:
96,160,60902,2,0,L|188:168,1,82.5000025177003,10|0,1:2|0:0,0:0:0:0:
276,172,61325,6,0,P|268:236|284:264,1,82.5000025177003,14|0,0:0|0:0,0:0:0:0:
368,284,61747,2,0,L|468:272,1,82.5000025177003,2|0,1:2|0:0,0:0:0:0:
316,356,62170,2,0,L|232:348,1,82.5000025177003,10|0,0:0|0:0,0:0:0:0:
197,259,62592,1,0,1:2:0:0:
136,328,62803,6,0,B|156:224|156:224|140:160,1,165.000005035401,10|0,0:0|0:0,0:0:0:0:
116,72,63437,1,2,1:2:0:0:
212,104,63649,1,10,0:0:0:0:
240,300,64071,2,0,L|232:352,2,41.2500012588501,8|2|0,0:0|0:0|0:0,0:0:0:0:
324,244,64494,1,8,0:0:0:0:
324,244,64599,1,2,0:0:0:0:
324,244,64705,6,0,L|308:136,1,82.5000025177003,14|0,0:0|0:0,0:0:0:0:
278,63,65127,2,0,P|226:47|174:55,1,82.5000025177003,2|0,1:2|0:0,0:0:0:0:
99,56,65550,2,0,L|107:144,1,82.5000025177003,10|0,0:0|0:0,0:0:0:0:
115,245,65972,2,0,P|167:261|219:253,1,82.5000025177003,2|0,1:2|0:0,0:0:0:0:
277,200,66395,6,0,L|365:208,1,82.5000025177003,10|0,0:0|0:0,0:0:0:0:
432,272,66818,1,0,1:2:0:0:
438,173,67029,2,0,B|418:113|438:65|438:65|490:37,2,165.000005035401,10|2|2,0:0|0:0|1:2,0:0:0:0:
420,272,68085,6,0,L|324:264,1,82.5000025177003,14|0,0:0|0:0,0:0:0:0:
232,178,68508,2,0,P|184:186|148:214,1,82.5000025177003,0|0,1:2|0:0,0:0:0:0:
56,284,68930,2,0,L|44:192,2,82.5000025177003,10|0|2,0:0|0:0|1:2,0:0:0:0:
164,292,69564,1,0,0:0:0:0:
164,292,69775,6,0,B|224:272|224:272|260:305|336:311,1,165.000005035401,10|0,0:0|1:2,0:0:0:0:
428,312,70409,2,0,L|404:207,1,82.5000025177003,2|8,0:0|0:0,0:0:0:0:
388,128,70832,1,2,0:0:0:0:
388,128,71043,1,0,0:0:0:0:
312,52,71254,2,0,L|260:48,1,41.2500012588501,2|2,0:2|0:0,0:0:0:0:
216,44,71465,6,0,P|224:100|208:140,1,82.5000025177003,14|0,0:0|0:0,0:0:0:0:
156,212,71888,2,0,L|68:208,2,82.5000025177003,10|0|2,1:2|0:0|0:0,0:0:0:0:
228,292,72522,1,0,0:0:0:0:
228,292,72733,2,0,L|328:284,1,82.5000025177003,10|0,1:2|0:0,0:0:0:0:
416,276,73156,6,0,P|404:224|412:184,1,82.5000025177003,14|0,0:0|0:0,0:0:0:0:
452,100,73578,1,0,1:2:0:0:
368,36,73789,2,0,L|188:40,1,165.000005035401,10|0,0:0|0:0,0:0:0:0:
96,48,74423,1,10,1:2:0:0:
274,167,74846,6,0,P|330:221|416:196,1,165.000005035401,14|0,0:0|1:2,0:0:0:0:
471,115,75480,2,0,L|460:33,2,82.5000025177003,10|0|2,0:0|0:0|0:0,0:0:0:0:
507,216,76114,1,10,1:2:0:0:
435,295,76325,6,0,L|269:279,1,165.000005035401,14|0,0:0|0:0,0:0:0:0:
206,193,76958,2,0,L|310:181,1,82.5000025177003,10|0,1:2|0:0,0:0:0:0:
394,171,77381,1,2,0:0:0:0:
394,171,77592,1,2,0:0:0:0:
307,27,78015,5,6,0:0:0:0:
256,192,78120,12,0,81184,0:0:0:0:
265,284,81606,6,0,L|346:275,1,75,6|0,0:0|0:0,0:0:0:0:
396,188,82029,1,2,0:0:0:0:
396,188,82451,1,0,0:0:0:0:
340,100,82663,1,2,0:0:0:0:
340,100,83085,6,2,L|288:108,5,37.5,2|2|2|2|2|2,1:2|1:2|1:2|1:2|1:2|1:2,1:2:0:0:
228,112,83719,2,0,L|176:104,1,37.5
152,40,83930,6,0,B|116:22|40:41|21:121|62:178|62:178|116:197|152:158|152:158|232:140|262:178|302:222|267:275|236:296|178:298|190:232,1,600,6|0,0:0|0:0,0:0:0:0:
