osu file format v14

[General]
AudioFilename: [ARC - V] Bullettrain - Believe x Believe.mp3
AudioLeadIn: 0
PreviewTime: 49916
Countdown: 0
SampleSet: Soft
StackLeniency: 0.7
Mode: 0
LetterboxInBreaks: 0
WidescreenStoryboard: 0

[Editor]
Bookmarks: 8930,12310,15691,25832,32592,39353,44212
DistanceSpacing: 1
BeatDivisor: 4
GridSize: 4
TimelineZoom: 1.2

[Metadata]
Title:Believe x Believe
TitleUnicode:Believe × Believe
Artist:BULLET TRAIN
ArtistUnicode:超特急
Creator:-Harpuia-
Version:Easy
Source:遊☆戯☆王ARC-V
Tags:Yu-Gi-Oh! ARC-V yugioh tv size opening 1 choutokkyuu bullettrain ビリ Takafumi Fujino フジノタカフミ SDR BelievexBelieve hytex
BeatmapID:1319611
BeatmapSetID:615143

[Difficulty]
HPDrainRate:2
CircleSize:2.5
OverallDifficulty:2
ApproachRate:3
SliderMultiplier:1.1
SliderTickRate:1

[Events]
//Background and Video events
0,0,"bgA.jpg",0,0
Video,0,"thank you cdfa.avi"
//Break Periods
//Storyboard Layer 0 (Background)
//Storyboard Layer 1 (Fail)
//Storyboard Layer 2 (Pass)
//Storyboard Layer 3 (Foreground)
//Storyboard Sound Samples

[TimingPoints]
480,422.535211267606,4,2,2,50,1,0
5550,-100,4,2,3,80,0,1
5972,-100,4,2,2,60,0,1
17381,-100,4,2,2,30,0,1
17803,-100,4,2,2,40,0,1
18226,-100,4,2,2,50,0,1
18649,-100,4,2,2,70,0,1
19071,-100,4,2,2,50,0,0
32592,-100,4,2,12,50,0,0
32803,-100,4,2,2,50,0,0
34282,-100,4,2,13,50,0,0
34494,-100,4,2,2,50,0,0
35972,-100,4,2,12,50,0,0
36184,-100,4,2,2,50,0,0
37663,-100,4,2,13,50,0,0
37874,-100,4,2,2,50,0,0
39353,-100,4,2,12,50,0,0
39564,-100,4,2,2,50,0,0
41043,-100,4,2,13,50,0,0
41254,-100,4,2,2,50,0,0
42733,-100,4,2,12,50,0,0
42944,-100,4,2,2,50,0,0
44212,-100,4,2,2,60,0,0
49916,-100,4,2,2,30,0,0
51184,-100,4,2,8,90,0,1
51606,-100,4,2,2,80,0,1
65127,-100,4,2,2,60,0,1
68085,-100,4,2,2,80,0,1
68508,-100,4,2,2,60,0,1
71465,-100,4,2,2,80,0,1
81606,-100,4,2,2,50,0,0
83930,-100,4,2,3,50,0,0
84141,-100,4,2,2,5,0,0

[Colours]
Combo1 : 192,192,192
Combo2 : 255,102,102
Combo3 : 192,192,192
Combo4 : 151,255,151
SliderBorder : 151,255,151
SliderTrackOverride : 100,100,100

[HitObjects]
92,120,480,5,6,0:0:0:0:
188,320,1325,1,2,0:0:0:0:
296,192,1959,1,0,1:2:0:0:
336,156,2170,2,0,P|392:144|448:164,1,110,0|2,1:2|1:2,1:2:0:0:
480,196,2803,2,0,P|488:276|416:348,1,165,2|12,0:0|0:0,0:0:0:0:
20,272,5550,6,0,P|60:320|112:336,1,110,6|8,0:0|0:0,0:0:0:0:
116,228,6395,2,0,P|149:185|199:165,1,110,2|8,0:0|0:0,0:0:0:0:
216,272,7240,2,0,B|276:360|276:360|392:360,1,220,2|2,0:0|0:0,0:0:0:0:
480,296,8508,1,8,0:0:0:0:
380,256,8930,6,0,P|420:203|476:189,1,110,2|8,0:0|0:0,0:0:0:0:
460,80,9775,2,0,P|410:36|352:32,1,110,2|8,0:0|0:0,0:0:0:0:
280,92,10620,2,0,B|196:92|196:92|160:68|160:68|64:68,1,220,2|2,0:0|0:0,0:0:0:0:
32,172,11888,1,8,0:0:0:0:
44,280,12310,6,0,P|84:316|144:324,1,110,2|8,0:0|0:0,0:0:0:0:
132,216,13156,2,0,P|152:176|212:144,1,110,2|8,0:0|0:0,0:0:0:0:
316,156,14001,2,0,B|424:156|424:156|488:256,1,220,2|2,0:0|0:0,0:0:0:0:
488,360,15268,1,8,0:0:0:0:
392,308,15691,6,0,P|340:296|268:316,1,110,6|8,0:0|0:0,0:0:0:0:
188,364,16536,2,0,P|134:374|81:362,1,110,2|8,0:0|0:0,0:0:0:0:
80,252,17381,2,0,P|133:241|186:253,1,110,10|10,1:2|1:2,1:2:0:0:
285,306,18226,2,0,P|337:318|409:298,1,110,8|10,1:2|1:2,1:2:0:0:
484,250,19071,6,0,B|424:156|424:156|316:156,1,220,6|2,0:0|0:0,0:0:0:0:
208,144,20339,1,8,0:0:0:0:
186,253,20761,2,0,P|133:264|80:252,1,110,2|8,0:0|0:0,0:0:0:0:
36,152,21606,2,0,L|36:20,1,110,2|10,0:0|0:0,0:0:0:0:
148,40,22451,6,0,B|256:64|256:64|370:38,1,220,2|2,0:0|0:0,0:0:0:0:
448,108,23719,1,8,0:0:0:0:
380,196,24141,1,0,0:0:0:0:
380,308,24564,2,0,L|496:360,2,110,10|0|10,0:0|0:0|0:0,0:0:0:0:
276,335,25832,6,0,P|212:347|160:331,1,110,6|8,0:0|0:0,0:0:0:0:
84,267,26677,2,0,P|72:213|84:160,1,110,2|8,0:0|0:0,0:0:0:0:
168,88,27522,2,0,P|221:75|274:87,2,110,2|8|2,0:0|0:0|0:0,0:0:0:0:
64,52,28789,1,8,0:0:0:0:
83,160,29212,6,0,P|71:213|83:266,1,110,6|8,0:0|0:0,0:0:0:0:
169,335,30057,2,0,P|222:346|275:334,1,110,2|8,0:0|0:0,0:0:0:0:
360,260,30902,2,0,P|371:206|359:153,2,110,2|8|6,1:2|0:0|0:0,0:0:0:0:
384,367,32170,1,12,0:0:0:0:
280,336,32592,6,0,B|223:317|168:336|168:336|116:240|116:240|72:276|0:252,1,330,6|2,0:0|0:0,0:0:0:0:
52,152,34282,2,0,B|32:92|76:48|76:48|168:104|168:104|232:80|296:104,1,330,4|0,0:0|0:0,0:0:0:0:
372,152,35972,2,0,B|413:117|470:129|470:129|492:244|492:244|447:280|384:260,1,330,6|2,0:0|0:0,0:0:0:0:
280,248,37663,6,0,L|159:248,1,110,6|0,0:0|0:0,0:0:0:0:
212,348,38508,2,0,L|336:348,1,110,8|0,0:0|0:0,0:0:0:0:
389,261,39353,6,0,B|447:280|491:244|491:244|459:191|469:130|469:130|413:119|372:152,1,330,6|2,0:0|0:0,0:0:0:0:
264,176,41043,2,0,B|208:200|156:176|156:176|156:288|156:288|56:344,1,330,4|0,0:0|0:0,0:0:0:0:
20,240,42733,6,0,L|20:116,1,110,6|0,0:0|0:0,0:0:0:0:
104,56,43578,2,0,L|232:56,1,110,10|8,0:0|0:0,0:0:0:0:
264,80,44212,6,0,P|296:153|262:225,1,165,6|10,0:0|0:0,0:0:0:0:
168,280,45268,1,0,0:0:0:0:
264,332,45691,2,0,L|320:332,1,55,10|6,0:0|0:0,0:0:0:0:
476,284,46536,5,8,0:0:0:0:
420,188,46958,1,2,0:0:0:0:
316,225,47381,2,0,L|240:225,1,55,10|6,0:0|0:0,0:0:0:0:
168,364,48226,5,8,0:0:0:0:
64,328,48649,1,2,0:0:0:0:
92,224,49071,2,0,L|164:224,1,55,10|6,0:0|0:0,0:0:0:0:
212,76,49916,6,0,P|156:88|92:60,2,110,0|0|2,0:0|0:0|0:0,0:0:0:0:
320,60,51184,6,0,L|432:60,1,110,6|8,0:0|0:0,0:0:0:0:
488,152,52029,2,0,L|488:276,1,110,2|8,0:0|0:0,0:0:0:0:
456,368,52874,1,2,0:0:0:0:
360,312,53296,1,10,0:0:0:0:
252,348,53719,2,0,P|194:321|167:277,1,110,2|8,0:0|0:0,0:0:0:0:
188,176,54564,6,0,P|245:202|272:246,2,110,6|12|6,0:0|0:0|0:0,0:0:0:0:
84,216,55832,1,8,0:0:0:0:
0,147,56254,2,0,B|32:39,1,110,2|8,0:0|0:0,0:0:0:0:
136,10,57099,2,0,B|189:25|189:25|228:82,1,110,2|8,0:0|0:0,0:0:0:0:
188,176,57944,6,0,L|188:296,1,110,6|8,0:0|0:0,0:0:0:0:
276,352,58789,2,0,L|384:304,1,110,2|8,0:0|0:0,0:0:0:0:
468,244,59634,1,2,0:0:0:0:
386,175,60057,1,10,0:0:0:0:
472,104,60480,2,0,P|429:71|361:66,1,110,2|8,0:0|0:0,0:0:0:0:
288,132,61325,6,0,P|264:72|276:16,2,110,6|12|6,0:0|0:0|0:0,0:0:0:0:
386,175,62592,1,8,0:0:0:0:
468,248,63015,2,0,L|436:364,1,110,2|10,0:0|0:0,0:0:0:0:
325,356,63860,2,0,P|271:365|217:355,1,110,0|10,0:0|0:0,0:0:0:0:
211,250,64705,6,0,L|211:126,1,110,6|8,0:0|0:0,0:0:0:0:
115,202,65550,2,0,L|115:326,1,110,2|8,0:0|0:0,0:0:0:0:
218,356,66395,2,0,P|272:344|308:304,2,110,2|8|2,0:0|0:0|0:0,0:0:0:0:
212,248,67663,1,8,0:0:0:0:
212,138,68085,6,0,L|332:138,1,110,6|8,0:0|0:0,0:0:0:0:
268,40,68930,2,0,L|158:40,1,110,2|8,0:0|0:0,0:0:0:0:
99,135,69775,2,0,P|112:196|160:236,2,110,2|8|2,0:0|0:0|0:0,0:0:0:0:
212,138,71043,1,8,0:0:0:0:
322,138,71465,6,0,L|437:138,1,110,6|8,0:0|0:0,0:0:0:0:
511,214,72310,2,0,P|525:271|511:318,1,110,2|8,0:0|0:0,0:0:0:0:
413,371,73156,2,0,L|289:371,1,110,2|8,0:0|0:0,0:0:0:0:
232,286,74001,2,0,P|176:274|120:290,1,110,0|8,0:0|0:0,0:0:0:0:
48,367,74846,6,0,B|4:299|4:299|4:155,1,220,6|2,0:0|0:0,0:0:0:0:
77,78,76113,1,8,0:0:0:0:
153,158,76536,2,0,L|277:158,1,110,6|8,0:0|0:0,0:0:0:0:
333,74,77381,2,0,P|373:141|337:236,1,165,2|6,0:0|0:0,0:0:0:0:
256,192,78226,12,4,81606,0:0:0:0:
119,88,83085,5,0,1:2:0:0:
87,136,83296,2,0,L|87:256,1,110,0|8,1:2|1:2,1:2:0:0:
119,292,83930,6,0,B|183:260|226:293|226:293|272:274|272:274|348:349|436:297|463:269|452:244|473:214|523:171|462:89|416:51|346:48|277:80|259:127,1,715,6|0,0:0|0:0,0:0:0:0:
