osu file format v14

[General]
AudioFilename: audio.mp3
AudioLeadIn: 0
PreviewTime: 9224
Countdown: 0
SampleSet: Normal
StackLeniency: 0
Mode: 1
LetterboxInBreaks: 0
WidescreenStoryboard: 1

[Editor]
Bookmarks: 9223,15609,16673,17737,21995,25187,26252,34766
DistanceSpacing: 0.5
BeatDivisor: 8
GridSize: 32
TimelineZoom: 3.5

[Metadata]
Title:NE PLACH'
TitleUnicode:НЕ ПЛАЧЬ
Artist:BULANOVA
ArtistUnicode:BULÁNØVA
Creator:liku
Version:lite oni
Source:
Tags:Татьяна Буланова Скоро боль пройдёт Tatiana tatyana Bulanova Atmospheric Black Metal Russian bread and salt records ХЛЕБ ДА СОЛЬ REC Immoral Basement IBR_567
BeatmapID:3666058
BeatmapSetID:1740291

[Difficulty]
HPDrainRate:6
CircleSize:5
OverallDifficulty:5.5
ApproachRate:5
SliderMultiplier:1.4
SliderTickRate:1

[Events]
//Background and Video events
0,0,"holybg.jpg",0,-78
//Break Periods
//Storyboard Layer 0 (Background)
//Storyboard Layer 1 (Fail)
//Storyboard Layer 2 (Pass)
//Storyboard Layer 3 (Foreground)
//Storyboard Layer 4 (Overlay)
//Storyboard Sound Samples

[TimingPoints]
-1419,532.150776053215,4,1,0,5,1,0
709,-100,4,1,0,20,0,0
2837,-100,4,1,0,20,0,0
4966,-100,4,1,0,30,0,0
7094,-100,4,1,0,30,0,0
9224,-57.1428571428571,4,1,0,80,0,1
16674,-57.1428571428571,4,1,0,80,0,0
17738,-57.1428571428571,4,1,0,80,0,1
21995,-57.1428571428571,4,1,0,80,0,0
26252,-57.1428571428571,4,1,0,80,0,1
34767,-57.1428571428571,4,1,0,80,0,0
34833,-62.5,4,1,0,50,0,0
42882,-59.7014925373134,4,1,0,65,0,0
43281,-57.1428571428571,4,1,0,80,0,1
60310,-55.5555555555556,4,1,0,80,0,0
61374,-100,4,1,0,80,0,0
62439,-100,4,1,0,70,0,0
63503,-100,4,1,0,60,0,0
64567,-100,4,1,0,50,0,0
65631,-100,4,1,0,40,0,0
66696,-100,4,1,0,30,0,0
67760,-100,4,1,0,20,0,0
68824,-100,4,1,0,10,0,0

[HitObjects]
230,126,4966,5,8,0:0:0:0:
225,129,6031,1,8,0:0:0:0:
225,129,7095,1,8,0:0:0:0:
225,129,8159,5,8,0:0:0:0:
218,134,8691,1,0,0:0:0:0:
191,95,9224,5,4,0:0:0:0:
191,95,9490,1,0,0:0:0:0:
185,96,9623,1,0,0:0:0:0:
191,95,9756,1,8,0:0:0:0:
139,76,9822,1,8,0:0:0:0:
185,95,9889,1,0,0:0:0:0:
191,95,10022,1,8,0:0:0:0:
185,95,10155,1,0,0:0:0:0:
191,95,10288,1,8,0:0:0:0:
185,95,10554,1,8,0:0:0:0:
185,96,10620,1,0,0:0:0:0:
185,96,10687,1,0,0:0:0:0:
139,73,10820,1,8,0:0:0:0:
139,73,10953,1,8,0:0:0:0:
191,95,11086,1,0,0:0:0:0:
191,95,11352,1,8,0:0:0:0:
185,96,11485,1,0,0:0:0:0:
191,95,11618,1,8,0:0:0:0:
185,96,11751,1,8,0:0:0:0:
185,95,11884,1,0,0:0:0:0:
175,101,11951,1,0,0:0:0:0:
185,96,12017,1,8,0:0:0:0:
191,95,12150,1,0,0:0:0:0:
185,95,12416,1,0,0:0:0:0:
185,96,12483,1,0,0:0:0:0:
191,95,12549,1,0,0:0:0:0:
185,95,12682,1,8,0:0:0:0:
191,95,12816,1,0,0:0:0:0:
185,95,12949,1,8,0:0:0:0:
185,96,13015,1,8,0:0:0:0:
230,165,13082,1,0,0:0:0:0:
230,165,13215,1,8,0:0:0:0:
185,95,13481,1,8,0:0:0:0:
191,95,13614,1,8,0:0:0:0:
185,95,13747,1,0,0:0:0:0:
191,95,13880,1,0,0:0:0:0:
185,95,14013,1,8,0:0:0:0:
185,96,14079,1,8,0:0:0:0:
191,95,14146,1,8,0:0:0:0:
185,95,14279,1,0,0:0:0:0:
185,96,14545,1,8,0:0:0:0:
191,95,14678,1,8,0:0:0:0:
132,161,14811,1,0,0:0:0:0:
191,95,14944,1,8,0:0:0:0:
185,96,15077,1,0,0:0:0:0:
191,95,15144,1,0,0:0:0:0:
191,95,15210,1,8,0:0:0:0:
185,96,15343,1,8,0:0:0:0:
185,96,15609,1,0,0:0:0:0:
143,157,15742,1,0,0:0:0:0:
145,156,15875,1,8,0:0:0:0:
191,95,16008,1,0,0:0:0:0:
180,111,16141,1,8,0:0:0:0:
148,64,16208,1,8,0:0:0:0:
121,155,16275,1,0,0:0:0:0:
191,95,16408,1,0,0:0:0:0:
184,120,16674,1,8,0:0:0:0:
154,137,16740,1,8,0:0:0:0:
154,137,16807,1,8,0:0:0:0:
166,121,16940,1,0,0:0:0:0:
185,95,17073,1,8,0:0:0:0:
144,140,17206,1,0,0:0:0:0:
141,140,17272,1,0,0:0:0:0:
185,95,17339,1,0,0:0:0:0:
139,141,17472,1,8,0:0:0:0:
191,95,17738,1,8,0:0:0:0:
185,95,17871,1,8,0:0:0:0:
191,95,18004,1,0,0:0:0:0:
185,95,18137,1,0,0:0:0:0:
185,96,18270,1,8,0:0:0:0:
185,95,18403,1,8,0:0:0:0:
191,95,18536,1,0,0:0:0:0:
208,152,18669,1,0,0:0:0:0:
191,95,18802,1,8,0:0:0:0:
185,95,18869,1,8,0:0:0:0:
185,96,18935,1,0,0:0:0:0:
191,95,19068,1,8,0:0:0:0:
185,96,19201,1,8,0:0:0:0:
191,95,19334,1,0,0:0:0:0:
202,146,19401,1,0,0:0:0:0:
177,148,19467,1,8,0:0:0:0:
191,95,19600,1,0,0:0:0:0:
191,95,19867,1,8,0:0:0:0:
185,96,20000,1,8,0:0:0:0:
191,95,20133,1,0,0:0:0:0:
185,96,20266,1,0,0:0:0:0:
191,95,20399,1,8,0:0:0:0:
191,95,20532,1,8,0:0:0:0:
185,95,20665,1,0,0:0:0:0:
182,154,20798,1,0,0:0:0:0:
185,95,20931,1,8,0:0:0:0:
185,96,20997,1,8,0:0:0:0:
191,95,21064,1,8,0:0:0:0:
185,95,21197,1,0,0:0:0:0:
191,95,21330,1,0,0:0:0:0:
185,95,21463,1,8,0:0:0:0:
130,107,21530,1,8,0:0:0:0:
158,100,21596,1,0,0:0:0:0:
158,100,21729,1,8,0:0:0:0:
185,95,21995,1,8,0:0:0:0:
191,95,22128,1,0,0:0:0:0:
185,95,22261,1,8,0:0:0:0:
191,95,22394,1,0,0:0:0:0:
185,96,22527,1,8,0:0:0:0:
177,133,22594,1,8,0:0:0:0:
191,95,22660,1,0,0:0:0:0:
123,95,22793,1,8,0:0:0:0:
191,95,22926,1,0,0:0:0:0:
228,181,22993,1,0,0:0:0:0:
163,88,23059,1,8,0:0:0:0:
185,96,23326,1,0,0:0:0:0:
191,95,23459,1,0,0:0:0:0:
185,96,23592,1,8,0:0:0:0:
150,117,23658,1,0,0:0:0:0:
191,95,23725,1,0,0:0:0:0:
185,96,23858,1,8,0:0:0:0:
185,96,24124,1,8,0:0:0:0:
133,212,24190,1,8,0:0:0:0:
191,95,24257,1,0,0:0:0:0:
185,96,24390,1,0,0:0:0:0:
191,95,24523,1,0,0:0:0:0:
191,95,24656,1,8,0:0:0:0:
104,197,24722,1,0,0:0:0:0:
104,197,24789,1,0,0:0:0:0:
191,95,24922,1,8,0:0:0:0:
207,169,25055,1,0,0:0:0:0:
191,95,25188,1,8,0:0:0:0:
191,95,25255,1,8,0:0:0:0:
185,95,25321,1,8,0:0:0:0:
191,95,25454,1,0,0:0:0:0:
185,95,25587,1,0,0:0:0:0:
191,95,25720,1,8,0:0:0:0:
191,95,25787,1,8,0:0:0:0:
185,95,25853,1,0,0:0:0:0:
191,95,25986,1,8,0:0:0:0:
191,95,26252,1,8,0:0:0:0:
185,95,26385,1,8,0:0:0:0:
191,95,26518,1,0,0:0:0:0:
185,95,26651,1,0,0:0:0:0:
191,95,26784,1,8,0:0:0:0:
185,95,26851,1,8,0:0:0:0:
185,96,26918,1,0,0:0:0:0:
191,95,27051,1,8,0:0:0:0:
191,95,27317,1,8,0:0:0:0:
185,96,27450,1,8,0:0:0:0:
191,95,27583,1,0,0:0:0:0:
191,95,27716,1,0,0:0:0:0:
148,64,27849,1,8,0:0:0:0:
148,64,27915,1,8,0:0:0:0:
185,96,27982,1,8,0:0:0:0:
191,95,28115,1,0,0:0:0:0:
191,95,28381,1,8,0:0:0:0:
185,96,28514,1,8,0:0:0:0:
191,95,28647,1,0,0:0:0:0:
191,95,28780,1,0,0:0:0:0:
185,95,28913,1,8,0:0:0:0:
171,171,28980,1,8,0:0:0:0:
191,95,29046,1,0,0:0:0:0:
185,95,29179,1,8,0:0:0:0:
185,95,29445,1,0,0:0:0:0:
185,96,29512,1,0,0:0:0:0:
191,95,29578,1,0,0:0:0:0:
185,95,29711,1,8,0:0:0:0:
191,95,29844,1,0,0:0:0:0:
185,95,29977,1,8,0:0:0:0:
146,120,30110,1,8,0:0:0:0:
185,95,30243,1,0,0:0:0:0:
185,95,30510,1,8,0:0:0:0:
191,95,30643,1,8,0:0:0:0:
185,95,30776,1,0,0:0:0:0:
87,50,30909,1,0,0:0:0:0:
185,96,31042,1,8,0:0:0:0:
356,75,31108,1,8,0:0:0:0:
99,82,31175,1,8,0:0:0:0:
185,96,31308,1,0,0:0:0:0:
185,96,31574,1,0,0:0:0:0:
191,95,31640,1,0,0:0:0:0:
191,95,31707,1,0,0:0:0:0:
185,96,31840,1,8,0:0:0:0:
191,95,31973,1,0,0:0:0:0:
185,96,32106,1,8,0:0:0:0:
191,95,32239,1,0,0:0:0:0:
185,96,32372,1,8,0:0:0:0:
185,96,32638,1,0,0:0:0:0:
191,95,32705,1,0,0:0:0:0:
191,95,32771,1,0,0:0:0:0:
191,95,32904,1,8,0:0:0:0:
185,95,33037,1,0,0:0:0:0:
191,95,33170,1,8,0:0:0:0:
191,95,33237,1,8,0:0:0:0:
185,95,33303,1,0,0:0:0:0:
191,95,33436,1,8,0:0:0:0:
220,159,33569,1,0,0:0:0:0:
191,95,33702,1,8,0:0:0:0:
191,95,33769,1,8,0:0:0:0:
185,95,33835,1,0,0:0:0:0:
176,138,33969,1,8,0:0:0:0:
176,138,34102,1,8,0:0:0:0:
169,135,34235,1,0,0:0:0:0:
166,151,34368,1,0,0:0:0:0:
166,151,34501,1,8,0:0:0:0:
162,153,34767,1,4,0:0:0:0:
146,147,35299,1,0,0:0:0:0:
196,108,35631,1,0,0:0:0:0:
196,108,35698,1,0,0:0:0:0:
196,108,35765,1,0,0:0:0:0:
146,147,35831,1,8,0:0:0:0:
146,147,36363,1,0,0:0:0:0:
105,117,36762,1,0,0:0:0:0:
146,147,36895,1,8,0:0:0:0:
146,147,37428,1,8,0:0:0:0:
152,123,37694,1,0,0:0:0:0:
146,147,37960,1,8,0:0:0:0:
146,147,38492,1,8,0:0:0:0:
146,147,39024,1,0,0:0:0:0:
146,147,39556,1,8,0:0:0:0:
126,117,39889,1,0,0:0:0:0:
126,117,39955,1,0,0:0:0:0:
126,117,40022,1,0,0:0:0:0:
153,141,40088,1,8,0:0:0:0:
151,151,40620,1,0,0:0:0:0:
80,146,40753,1,0,0:0:0:0:
80,146,40886,1,0,0:0:0:0:
80,146,41020,1,0,0:0:0:0:
151,151,41153,1,8,0:0:0:0:
151,151,41685,1,0,0:0:0:0:
76,146,41951,1,0,0:0:0:0:
151,151,42217,5,8,0:0:0:0:
151,151,42749,1,8,0:0:0:0:
140,146,43015,1,0,0:0:0:0:
191,95,43281,5,0,0:0:0:0:
191,95,43348,1,0,0:0:0:0:
185,95,43414,1,0,0:0:0:0:
191,95,43547,1,0,0:0:0:0:
185,95,43680,1,0,0:0:0:0:
191,95,43813,1,8,0:0:0:0:
185,95,43946,1,8,0:0:0:0:
191,95,44079,1,0,0:0:0:0:
191,95,44345,1,8,0:0:0:0:
185,95,44412,1,8,0:0:0:0:
185,96,44479,1,8,0:0:0:0:
191,95,44612,1,0,0:0:0:0:
185,96,44745,1,0,0:0:0:0:
191,95,44878,1,8,0:0:0:0:
185,96,45011,1,0,0:0:0:0:
191,95,45144,1,0,0:0:0:0:
191,95,45410,1,8,0:0:0:0:
185,95,45476,1,8,0:0:0:0:
185,96,45543,1,8,0:0:0:0:
191,95,45676,1,0,0:0:0:0:
185,96,45809,1,0,0:0:0:0:
191,95,45942,1,8,0:0:0:0:
196,107,46075,1,8,0:0:0:0:
191,95,46208,1,0,0:0:0:0:
185,95,46275,1,0,0:0:0:0:
240,125,46341,1,8,0:0:0:0:
240,125,46474,1,8,0:0:0:0:
240,125,46607,1,0,0:0:0:0:
240,125,46740,1,0,0:0:0:0:
191,95,46873,1,0,0:0:0:0:
185,95,47006,1,8,0:0:0:0:
185,96,47073,1,8,0:0:0:0:
191,95,47139,1,0,0:0:0:0:
185,95,47272,1,8,0:0:0:0:
185,95,47538,1,0,0:0:0:0:
191,95,47671,1,0,0:0:0:0:
185,95,47804,1,8,0:0:0:0:
191,95,47937,1,0,0:0:0:0:
185,95,48071,1,8,0:0:0:0:
185,96,48137,1,0,0:0:0:0:
191,95,48204,1,0,0:0:0:0:
191,95,48337,1,8,0:0:0:0:
185,96,48603,1,8,0:0:0:0:
157,72,48669,1,8,0:0:0:0:
191,95,48736,1,8,0:0:0:0:
185,96,48869,1,0,0:0:0:0:
191,95,49002,1,0,0:0:0:0:
185,96,49135,1,8,0:0:0:0:
191,95,49201,1,8,0:0:0:0:
191,95,49268,1,0,0:0:0:0:
185,96,49401,1,8,0:0:0:0:
185,96,49667,1,0,0:0:0:0:
191,95,49800,1,0,0:0:0:0:
185,96,49933,1,8,0:0:0:0:
191,95,50066,1,0,0:0:0:0:
185,96,50199,1,8,0:0:0:0:
191,95,50266,1,8,0:0:0:0:
191,95,50332,1,8,0:0:0:0:
191,95,50465,1,0,0:0:0:0:
180,114,50598,1,0,0:0:0:0:
191,95,50731,1,8,0:0:0:0:
174,94,50798,1,8,0:0:0:0:
185,96,50864,1,0,0:0:0:0:
191,95,50997,1,0,0:0:0:0:
185,96,51130,1,8,0:0:0:0:
191,95,51263,1,0,0:0:0:0:
191,95,51330,1,0,0:0:0:0:
185,95,51396,1,8,0:0:0:0:
191,95,51530,1,0,0:0:0:0:
191,95,51796,1,0,0:0:0:0:
191,95,51862,1,0,0:0:0:0:
185,95,51929,1,0,0:0:0:0:
191,95,52062,1,8,0:0:0:0:
185,95,52195,1,0,0:0:0:0:
191,95,52328,1,8,0:0:0:0:
175,54,52394,1,8,0:0:0:0:
185,95,52461,1,8,0:0:0:0:
191,95,52594,1,0,0:0:0:0:
191,95,52860,1,8,0:0:0:0:
185,95,52926,1,8,0:0:0:0:
185,96,52993,1,8,0:0:0:0:
191,95,53126,1,8,0:0:0:0:
185,96,53259,1,0,0:0:0:0:
191,95,53392,1,8,0:0:0:0:
185,96,53525,1,0,0:0:0:0:
191,95,53658,1,8,0:0:0:0:
191,95,53924,1,0,0:0:0:0:
185,95,53991,1,0,0:0:0:0:
185,96,54057,1,0,0:0:0:0:
191,95,54190,1,8,0:0:0:0:
185,96,54323,1,0,0:0:0:0:
191,95,54456,1,8,0:0:0:0:
157,51,54523,1,8,0:0:0:0:
191,95,54589,1,0,0:0:0:0:
185,95,54722,1,8,0:0:0:0:
185,95,54988,1,8,0:0:0:0:
191,95,55122,1,8,0:0:0:0:
185,95,55255,1,0,0:0:0:0:
191,95,55388,1,0,0:0:0:0:
185,95,55521,1,8,0:0:0:0:
185,96,55587,1,8,0:0:0:0:
191,95,55654,1,0,0:0:0:0:
185,95,55787,1,8,0:0:0:0:
185,95,56053,1,8,0:0:0:0:
185,96,56119,1,8,0:0:0:0:
191,95,56186,1,8,0:0:0:0:
185,95,56319,1,0,0:0:0:0:
172,66,56452,1,0,0:0:0:0:
185,95,56585,1,8,0:0:0:0:
162,83,56651,1,8,0:0:0:0:
163,83,56718,1,0,0:0:0:0:
163,83,56851,1,8,0:0:0:0:
253,100,56984,1,0,0:0:0:0:
185,96,57117,1,8,0:0:0:0:
191,95,57184,1,8,0:0:0:0:
191,95,57250,1,8,0:0:0:0:
185,96,57383,1,0,0:0:0:0:
191,95,57516,1,0,0:0:0:0:
185,96,57649,1,8,0:0:0:0:
191,95,57782,1,0,0:0:0:0:
185,96,57915,1,8,0:0:0:0:
185,96,58181,1,8,0:0:0:0:
191,95,58248,1,8,0:0:0:0:
191,95,58314,1,8,0:0:0:0:
185,96,58447,1,0,0:0:0:0:
191,95,58581,1,0,0:0:0:0:
191,95,58714,1,8,0:0:0:0:
191,95,58780,1,8,0:0:0:0:
185,95,58847,1,0,0:0:0:0:
191,95,58980,1,8,0:0:0:0:
191,95,59246,1,8,0:0:0:0:
191,95,59312,1,8,0:0:0:0:
185,95,59379,1,8,0:0:0:0:
191,95,59512,1,0,0:0:0:0:
185,95,59645,1,8,0:0:0:0:
184,125,59778,1,0,0:0:0:0:
184,125,59844,1,0,0:0:0:0:
191,95,59911,1,8,0:0:0:0:
191,95,60044,1,0,0:0:0:0:
191,95,60310,1,4,0:0:0:0:
256,192,60443,12,0,68824,0:0:0:0:
