osu file format v14

[General]
AudioFilename: audio.mp3
AudioLeadIn: 0
PreviewTime: 9224
Countdown: 0
SampleSet: Normal
StackLeniency: 0
Mode: 1
LetterboxInBreaks: 0
WidescreenStoryboard: 1

[Editor]
Bookmarks: 9223,15609,16673,17737,21995,25187,26252,34766
DistanceSpacing: 0.5
BeatDivisor: 2
GridSize: 32
TimelineZoom: 1.800001

[Metadata]
Title:NE PLACH'
TitleUnicode:НЕ ПЛАЧЬ
Artist:BULANOVA
ArtistUnicode:BULÁNØVA
Creator:liku
Version:kantan
Source:
Tags:Татьяна Буланова Скоро боль пройдёт Tatiana tatyana Bulanova Atmospheric Black Metal Russian bread and salt records ХЛЕБ ДА СОЛЬ REC Immoral Basement IBR_567
BeatmapID:3648645
BeatmapSetID:1740291

[Difficulty]
HPDrainRate:9
CircleSize:5
OverallDifficulty:3
ApproachRate:5
SliderMultiplier:1.4
SliderTickRate:1

[Events]
//Background and Video events
0,0,"holybg.jpg",0,-78
//Break Periods
//Storyboard Layer 0 (Background)
//Storyboard Layer 1 (Fail)
//Storyboard Layer 2 (Pass)
//Storyboard Layer 3 (Foreground)
//Storyboard Layer 4 (Overlay)
//Storyboard Sound Samples

[TimingPoints]
-1419,532.150776053215,4,1,0,5,1,0
709,-100,4,1,0,20,0,0
2837,-100,4,1,0,20,0,0
4966,-100,4,1,0,30,0,0
7094,-100,4,1,0,30,0,0
9224,-80,4,1,0,80,0,1
16674,-80,4,1,0,80,0,0
17738,-80,4,1,0,80,0,1
21995,-80,4,1,0,80,0,0
26252,-80,4,1,0,80,0,1
34767,-80,4,1,0,80,0,0
34833,-83.3333333333333,4,1,0,50,0,0
42882,-81.6326530612245,4,1,0,50,0,0
43281,-80,4,1,0,80,0,1
60310,-80,4,1,0,80,0,0
61374,-100,4,1,0,80,0,0
62439,-100,4,1,0,70,0,0
63503,-100,4,1,0,60,0,0
64567,-100,4,1,0,50,0,0
65631,-100,4,1,0,40,0,0
66696,-100,4,1,0,30,0,0
67760,-100,4,1,0,20,0,0
68824,-100,4,1,0,10,0,0

[HitObjects]
122,106,4966,5,8,0:0:0:0:
122,106,6031,1,8,0:0:0:0:
122,106,7095,1,8,0:0:0:0:
142,170,8159,1,8,0:0:0:0:
121,106,9224,1,4,0:0:0:0:
30,110,9756,1,8,0:0:0:0:
30,110,10022,1,0,0:0:0:0:
80,175,10288,1,8,0:0:0:0:
80,175,10820,1,0,0:0:0:0:
80,175,11352,1,8,0:0:0:0:
186,113,11884,1,0,0:0:0:0:
180,86,12150,1,0,0:0:0:0:
180,86,12416,1,8,0:0:0:0:
186,113,12949,1,0,0:0:0:0:
186,113,13215,1,8,0:0:0:0:
93,136,14013,1,8,0:0:0:0:
75,177,14545,1,8,0:0:0:0:
93,136,15077,1,0,0:0:0:0:
184,113,15343,1,8,0:0:0:0:
75,177,16141,1,0,0:0:0:0:
75,177,16674,1,8,0:0:0:0:
272,141,16940,1,8,0:0:0:0:
97,140,17206,1,0,0:0:0:0:
97,140,17472,1,8,0:0:0:0:
75,177,17738,1,4,0:0:0:0:
75,177,18802,1,8,0:0:0:0:
75,177,19334,1,8,0:0:0:0:
68,179,19867,1,0,0:0:0:0:
146,151,20399,1,0,0:0:0:0:
146,151,20665,1,8,0:0:0:0:
68,179,20931,1,8,0:0:0:0:
156,96,21463,1,0,0:0:0:0:
138,154,21995,1,0,0:0:0:0:
199,169,22527,1,8,0:0:0:0:
199,169,22793,1,0,0:0:0:0:
66,180,23059,1,8,0:0:0:0:
83,151,23592,1,8,0:0:0:0:
194,74,23858,1,8,0:0:0:0:
177,139,24124,1,0,0:0:0:0:
148,158,24656,1,0,0:0:0:0:
83,152,25188,1,8,0:0:0:0:
136,117,25454,1,8,0:0:0:0:
133,154,25720,1,0,0:0:0:0:
133,154,25986,1,0,0:0:0:0:
83,152,26252,1,12,0:0:0:0:
98,151,27317,1,8,0:0:0:0:
98,151,27849,1,0,0:0:0:0:
98,151,28381,1,8,0:0:0:0:
108,124,28913,1,8,0:0:0:0:
108,124,29179,1,8,0:0:0:0:
98,151,29445,1,0,0:0:0:0:
106,111,29977,1,0,0:0:0:0:
98,151,30510,1,8,0:0:0:0:
98,151,31042,1,8,0:0:0:0:
98,151,31574,1,0,0:0:0:0:
98,151,32106,1,0,0:0:0:0:
98,151,32372,1,8,0:0:0:0:
137,111,33170,1,0,0:0:0:0:
98,151,33702,1,8,0:0:0:0:
137,111,33969,1,8,0:0:0:0:
83,154,34767,1,4,0:0:0:0:
66,123,35565,1,0,0:0:0:0:
76,155,35831,1,8,0:0:0:0:
68,158,36895,1,0,0:0:0:0:
165,101,37428,1,8,0:0:0:0:
147,125,37694,1,0,0:0:0:0:
68,158,37960,1,8,0:0:0:0:
147,125,38492,1,8,0:0:0:0:
68,158,39024,1,0,0:0:0:0:
135,126,39822,1,0,0:0:0:0:
68,158,40088,1,8,0:0:0:0:
174,134,40620,1,8,0:0:0:0:
225,113,40886,1,8,0:0:0:0:
56,163,41153,1,0,0:0:0:0:
156,84,41951,1,0,0:0:0:0:
88,63,42217,1,8,0:0:0:0:
104,186,42749,1,0,0:0:0:0:
214,162,43015,1,8,0:0:0:0:
37,173,43281,1,4,0:0:0:0:
37,173,44345,1,8,0:0:0:0:
25,177,44878,1,8,0:0:0:0:
25,177,45410,1,0,0:0:0:0:
181,136,46208,1,0,0:0:0:0:
22,178,46474,1,8,0:0:0:0:
181,136,47006,1,8,0:0:0:0:
22,178,47538,1,0,0:0:0:0:
22,178,48071,1,0,0:0:0:0:
22,178,48603,1,8,0:0:0:0:
22,178,49135,1,8,0:0:0:0:
165,275,49401,1,0,0:0:0:0:
22,178,49667,1,0,0:0:0:0:
433,229,50199,1,0,0:0:0:0:
22,178,50731,1,8,0:0:0:0:
22,178,51796,1,0,0:0:0:0:
276,166,52328,1,8,0:0:0:0:
117,113,52594,1,0,0:0:0:0:
22,178,52860,1,8,0:0:0:0:
119,126,53392,1,8,0:0:0:0:
19,180,53924,1,0,0:0:0:0:
117,128,54722,1,0,0:0:0:0:
157,95,54988,1,8,0:0:0:0:
157,95,55521,1,8,0:0:0:0:
117,128,55787,1,8,0:0:0:0:
19,180,56053,1,0,0:0:0:0:
117,128,56585,1,0,0:0:0:0:
157,95,57117,1,8,0:0:0:0:
19,180,58181,1,0,0:0:0:0:
19,180,58714,1,0,0:0:0:0:
146,173,58980,1,8,0:0:0:0:
157,95,59246,1,8,0:0:0:0:
157,95,59778,1,8,0:0:0:0:
13,181,60310,1,4,0:0:0:0:
256,192,60576,12,0,68824,0:0:0:0:
