osu file format v14

[General]
AudioFilename: audio.mp3
AudioLeadIn: 0
PreviewTime: 9224
Countdown: 0
SampleSet: Normal
StackLeniency: 0
Mode: 1
LetterboxInBreaks: 0
WidescreenStoryboard: 1

[Editor]
Bookmarks: 9223,15609,16673,17737,21995,25187,26252,34766
DistanceSpacing: 0.5
BeatDivisor: 8
GridSize: 32
TimelineZoom: 1.800001

[Metadata]
Title:NE PLACH'
TitleUnicode:НЕ ПЛАЧЬ
Artist:BULANOVA
ArtistUnicode:BULÁNØVA
Creator:liku
Version:futsuu
Source:
Tags:Татьяна Буланова Скоро боль пройдёт Tatiana tatyana Bulanova Atmospheric Black Metal Russian bread and salt records ХЛЕБ ДА СОЛЬ REC Immoral Basement IBR_567
BeatmapID:3665010
BeatmapSetID:1740291

[Difficulty]
HPDrainRate:8
CircleSize:5
OverallDifficulty:4
ApproachRate:5
SliderMultiplier:1.4
SliderTickRate:1

[Events]
//Background and Video events
0,0,"holybg.jpg",0,-78
//Break Periods
//Storyboard Layer 0 (Background)
//Storyboard Layer 1 (Fail)
//Storyboard Layer 2 (Pass)
//Storyboard Layer 3 (Foreground)
//Storyboard Layer 4 (Overlay)
//Storyboard Sound Samples

[TimingPoints]
-1419,532.150776053215,4,1,0,5,1,0
709,-100,4,1,0,20,0,0
2837,-100,4,1,0,20,0,0
4966,-100,4,1,0,30,0,0
7094,-100,4,1,0,30,0,0
9224,-66.6666666666667,4,1,0,80,0,1
16674,-66.6666666666667,4,1,0,80,0,0
17738,-66.6666666666667,4,1,0,80,0,1
21995,-66.6666666666667,4,1,0,80,0,0
26252,-66.6666666666667,4,1,0,80,0,1
34767,-66.6666666666667,4,1,0,80,0,0
34833,-71.4285714285714,4,1,0,50,0,0
42882,-68.9655172413793,4,1,0,65,0,0
43281,-66.6666666666667,4,1,0,80,0,1
60310,-66.6666666666667,4,1,0,80,0,0
61374,-100,4,1,0,80,0,0
62439,-100,4,1,0,70,0,0
63503,-100,4,1,0,60,0,0
64567,-100,4,1,0,50,0,0
65631,-100,4,1,0,40,0,0
66696,-100,4,1,0,30,0,0
67760,-100,4,1,0,20,0,0
68824,-100,4,1,0,10,0,0

[HitObjects]
122,106,4966,5,8,0:0:0:0:
122,106,6031,1,8,0:0:0:0:
122,106,7095,1,8,0:0:0:0:
142,170,8159,1,8,0:0:0:0:
121,106,9224,1,4,0:0:0:0:
209,113,9490,1,0,0:0:0:0:
209,113,9623,1,0,0:0:0:0:
30,110,9756,1,8,0:0:0:0:
30,110,10022,1,0,0:0:0:0:
80,175,10288,1,8,0:0:0:0:
228,86,10554,1,8,0:0:0:0:
80,175,10820,1,0,0:0:0:0:
80,175,11352,1,8,0:0:0:0:
241,134,11618,1,8,0:0:0:0:
241,134,11751,1,8,0:0:0:0:
186,113,11884,1,0,0:0:0:0:
180,86,12150,1,0,0:0:0:0:
180,86,12416,1,8,0:0:0:0:
186,113,12949,1,0,0:0:0:0:
186,113,13215,1,8,0:0:0:0:
228,80,13481,1,0,0:0:0:0:
228,80,13880,1,0,0:0:0:0:
93,136,14013,1,8,0:0:0:0:
236,75,14279,1,0,0:0:0:0:
75,177,14545,1,8,0:0:0:0:
236,75,14811,1,8,0:0:0:0:
236,75,14944,1,8,0:0:0:0:
93,136,15077,1,0,0:0:0:0:
184,113,15343,1,8,0:0:0:0:
330,100,15609,1,0,0:0:0:0:
310,82,16141,1,8,0:0:0:0:
310,82,16408,1,0,0:0:0:0:
75,177,16674,1,8,0:0:0:0:
310,82,16940,1,8,0:0:0:0:
310,82,17073,1,8,0:0:0:0:
97,140,17206,1,0,0:0:0:0:
130,150,17339,1,0,0:0:0:0:
97,140,17472,1,8,0:0:0:0:
75,177,17738,1,4,0:0:0:0:
223,55,18270,1,0,0:0:0:0:
75,177,18802,1,8,0:0:0:0:
223,55,19068,1,0,0:0:0:0:
223,55,19201,1,8,0:0:0:0:
223,55,19334,1,0,0:0:0:0:
216,67,19600,1,8,0:0:0:0:
68,179,19867,1,0,0:0:0:0:
146,151,20399,1,0,0:0:0:0:
146,151,20665,1,8,0:0:0:0:
185,63,20798,1,8,0:0:0:0:
185,63,20931,1,0,0:0:0:0:
215,67,21197,1,0,0:0:0:0:
215,67,21463,1,8,0:0:0:0:
138,154,21995,1,0,0:0:0:0:
241,142,22261,1,0,0:0:0:0:
199,169,22527,1,8,0:0:0:0:
199,169,22793,1,0,0:0:0:0:
246,122,22926,1,0,0:0:0:0:
66,180,23059,1,8,0:0:0:0:
245,122,23326,1,0,0:0:0:0:
83,151,23592,1,8,0:0:0:0:
246,122,23725,1,8,0:0:0:0:
194,74,23858,1,8,0:0:0:0:
177,139,24124,1,0,0:0:0:0:
269,90,24656,1,8,0:0:0:0:
269,90,24922,1,0,0:0:0:0:
269,90,25188,1,8,0:0:0:0:
219,169,25321,1,8,0:0:0:0:
269,90,25454,1,0,0:0:0:0:
103,122,25587,1,0,0:0:0:0:
133,154,25720,1,8,0:0:0:0:
83,152,26252,1,12,0:0:0:0:
186,175,26518,1,0,0:0:0:0:
186,175,26651,1,0,0:0:0:0:
186,175,26784,1,8,0:0:0:0:
186,175,27051,1,0,0:0:0:0:
98,151,27317,1,8,0:0:0:0:
186,175,27583,1,8,0:0:0:0:
186,175,27716,1,8,0:0:0:0:
98,151,27849,1,0,0:0:0:0:
98,151,28381,1,8,0:0:0:0:
192,189,28647,1,0,0:0:0:0:
166,200,28780,1,8,0:0:0:0:
166,200,28913,1,0,0:0:0:0:
173,190,29179,1,8,0:0:0:0:
173,190,29445,1,0,0:0:0:0:
173,190,29711,1,0,0:0:0:0:
173,190,29844,1,0,0:0:0:0:
173,190,29977,1,8,0:0:0:0:
98,151,30510,1,8,0:0:0:0:
135,131,30776,1,0,0:0:0:0:
98,151,31042,1,8,0:0:0:0:
135,131,31308,1,8,0:0:0:0:
135,131,31441,1,8,0:0:0:0:
98,151,31574,1,0,0:0:0:0:
167,154,31840,1,0,0:0:0:0:
167,154,32106,1,8,0:0:0:0:
167,154,32239,1,0,0:0:0:0:
98,151,32372,1,8,0:0:0:0:
220,161,32638,1,0,0:0:0:0:
137,111,33170,1,0,0:0:0:0:
206,153,33436,1,8,0:0:0:0:
204,155,33569,1,0,0:0:0:0:
98,151,33702,1,8,0:0:0:0:
137,111,33969,1,8,0:0:0:0:
195,156,34235,1,0,0:0:0:0:
195,156,34501,1,8,0:0:0:0:
83,154,34767,1,4,0:0:0:0:
66,123,35565,1,0,0:0:0:0:
219,63,35698,1,0,0:0:0:0:
76,155,35831,1,8,0:0:0:0:
147,125,36629,1,0,0:0:0:0:
68,158,36895,1,0,0:0:0:0:
165,101,37428,1,8,0:0:0:0:
147,125,37694,1,0,0:0:0:0:
68,158,37960,1,8,0:0:0:0:
147,125,38492,1,8,0:0:0:0:
68,158,39024,1,0,0:0:0:0:
119,128,39556,1,0,0:0:0:0:
135,126,39822,1,0,0:0:0:0:
165,157,39955,1,0,0:0:0:0:
68,158,40088,1,8,0:0:0:0:
174,134,40620,1,8,0:0:0:0:
170,158,40753,1,8,0:0:0:0:
192,154,40886,1,8,0:0:0:0:
56,163,41153,1,0,0:0:0:0:
324,193,41685,1,0,0:0:0:0:
156,84,41951,1,0,0:0:0:0:
88,63,42217,1,8,0:0:0:0:
208,188,42749,1,8,0:0:0:0:
208,188,43015,1,8,0:0:0:0:
37,173,43281,1,4,0:0:0:0:
37,173,43813,1,0,0:0:0:0:
188,131,44079,1,0,0:0:0:0:
188,131,44212,1,0,0:0:0:0:
37,173,44345,1,8,0:0:0:0:
188,131,44878,1,0,0:0:0:0:
25,177,45410,1,8,0:0:0:0:
174,117,45942,1,0,0:0:0:0:
181,136,46208,1,0,0:0:0:0:
174,117,46341,1,0,0:0:0:0:
22,178,46474,1,8,0:0:0:0:
174,117,46740,1,0,0:0:0:0:
181,136,47006,1,8,0:0:0:0:
173,116,47139,1,0,0:0:0:0:
174,117,47272,1,8,0:0:0:0:
22,178,47538,1,0,0:0:0:0:
173,116,48071,1,8,0:0:0:0:
173,116,48337,1,8,0:0:0:0:
173,116,48470,1,0,0:0:0:0:
22,178,48603,1,8,0:0:0:0:
173,116,48869,1,0,0:0:0:0:
22,178,49135,1,8,0:0:0:0:
173,116,49268,1,8,0:0:0:0:
173,116,49401,1,0,0:0:0:0:
22,178,49667,1,0,0:0:0:0:
433,229,50199,1,0,0:0:0:0:
22,178,50731,1,8,0:0:0:0:
174,75,50864,1,8,0:0:0:0:
180,69,50997,1,0,0:0:0:0:
180,69,51263,1,8,0:0:0:0:
22,178,51796,1,0,0:0:0:0:
201,38,52062,1,8,0:0:0:0:
201,38,52195,1,0,0:0:0:0:
276,166,52328,1,8,0:0:0:0:
117,113,52594,1,0,0:0:0:0:
22,178,52860,1,8,0:0:0:0:
119,126,53392,1,8,0:0:0:0:
201,38,53525,1,8,0:0:0:0:
201,38,53658,1,0,0:0:0:0:
19,180,53924,1,0,0:0:0:0:
243,37,54456,1,8,0:0:0:0:
117,128,54722,1,0,0:0:0:0:
243,37,54855,1,0,0:0:0:0:
157,95,54988,1,8,0:0:0:0:
256,29,55255,1,0,0:0:0:0:
157,95,55521,1,8,0:0:0:0:
254,32,55654,1,0,0:0:0:0:
117,128,55787,1,8,0:0:0:0:
19,180,56053,1,0,0:0:0:0:
117,128,56585,1,0,0:0:0:0:
221,79,56851,1,0,0:0:0:0:
221,79,56984,1,0,0:0:0:0:
157,95,57117,1,8,0:0:0:0:
221,79,57649,1,0,0:0:0:0:
221,79,58181,1,8,0:0:0:0:
221,79,58447,1,8,0:0:0:0:
19,180,58714,1,0,0:0:0:0:
146,173,58980,1,8,0:0:0:0:
221,79,59113,1,0,0:0:0:0:
157,95,59246,1,8,0:0:0:0:
157,95,59778,1,0,0:0:0:0:
13,181,60310,1,4,0:0:0:0:
256,192,60576,12,0,68824,0:0:0:0:
