osu file format v14

[General]
AudioFilename: audio.mp3
AudioLeadIn: 0
PreviewTime: 73754
Countdown: 1
SampleSet: Normal
StackLeniency: 0.7
Mode: 0
LetterboxInBreaks: 0
WidescreenStoryboard: 1

[Editor]
Bookmarks: 174347,212303
DistanceSpacing: 1
BeatDivisor: 4
GridSize: 32
TimelineZoom: 1.9

[Metadata]
Title:Sora Uso
TitleUnicode:ソラウソ
Artist:BUD VIRGIN LOGIC
ArtistUnicode:BUD VIRGIN LOGIC
Creator:Pawlyk here
Version:Lonely Sky
Source:Show By Rock!!
Tags:
BeatmapID:2763171
BeatmapSetID:803400

[Difficulty]
HPDrainRate:5
CircleSize:4.2
OverallDifficulty:9
ApproachRate:9.5
SliderMultiplier:2.1
SliderTickRate:1

[Events]
//Background and Video events
0,0,"bg.jpg",0,0
//Break Periods
2,50732,59277
2,124986,133531
2,212500,214427
2,215152,217079
2,217804,219731
2,220456,221388
//Storyboard Layer 0 (Background)
//Storyboard Layer 1 (Fail)
//Storyboard Layer 2 (Pass)
//Storyboard Layer 3 (Foreground)
//Storyboard Layer 4 (Overlay)
//Storyboard Sound Samples

[TimingPoints]
809,331.491712707182,4,1,1,30,1,0
809,-153.846153846153,4,1,1,30,0,0
13405,-100,4,1,1,80,0,0
16057,-90.9090909090909,4,1,1,80,0,0
16389,-100,4,1,1,80,0,0
18709,-90.9090909090909,4,1,1,80,0,0
19041,-100,4,1,1,80,0,0
21361,-90.9090909090909,4,1,1,80,0,0
25339,-100,4,1,1,80,0,0
25670,-111.111111111111,4,1,1,80,0,0
26333,-125,4,1,1,80,0,0
26665,-181.818181818182,4,1,1,80,0,0
26996,-142.857142857143,4,1,1,60,0,0
27328,-142.857142857143,4,1,1,40,0,0
27659,-142.857142857143,4,1,1,30,0,0
27991,-142.857142857143,4,1,1,20,0,0
29317,-200,4,1,1,30,0,0
33212,-200,4,1,1,5,0,0
33295,-200,4,1,1,30,0,0
42245,-181.818181818182,4,1,1,30,0,0
42576,-200,4,1,1,30,0,0
44234,-166.666666666667,4,1,1,30,0,0
44731,-181.818181818182,4,1,1,30,0,0
45228,-200,4,1,1,30,0,0
49538,-166.666666666667,4,1,1,30,0,0
49869,-200,4,1,1,30,0,0
59980,-142.857142857143,4,1,1,30,0,0
61140,-142.857142857143,4,1,1,50,0,0
63792,-125,4,1,1,60,0,0
65118,-105.263157894737,4,1,1,60,0,0
66444,-105.263157894737,4,1,1,65,0,0
69096,-105.263157894737,4,1,1,75,0,0
71085,-80,4,1,1,60,0,0
71748,-105.263157894737,4,1,1,60,0,0
73985,-105.263157894737,4,1,1,5,0,0
74068,-105.263157894737,4,1,1,30,0,0
74400,-76.9230769230769,4,1,1,80,0,1
85007,-80,4,1,1,80,0,1
95615,-100,4,1,1,80,0,1
96278,-111.111111111111,4,1,1,80,0,1
100919,-86.9565217391304,4,1,1,80,0,0
102411,-80,4,1,1,80,0,0
102908,-95.2380952380952,4,1,1,80,0,0
103571,-105.263157894737,4,1,1,80,0,0
134068,-133.333333333334,4,1,1,80,0,0
135394,-117.64705882353,4,1,1,80,0,0
138046,-111.111111111111,4,1,1,80,0,0
143350,-76.9230769230769,4,1,1,80,0,0
148322,-142.857142857143,4,1,1,80,0,0
148654,-76.9230769230769,4,1,1,80,0,1
159262,-83.3333333333333,4,1,1,80,0,1
169869,-95.2380952380952,4,1,1,80,0,1
175173,-95.2380952380952,4,1,1,80,0,0
177825,-100,4,1,1,80,0,0
191085,-83.3333333333333,4,1,1,80,0,0
209648,-111.111111111111,4,1,1,80,0,0
222908,-166.666666666666,4,1,1,80,0,0
225560,-200,4,1,1,80,0,0
230864,-83.3333333333333,4,1,1,80,0,0
233516,-74.0740740740741,4,1,1,80,0,1
244123,-80,4,1,1,80,0,1
254731,-95.2380952380952,4,1,1,80,0,1
260035,-86.9565217391304,4,1,1,80,0,0
266582,-86.9565217391304,4,1,1,5,0,0

[HitObjects]
337,231,809,5,0,0:0:0:0:
245,273,974,1,0,0:0:0:0:
264,181,1140,2,0,P|272:127|249:65,1,102.374995313645
179,25,1471,5,0,0:0:0:0:
89,44,1637,1,0,0:0:0:0:
79,136,1803,1,0,0:0:0:0:
164,174,1969,1,0,0:0:0:0:
410,61,2797,5,0,0:0:0:0:
460,138,2963,1,0,0:0:0:0:
402,210,3129,1,0,0:0:0:0:
315,176,3295,1,0,0:0:0:0:
114,198,4123,5,0,0:0:0:0:
63,275,4289,1,0,0:0:0:0:
121,347,4455,1,0,0:0:0:0:
208,313,4621,1,0,0:0:0:0:
462,230,5449,5,0,0:0:0:0:
442,319,5615,1,0,0:0:0:0:
350,329,5781,1,0,0:0:0:0:
313,244,5947,1,0,0:0:0:0:
266,31,6775,1,0,0:0:0:0:
188,118,6941,1,0,0:0:0:0:
267,205,7107,1,0,0:0:0:0:
352,118,7273,1,0,0:0:0:0:
352,118,8101,5,0,0:0:0:0:
188,118,8267,1,0,0:0:0:0:
267,205,8433,1,0,0:0:0:0:
266,66,8599,1,0,0:0:0:0:
362,210,9427,5,0,0:0:0:0:
287,259,9593,1,0,0:0:0:0:
206,221,9759,1,0,0:0:0:0:
210,132,9925,1,0,0:0:0:0:
351,75,10090,5,0,0:0:0:0:
298,146,10256,1,0,0:0:0:0:
210,132,10422,1,0,0:0:0:0:
166,54,10588,1,0,0:0:0:0:
50,109,10753,5,0,0:0:0:0:
23,193,10919,1,0,0:0:0:0:
91,249,11085,1,0,0:0:0:0:
173,218,11250,1,0,0:0:0:0:
322,163,11416,5,0,0:0:0:0:
384,226,11582,1,0,0:0:0:0:
354,309,11748,1,0,0:0:0:0:
267,326,11913,1,0,0:0:0:0:
235,179,12079,1,0,0:0:0:0:
235,179,12162,2,0,B|357:203|298:93|451:41|546:165|526:274|412:299|380:217,1,443.62497969246
383,225,13405,6,0,P|406:170|369:94,1,105,10|2,0:0|0:0,0:0:0:0:
193,185,13737,1,0,0:0:0:0:
314,336,13902,2,0,B|363:325|408:347|408:347|423:328|423:328|477:338|533:313,1,210,8|2,0:0|0:0,0:0:0:0:
238,370,14400,2,0,P|183:373|130:345,1,105,8|0,0:0|0:0,0:0:0:0:
124,96,14731,1,8,0:0:0:0:
280,239,14897,1,2,0:0:0:0:
82,238,15063,1,0,0:0:0:0:
261,132,15228,1,8,0:0:0:0:
219,363,15394,1,0,0:0:0:0:
104,154,15560,1,0,0:0:0:0:
19,339,15726,1,8,0:0:0:0:
222,214,15891,1,2,0:0:0:0:
222,214,15974,1,0,0:0:0:0:
222,214,16057,6,0,P|278:227|341:184,1,115.50000352478,14|0,0:0|0:0,0:0:0:0:
379,62,16389,1,0,0:0:0:0:
493,285,16554,2,0,P|504:168|397:161,1,210,8|0,0:0|0:0,0:0:0:0:
226,42,17052,1,10,0:0:0:0:
196,222,17217,1,2,0:0:0:0:
356,112,17383,5,10,0:0:0:0:
145,118,17549,1,2,0:0:0:0:
319,6,17715,1,2,0:0:0:0:
319,218,17880,1,8,0:0:0:0:
164,32,18046,1,0,0:0:0:0:
173,229,18212,1,2,0:0:0:0:
336,85,18378,1,8,0:0:0:0:
99,106,18543,2,0,P|99:133|104:159,1,52.5,2|0,0:0|0:0,0:0:0:0:
173,229,18709,6,0,B|272:279|264:143|419:219,1,231.000007049561,14|2,0:0|0:0,0:0:0:0:
278,360,19206,2,0,P|411:348|428:271,1,210,8|2,0:0|0:0,0:0:0:0:
419,66,19704,2,0,P|377:130|391:206,1,157.5,10|0,0:0|0:0,0:0:0:0:
471,227,20035,1,10,0:0:0:0:
337,289,20201,1,2,0:0:0:0:
472,114,20367,1,2,0:0:0:0:
285,23,20532,1,8,0:0:0:0:
92,120,20698,5,2,0:0:0:0:
123,148,20781,1,0,0:0:0:0:
164,156,20864,1,2,0:0:0:0:
205,150,20947,1,0,0:0:0:0:
252,127,21030,1,8,0:0:0:0:
314,128,21112,1,0,0:0:0:0:
359,172,21195,1,8,0:0:0:0:
361,245,21278,1,0,0:0:0:0:
305,304,21361,6,0,P|277:251|302:184,1,115.50000352478,14|2,0:0|0:0,0:0:0:0:
376,24,21692,1,2,0:0:0:0:
509,210,21858,2,0,B|455:248|394:209|394:209|337:174|266:211,1,231.000007049561,10|2,0:0|0:0,0:0:0:0:
236,352,22355,2,0,P|327:384|388:339,1,173.250005287171,8|0,0:0|0:0,0:0:0:0:
290,200,22687,5,10,0:0:0:0:
151,332,22853,1,0,0:0:0:0:
305,304,23018,1,2,0:0:0:0:
111,176,23184,1,8,0:0:0:0:
312,71,23350,1,2,0:0:0:0:
210,238,23516,1,2,0:0:0:0:
114,41,23681,1,8,0:0:0:0:
313,200,23847,2,0,L|363:171,1,57.7500017623902,2|0,0:0|0:0,0:0:0:0:
214,55,24013,6,0,P|207:111|228:164,1,115.50000352478,14|0,0:0|0:0,0:0:0:0:
428,40,24344,6,0,P|434:96|413:149,1,115.50000352478,10|0,0:0|0:0,0:0:0:0:
350,293,24676,1,8,0:0:0:0:
310,268,24759,1,0,0:0:0:0:
263,263,24842,1,10,0:0:0:0:
217,268,24925,1,0,0:0:0:0:
178,291,25007,1,10,0:0:0:0:
132,300,25090,1,0,0:0:0:0:
89,281,25173,1,0,0:0:0:0:
67,240,25256,1,0,0:0:0:0:
68,197,25339,6,0,P|102:156|155:146,1,105,10|0,0:0|0:0,0:0:0:0:
252,153,25588,1,0,0:0:0:0:
252,153,25670,2,0,P|238:211|272:275,1,94.499997116089,8|0,0:0|0:0,0:0:0:0:
376,181,26002,1,0,0:0:0:0:
289,39,26168,1,0,0:0:0:0:
150,145,26333,2,0,P|190:180|255:145,1,126,4|0,0:0|0:0,0:0:0:0:
348,106,26665,6,0,B|257:93|176:194|210:345|384:369|447:275|429:229|429:229|401:265|345:277|309:243,1,577.500017623902,6|0,0:0|0:0,0:0:0:0:
323,257,29317,6,0,P|268:273|211:252,1,105,2|0,0:0|0:0,0:0:0:0:
124,165,29980,2,0,L|135:291,1,105
228,117,30643,1,0,0:0:0:0:
324,187,30974,2,0,P|375:202|429:176,1,105
357,95,31471,2,0,P|321:171|331:205,1,105
411,238,31969,6,0,P|377:204|311:187,1,105
212,141,32632,2,0,B|171:241|253:222|211:322,1,183.75
212,317,33295,2,0,P|147:336|96:309,1,105
42,166,33958,1,0,0:0:0:0:
218,219,34289,1,2,0:0:0:0:
115,90,34621,6,0,L|121:204,1,105,2|0,0:0|0:0,0:0:0:0:
213,316,35284,6,0,P|280:359|389:288,1,210
336,197,36278,2,0,P|388:181|443:201,1,105
452,91,36775,2,0,L|431:213,1,105
481,336,37273,6,0,L|508:211,1,105
452,91,37936,2,0,P|401:107|433:14,1,210
258,151,39262,1,0,0:0:0:0:
184,261,39593,1,2,0:0:0:0:
328,208,39925,6,0,P|343:161|329:105,1,105,2|0,0:0|0:0,0:0:0:0:
235,31,40588,2,0,L|127:47,1,105
57,120,41250,1,0,0:0:0:0:
156,181,41582,2,0,P|173:236|149:292,1,105,0|2,0:0|0:0,0:0:0:0:
81,330,42079,2,0,P|66:280|83:231,1,105,0|2,0:0|0:0,0:0:0:0:
156,181,42576,6,0,P|204:193|261:169,1,105,2|0,0:0|0:0,0:0:0:0:
383,119,43239,2,0,P|366:177|392:235,1,105
464,256,43902,1,0,0:0:0:0:
310,349,44234,2,0,P|366:364|433:319,1,125.999996154785,2|0,0:0|0:0,0:0:0:0:
365,169,44731,2,0,L|361:293,1,115.50000352478,2|0,0:0|0:0,0:0:0:0:
259,199,45228,6,0,L|253:80,1,105,2|0,0:0|0:0,0:0:0:0:
416,58,45891,2,0,P|393:98|323:102,1,105
235,32,46554,1,0,0:0:0:0:
148,135,46886,2,0,L|148:244,1,105
47,196,47383,2,0,L|58:315,1,105
148,356,47880,6,0,B|283:302|217:386|356:342,1,210
365,234,48875,1,0,0:0:0:0:
365,234,49041,1,0,0:0:0:0:
437,295,49206,6,0,L|442:365,1,52.5
284,238,49538,2,0,P|300:185|363:152,1,125.999996154785,2|0,0:0|0:0,0:0:0:0:
424,190,50035,2,0,L|437:301,1,105,2|0,0:0|0:0,0:0:0:0:
421,103,50532,1,2,0:0:0:0:
173,241,59814,5,0,0:0:0:0:
277,192,59980,2,0,L|321:190,2,36.749998878479
183,128,60311,1,8,0:0:0:0:
236,47,60477,2,0,L|293:45,1,36.749998878479
381,113,60643,2,0,L|323:112,1,36.749998878479,8|0,0:0|0:0,0:0:0:0:
277,192,60809,2,0,P|268:245|296:291,1,110.249996635437,8|0,0:0|0:0,0:0:0:0:
328,279,61140,6,0,P|365:266|401:273,1,73.4999977569581,6|0,0:0|0:0,0:0:0:0:
224,353,61471,2,0,P|188:358|153:345,1,73.4999977569581
173,169,61803,2,0,L|190:250,1,73.4999977569581
45,280,62134,1,0,0:0:0:0:
71,114,62300,6,0,L|68:21,1,73.4999977569581,0|8,0:0|0:0,0:0:0:0:
106,220,62632,1,0,0:0:0:0:
195,105,62797,1,0,0:0:0:0:
195,105,62963,2,0,L|294:92,1,73.4999977569581,2|0,0:0|0:0,0:0:0:0:
401,34,63295,1,0,0:0:0:0:
401,34,63460,1,0,0:0:0:0:
264,14,63626,1,0,0:0:0:0:
354,117,63792,6,0,P|390:128|458:115,1,84,6|0,0:0|0:0,0:0:0:0:
270,166,64123,2,0,P|259:212|267:249,1,84
407,337,64455,2,0,L|410:253,1,84
354,117,64786,1,0,0:0:0:0:
354,117,64952,1,0,0:0:0:0:
227,286,65118,2,0,B|352:339|300:221|432:258,1,199.499994672775
407,337,65615,1,0,0:0:0:0:
227,286,65781,2,0,B|195:176|313:228|260:103,1,199.499994672775
167,90,66278,2,0,P|165:120|182:166,1,49.8749986681939
320,42,66444,6,0,P|274:19|211:31,1,99.7499973363877
304,171,66775,6,0,P|353:174|396:152,1,99.7499973363877
227,23,67107,1,0,0:0:0:0:
179,166,67273,1,8,0:0:0:0:
328,92,67438,1,0,0:0:0:0:
141,63,67604,1,8,0:0:0:0:
243,217,67770,1,0,0:0:0:0:
44,177,67936,1,8,0:0:0:0:
157,334,68101,6,0,L|169:232,1,99.7499973363877,0|2,0:0|0:0,0:0:0:0:
179,166,68350,1,0,0:0:0:0:
179,166,68433,1,0,0:0:0:0:
68,266,68599,1,8,0:0:0:0:
241,270,68764,1,8,0:0:0:0:
93,170,68930,1,0,0:0:0:0:
258,100,69096,5,14,0:0:0:0:
317,270,69262,1,2,0:0:0:0:
233,29,69427,1,0,0:0:0:0:
102,216,69593,1,8,0:0:0:0:
327,112,69759,1,0,0:0:0:0:
76,67,69925,1,0,0:0:0:0:
204,313,70090,5,8,0:0:0:0:
233,29,70256,1,0,0:0:0:0:
27,182,70422,1,0,0:0:0:0:
303,89,70588,1,8,0:0:0:0:
13,0,70753,1,0,0:0:0:0:
97,291,70919,1,0,0:0:0:0:
377,39,71085,6,0,P|394:90|357:163,1,131.25,10|0,0:0|0:0,0:0:0:0:
27,182,71416,2,0,P|61:127|123:111,1,131.25,10|0,0:0|0:0,0:0:0:0:
295,311,71748,1,0,0:0:0:0:
280,54,71913,1,0,0:0:0:0:
121,206,72079,1,8,0:0:0:0:
448,207,72245,1,0,0:0:0:0:
189,84,72411,5,8,0:0:0:0:
242,111,72494,1,0,0:0:0:0:
266,165,72576,1,8,0:0:0:0:
248,222,72659,1,0,0:0:0:0:
194,248,72742,1,8,0:0:0:0:
130,233,72825,1,0,0:0:0:0:
96,177,72908,1,0,0:0:0:0:
94,112,72991,1,0,0:0:0:0:
128,57,73074,5,10,0:0:0:0:
461,146,73239,1,14,0:0:0:0:
163,328,73405,1,14,0:0:0:0:
228,0,73571,1,10,0:0:0:0:
417,255,73737,2,0,P|404:215|293:214,1,149.624996004582
330,66,74068,2,0,P|291:129|335:222,1,149.624996004582
379,319,74400,6,0,P|462:319|498:257,1,136.499993751526,14|0,0:0|0:0,0:0:0:0:
449,72,74731,1,8,0:0:0:0:
308,198,74897,2,0,P|237:218|161:194,1,136.499993751526,10|0,0:0|0:0,0:0:0:0:
33,261,75228,2,0,P|21:294|45:349,1,68.2499968757631
177,203,75394,2,0,P|194:141|168:72,1,136.499993751526,8|0,0:0|0:0,0:0:0:0:
46,127,75726,1,0,0:0:0:0:
198,281,75891,1,8,0:0:0:0:
311,81,76057,5,0,0:0:0:0:
168,199,76223,1,0,0:0:0:0:
371,244,76389,1,10,0:0:0:0:
140,84,76554,1,0,0:0:0:0:
190,301,76720,1,10,0:0:0:0:
335,73,76886,1,0,0:0:0:0:
89,267,77052,6,0,P|67:207|103:119,1,136.499993751526,14|0,0:0|0:0,0:0:0:0:
254,1,77383,1,0,0:0:0:0:
282,222,77549,2,0,B|348:246|348:246|422:230,1,136.499993751526,8|0,0:0|0:0,0:0:0:0:
219,296,77880,2,0,L|212:389,1,68.2499968757631
466,312,78046,2,0,P|513:236|368:150,1,272.999987503052,8|0,0:0|0:0,0:0:0:0:
168,71,78543,2,0,P|162:98|163:140,1,68.2499968757631,10|0,0:0|0:0,0:0:0:0:
200,251,78709,5,0,0:0:0:0:
273,87,78875,1,0,0:0:0:0:
49,133,79041,1,8,0:0:0:0:
287,228,79206,1,0,0:0:0:0:
55,315,79372,1,8,0:0:0:0:
168,71,79538,1,0,0:0:0:0:
263,319,79704,6,0,B|431:306,1,136.499993751526,14|0,0:0|0:0,0:0:0:0:
394,162,80035,1,0,0:0:0:0:
177,241,80201,2,0,P|143:313|185:402,1,136.499993751526,8|0,0:0|0:0,0:0:0:0:
273,102,80532,2,0,P|282:140|269:172,1,68.2499968757631
65,217,80698,2,0,P|43:155|86:67,1,136.499993751526,8|0,0:0|0:0,0:0:0:0:
330,4,81030,1,0,0:0:0:0:
151,151,81195,1,8,0:0:0:0:
372,210,81361,5,0,0:0:0:0:
208,6,81527,1,0,0:0:0:0:
191,268,81692,1,8,0:0:0:0:
330,4,81858,1,0,0:0:0:0:
423,311,82024,1,8,0:0:0:0:
151,151,82190,1,0,0:0:0:0:
151,151,82273,1,0,0:0:0:0:
151,151,82355,6,0,P|228:184|309:125,1,136.499993751526,14|0,0:0|0:0,0:0:0:0:
225,19,82687,2,0,L|225:114,1,68.2499968757631,2|0,0:0|0:0,0:0:0:0:
403,247,82853,2,0,P|433:182|394:76,1,136.499993751526,10|0,0:0|0:0,0:0:0:0:
151,151,83184,1,0,0:0:0:0:
379,9,83350,1,8,0:0:0:0:
276,278,83516,1,0,0:0:0:0:
276,278,83599,1,0,0:0:0:0:
276,278,83681,5,0,0:0:0:0:
478,111,83847,1,10,0:0:0:0:
168,68,84013,1,0,0:0:0:0:
466,0,84179,1,0,0:0:0:0:
344,252,84344,1,8,0:0:0:0:
276,278,84427,1,0,0:0:0:0:
207,254,84510,1,8,0:0:0:0:
169,192,84593,1,0,0:0:0:0:
99,170,84676,5,8,0:0:0:0:
34,203,84759,1,0,0:0:0:0:
23,274,84842,2,0,L|45:379,1,68.2499968757631
274,174,85007,6,0,P|293:110|241:24,1,131.25,14|0,0:0|0:0,0:0:0:0:
17,8,85339,2,0,P|11:70|69:129,1,131.25,10|0,0:0|0:0,0:0:0:0:
201,247,85670,1,0,0:0:0:0:
272,51,85836,1,0,0:0:0:0:
73,201,86002,1,8,0:0:0:0:
147,0,86168,1,0,0:0:0:0:
325,187,86333,6,0,P|396:197|475:162,1,131.25
249,17,86665,2,0,B|222:78|268:135|268:135|207:191|118:127,1,262.5,8|0,0:0|0:0,0:0:0:0:
39,313,87162,1,0,0:0:0:0:
40,115,87328,1,8,0:0:0:0:
207,227,87494,1,0,0:0:0:0:
249,17,87659,6,0,B|405:-29|328:86|507:31,1,262.5,14|8,0:0|0:0,0:0:0:0:
482,278,88157,2,0,P|493:212|449:138,1,131.25
314,107,88488,2,0,P|309:139|265:186,1,65.625
297,266,88654,2,0,P|244:254|199:176,1,131.25,8|0,0:0|0:0,0:0:0:0:
222,23,88985,2,0,P|305:83|290:168,1,196.875
176,280,89317,2,0,P|233:251|296:265,1,131.25,8|0,0:0|0:0,0:0:0:0:
489,205,89648,1,0,0:0:0:0:
343,377,89814,1,0,0:0:0:0:
355,124,89980,2,0,L|372:254,1,131.25,8|0,0:0|0:0,0:0:0:0:
179,78,90311,6,0,L|200:207,1,131.25,4|0,0:0|0:0,0:0:0:0:
301,384,90643,1,8,0:0:0:0:
454,190,90809,2,0,B|470:124|470:124|451:62,1,131.25
230,68,91140,1,0,0:0:0:0:
143,260,91306,2,0,B|206:236|255:262|255:262|278:244|278:244|346:282|401:243,1,262.5,10|0,0:0|0:0,0:0:0:0:
173,0,91803,2,0,P|142:50|154:122,1,131.25,0|8,0:0|0:0,0:0:0:0:
358,254,92134,2,0,P|330:202|261:176,1,131.25
71,222,92466,1,0,0:0:0:0:
230,68,92632,1,8,0:0:0:0:
268,276,92797,1,0,0:0:0:0:
131,126,92963,6,0,P|68:109|-23:152,1,131.25
268,276,93295,1,8,0:0:0:0:
69,348,93460,2,0,P|54:286|76:216,1,131.25
268,276,93792,1,0,0:0:0:0:
127,122,93958,2,0,B|55:48|166:-22|166:-22|194:23|180:61,1,262.5,10|0,0:0|0:0,0:0:0:0:
241,269,94455,1,0,0:0:0:0:
374,226,94621,6,0,P|446:208|374:142,1,196.875,8|0,0:0|0:0,0:0:0:0:
349,61,94952,2,0,P|312:106|344:197,1,131.25,8|0,0:0|0:0,0:0:0:0:
459,265,95284,2,0,P|482:199|386:135,1,196.875,10|0,0:0|0:0,0:0:0:0:
321,174,95615,6,0,P|259:187|192:152,1,105,6|0,0:0|0:0,0:0:0:0:
133,87,95947,1,0,0:0:0:0:
104,205,96112,1,0,0:0:0:0:
21,110,96278,2,0,L|-3:8,1,94.499997116089,8|0,0:0|0:0,0:0:0:0:
104,205,96610,2,0,L|131:325,1,94.499997116089
239,362,96941,5,0,0:0:0:0:
276,246,97107,2,0,P|325:196|443:256,1,188.999994232178,2|0,0:0|0:0,0:0:0:0:
304,332,97604,2,0,P|285:307|285:216,1,94.499997116089,8|0,0:0|0:0,0:0:0:0:
409,133,97936,2,0,L|437:262,1,94.499997116089
333,56,98267,2,0,B|226:15|258:87|121:47,1,188.999994232178,6|0,0:0|0:0,0:0:0:0:
130,201,98764,1,0,0:0:0:0:
59,102,98930,2,0,P|44:57|69:-11,1,94.499997116089,8|0,0:0|0:0,0:0:0:0:
211,144,99262,5,0,0:0:0:0:
146,286,99427,2,0,P|58:289|30:205,1,188.999994232178
214,316,99925,1,0,0:0:0:0:
304,156,100090,2,0,L|315:269,1,94.499997116089,0|8,0:0|0:0,0:0:0:0:
157,384,100422,1,8,0:0:0:0:
105,380,100505,1,8,0:0:0:0:
67,344,100588,1,8,0:0:0:0:
54,294,100670,1,0,0:0:0:0:
64,243,100753,2,0,L|134:217,1,47.2499985580445
303,131,100919,5,10,0:0:0:0:
125,61,101085,1,2,0:0:0:0:
223,238,101251,1,0,0:0:0:0:
317,21,101416,1,10,0:0:0:0:
121,193,101582,1,0,0:0:0:0:
378,226,101748,1,2,0:0:0:0:
172,336,101913,1,8,0:0:0:0:
319,117,102079,1,0,0:0:0:0:
412,361,102245,1,8,0:0:0:0:
260,161,102411,6,0,P|374:175|360:52,1,262.5
260,161,102908,2,0,P|289:197|276:298,1,110.249996635437
173,346,103239,2,0,L|157:214,1,110.249996635437
142,113,103571,5,0,0:0:0:0:
262,33,103902,1,8,0:0:0:0:
262,33,104068,1,0,0:0:0:0:
259,204,104234,1,0,0:0:0:0:
142,113,104400,1,0,0:0:0:0:
292,126,104565,2,0,P|348:133|403:109,1,99.7499973363877,8|0,0:0|0:0,0:0:0:0:
491,25,104897,6,0,B|538:65|538:65|484:117|518:211,1,199.499994672775,0|8,0:0|0:0,0:0:0:0:
447,325,105394,1,0,0:0:0:0:
367,207,105560,1,0,0:0:0:0:
367,207,105726,1,0,0:0:0:0:
260,299,105891,2,0,P|316:310|376:281,1,99.7499973363877,8|0,0:0|0:0,0:0:0:0:
219,142,106223,6,0,P|198:185|218:252,1,99.7499973363877,6|0,0:0|0:0,0:0:0:0:
355,297,106554,1,8,0:0:0:0:
238,372,106720,2,0,P|120:378|80:310,1,199.499994672775
170,236,107217,1,8,0:0:0:0:
53,176,107383,1,0,0:0:0:0:
138,68,107549,6,0,L|263:53,1,99.7499973363877
369,4,107880,6,0,P|386:49|376:97,1,99.7499973363877,8|0,0:0|0:0,0:0:0:0:
263,204,108212,1,0,0:0:0:0:
237,56,108378,1,0,0:0:0:0:
146,173,108543,1,8,0:0:0:0:
238,298,108709,1,0,0:0:0:0:
238,298,108792,1,0,0:0:0:0:
238,298,108875,6,0,L|365:285,1,99.7499973363877,6|0,0:0|0:0,0:0:0:0:
425,174,109206,1,8,0:0:0:0:
449,343,109372,2,0,P|537:324|512:239,1,199.499994672775
338,181,109869,2,0,L|357:278,1,99.7499973363877,8|0,0:0|0:0,0:0:0:0:
398,38,110201,5,0,0:0:0:0:
479,157,110367,1,0,0:0:0:0:
301,97,110532,2,0,P|256:140|269:229,1,149.624996004582,8|0,0:0|0:0,0:0:0:0:
197,247,110864,2,0,P|180:201|183:141,1,99.7499973363877
272,357,111195,1,8,0:0:0:0:
362,230,111361,1,0,0:0:0:0:
362,230,111527,6,0,L|246:220,1,99.7499973363877
135,303,111858,1,8,0:0:0:0:
0,210,112024,2,0,P|35:133|140:165,1,199.499994672775
262,221,112521,2,0,P|206:235|156:183,1,99.7499973363877,8|0,0:0|0:0,0:0:0:0:
221,32,112853,5,0,0:0:0:0:
221,32,113018,1,0,0:0:0:0:
132,153,113184,1,8,0:0:0:0:
303,135,113350,2,0,L|311:243,1,99.7499973363877
225,377,113681,1,0,0:0:0:0:
225,377,113764,1,0,0:0:0:0:
225,377,113847,1,8,0:0:0:0:
224,212,114013,1,0,0:0:0:0:
373,303,114179,6,0,P|448:277|495:380,1,199.499994672775,0|8,0:0|0:0,0:0:0:0:
308,351,114676,1,0,0:0:0:0:
308,351,114842,2,0,P|291:306|337:234,1,99.7499973363877
421,168,115173,1,0,0:0:0:0:
421,168,115339,1,8,0:0:0:0:
393,255,115505,5,0,0:0:0:0:
512,179,115670,1,0,0:0:0:0:
458,298,115836,1,8,0:0:0:0:
342,193,116002,2,0,L|342:93,1,99.7499973363877
162,65,116333,1,0,0:0:0:0:
259,159,116499,1,8,0:0:0:0:
334,0,116665,1,0,0:0:0:0:
435,186,116831,6,0,P|386:204|319:172,1,99.7499973363877
198,66,117162,2,0,P|153:41|59:146,1,199.499994672775,8|0,0:0|0:0,0:0:0:0:
213,208,117659,1,0,0:0:0:0:
69,263,117825,1,0,0:0:0:0:
136,120,117991,1,8,0:0:0:0:
69,263,118157,5,0,0:0:0:0:
7,133,118322,2,0,P|31:124|83:136,1,49.8749986681939
151,300,118488,2,0,P|100:350|92:251,1,199.499994672775,8|0,0:0|0:0,0:0:0:0:
151,205,118985,1,0,0:0:0:0:
290,286,119151,1,8,0:0:0:0:
266,162,119317,1,0,0:0:0:0:
216,344,119483,6,0,L|408:308,1,149.624996004582
434,358,119814,1,8,0:0:0:0:
498,232,119980,2,0,B|526:137|454:151|499:30,1,199.499994672775
403,191,120477,1,8,0:0:0:0:
403,191,120643,1,0,0:0:0:0:
335,15,120809,1,0,0:0:0:0:
496,37,120974,1,0,0:0:0:0:
358,128,121140,6,0,L|236:120,1,99.7499973363877,8|0,0:0|0:0,0:0:0:0:
112,51,121471,2,0,P|97:105|115:161,1,99.7499973363877
263,253,121803,2,0,P|223:213|166:200,1,99.7499973363877,8|0,0:0|0:0,0:0:0:0:
31,270,122134,6,0,P|66:340|178:284,1,199.499994672775,0|8,0:0|0:0,0:0:0:0:
247,186,122632,2,0,L|272:396,1,199.499994672775
312,111,123129,1,8,0:0:0:0:
374,241,123295,1,0,0:0:0:0:
494,152,123460,6,0,L|385:159,1,99.7499973363877
247,186,123792,1,8,0:0:0:0:
406,79,123958,1,0,0:0:0:0:
406,79,124041,1,0,0:0:0:0:
406,79,124123,1,0,0:0:0:0:
183,108,124289,1,0,0:0:0:0:
359,262,124455,1,0,0:0:0:0:
248,39,124621,1,0,0:0:0:0:
158,272,124786,1,6,0:0:0:0:
192,265,134068,5,0,0:0:0:0:
271,208,134234,1,8,0:0:0:0:
271,208,134400,1,0,0:0:0:0:
171,155,134565,1,8,0:0:0:0:
237,86,134731,2,0,L|311:72,1,39.3750015020371
159,40,134897,2,0,L|98:47,1,39.3750015020371,8|0,0:0|0:0,0:0:0:0:
344,35,135063,2,0,P|358:81|351:114,1,78.7500030040742
309,255,135394,6,0,P|356:263|409:245,1,89.2500017023087,6|0,0:0|0:0,0:0:0:0:
250,201,135726,2,0,P|195:191|133:213,1,89.2500017023087
102,300,136057,1,0,0:0:0:0:
16,214,136223,2,0,L|5:105,1,89.2500017023087
136,182,136554,1,0,0:0:0:0:
135,43,136720,6,0,P|85:33|33:60,1,89.2500017023087,8|0,0:0|0:0,0:0:0:0:
136,182,137052,1,0,0:0:0:0:
250,131,137217,2,0,L|258:261,1,89.2500017023087
302,333,137549,1,0,0:0:0:0:
302,333,137715,1,0,0:0:0:0:
188,282,137880,1,0,0:0:0:0:
105,384,138046,6,0,L|209:370,1,94.499997116089,14|0,0:0|0:0,0:0:0:0:
281,270,138378,2,0,L|179:283,1,94.499997116089
80,298,138709,1,0,0:0:0:0:
135,209,138875,2,0,P|171:237|179:323,1,94.499997116089
233,99,139206,1,0,0:0:0:0:
304,163,139372,6,0,B|398:201|398:128|492:166,1,188.999994232178,2|0,0:0|0:0,0:0:0:0:
354,93,139869,1,0,0:0:0:0:
309,275,140035,2,0,P|218:264|237:184,1,188.999994232178,8|0,0:0|0:0,0:0:0:0:
290,92,140532,1,0,0:0:0:0:
130,190,140698,6,0,L|115:88,1,94.499997116089,6|0,0:0|0:0,0:0:0:0:
367,27,141030,1,8,0:0:0:0:
383,75,141112,1,8,0:0:0:0:
360,121,141195,1,8,0:0:0:0:
310,138,141278,1,8,0:0:0:0:
259,126,141361,1,8,0:0:0:0:
214,99,141444,1,8,0:0:0:0:
162,103,141527,1,8,0:0:0:0:
127,142,141610,1,8,0:0:0:0:
127,193,141692,6,0,L|151:314,1,94.499997116089,8|0,0:0|0:0,0:0:0:0:
109,41,142024,1,0,0:0:0:0:
14,193,142190,1,8,0:0:0:0:
14,193,142273,1,0,0:0:0:0:
14,193,142355,1,0,0:0:0:0:
219,157,142521,1,0,0:0:0:0:
25,73,142687,1,8,0:0:0:0:
219,157,142853,1,0,0:0:0:0:
102,0,143018,1,8,0:0:0:0:
101,222,143184,1,0,0:0:0:0:
244,19,143350,5,14,0:0:0:0:
328,250,143516,1,0,0:0:0:0:
117,132,143681,1,0,0:0:0:0:
383,85,143847,1,8,0:0:0:0:
263,316,144013,1,0,0:0:0:0:
205,51,144179,1,0,0:0:0:0:
457,179,144344,5,8,0:0:0:0:
143,268,144510,1,0,0:0:0:0:
438,366,144676,1,0,0:0:0:0:
315,98,144842,1,8,0:0:0:0:
185,369,145007,1,0,0:0:0:0:
220,67,145173,1,0,0:0:0:0:
508,264,145339,2,0,P|526:190|485:124,1,136.499993751526,8|0,0:0|0:0,0:0:0:0:
109,61,145670,2,0,P|128:124|186:158,1,136.499993751526,8|0,0:0|0:0,0:0:0:0:
403,131,146002,5,8,0:0:0:0:
193,288,146168,1,8,0:0:0:0:
198,61,146333,1,0,0:0:0:0:
388,296,146499,1,8,0:0:0:0:
190,170,146665,1,8,0:0:0:0:
234,127,146748,1,8,0:0:0:0:
295,120,146831,1,8,0:0:0:0:
345,153,146913,1,8,0:0:0:0:
363,211,146996,1,8,0:0:0:0:
343,269,147079,1,8,0:0:0:0:
292,314,147162,1,8,0:0:0:0:
224,322,147245,1,8,0:0:0:0:
165,286,147328,1,8,0:0:0:0:
123,27,147494,5,10,0:0:0:0:
61,335,147659,1,10,0:0:0:0:
372,157,147825,1,10,0:0:0:0:
0,70,147991,1,0,0:0:0:0:
250,231,148157,1,0,0:0:0:0:
133,215,148322,2,0,L|111:98,1,110.249996635437
107,68,148654,6,0,P|178:97|264:49,1,136.499993751526,14|0,0:0|0:0,0:0:0:0:
421,51,148985,1,0,0:0:0:0:
284,213,149151,2,0,P|265:288|295:355,1,136.499993751526,8|0,0:0|0:0,0:0:0:0:
396,158,149483,2,0,L|404:91,1,68.2499968757631
159,194,149648,2,0,P|233:227|307:191,1,136.499993751526,8|0,0:0|0:0,0:0:0:0:
348,27,149980,5,0,0:0:0:0:
422,240,150146,1,8,0:0:0:0:
230,129,150311,1,0,0:0:0:0:
469,81,150477,1,0,0:0:0:0:
313,269,150643,1,8,0:0:0:0:
278,12,150808,1,0,0:0:0:0:
104,199,150974,1,8,0:0:0:0:
361,136,151140,1,0,0:0:0:0:
241,330,151306,6,0,P|225:261|266:186,1,136.499993751526,12|0,0:0|0:0,0:0:0:0:
393,55,151637,1,0,0:0:0:0:
478,280,151803,2,0,B|411:300|411:300|312:264,1,136.499993751526,8|0,0:0|0:0,0:0:0:0:
41,181,152134,2,0,P|33:210|45:259,1,68.2499968757631
134,314,152300,6,0,P|217:231|110:118,1,272.999987503052,8|0,0:0|0:0,0:0:0:0:
66,40,152797,2,0,L|151:54,1,68.2499968757631
271,75,152963,1,8,0:0:0:0:
125,215,153129,1,0,0:0:0:0:
197,0,153295,1,8,0:0:0:0:
299,249,153460,1,0,0:0:0:0:
56,156,153626,1,8,0:0:0:0:
321,22,153792,1,0,0:0:0:0:
374,288,153958,6,0,P|319:321|238:286,1,136.499993751526,12|0,0:0|0:0,0:0:0:0:
155,62,154289,1,0,0:0:0:0:
377,143,154455,2,0,L|527:111,1,136.499993751526,8|0,0:0|0:0,0:0:0:0:
221,16,154786,6,0,P|237:54|234:84,1,68.2499968757631
36,124,154952,2,0,P|7:63|28:0,1,136.499993751526,8|0,0:0|0:0,0:0:0:0:
268,238,155284,1,0,0:0:0:0:
155,108,155449,1,8,0:0:0:0:
101,272,155615,1,0,0:0:0:0:
311,153,155781,1,0,0:0:0:0:
58,164,155947,1,8,0:0:0:0:
280,326,156112,1,0,0:0:0:0:
152,63,156278,1,8,0:0:0:0:
32,330,156444,1,0,0:0:0:0:
32,330,156527,1,0,0:0:0:0:
32,330,156610,6,0,P|96:358|188:306,1,136.499993751526,14|0,0:0|0:0,0:0:0:0:
304,125,156941,2,0,L|376:128,1,68.2499968757631
506,239,157107,2,0,P|461:280|380:282,1,136.499993751526,8|0,0:0|0:0,0:0:0:0:
166,163,157438,1,0,0:0:0:0:
401,78,157604,1,8,0:0:0:0:
287,329,157770,1,0,0:0:0:0:
260,37,157936,5,0,0:0:0:0:
105,274,158101,1,8,0:0:0:0:
381,147,158267,1,0,0:0:0:0:
83,90,158433,1,0,0:0:0:0:
314,336,158599,1,8,0:0:0:0:
302,269,158681,1,8,0:0:0:0:
288,201,158764,1,8,0:0:0:0:
271,134,158847,1,8,0:0:0:0:
257,66,158930,1,8,0:0:0:0:
201,26,159013,1,8,0:0:0:0:
133,34,159096,2,0,P|93:62|77:118,1,68.2499968757631
288,201,159262,6,0,P|369:203|426:134,1,125.999996154785,14|0,0:0|0:0,0:0:0:0:
347,2,159593,2,8,P|315:66|349:147,1,125.999996154785,8|0,0:0|0:0,0:0:0:0:
386,327,159925,1,0,0:0:0:0:
459,129,160090,1,0,0:0:0:0:
253,206,160256,1,8,0:0:0:0:
447,259,160422,1,0,0:0:0:0:
316,137,160588,6,0,P|247:109|181:140,1,125.999996154785
47,294,160919,2,0,P|197:250|159:182,1,251.999992309571,8|0,0:0|0:0,0:0:0:0:
150,54,161416,1,0,0:0:0:0:
115,246,161582,1,8,0:0:0:0:
0,104,161748,1,0,0:0:0:0:
186,210,161913,6,0,B|298:257|298:157|431:206,1,251.999992309571,2|8,0:0|0:0,0:0:0:0:
451,344,162411,2,0,P|391:379|322:363,1,125.999996154785
505,176,162742,2,0,P|513:210|497:260,1,62.9999980773926
319,223,162908,6,0,L|301:98,1,125.999996154785,8|0,0:0|0:0,0:0:0:0:
100,59,163239,2,0,P|95:135|211:180,1,188.999994232178
301,98,163571,2,0,P|241:76|180:101,1,125.999996154785,8|0,0:0|0:0,0:0:0:0:
273,275,163902,1,0,0:0:0:0:
185,96,164068,1,0,0:0:0:0:
38,262,164234,2,0,P|88:227|171:246,1,125.999996154785,8|0,0:0|0:0,0:0:0:0:
312,364,164565,6,0,P|250:369|199:334,1,125.999996154785,4|0,0:0|0:0,0:0:0:0:
155,134,164897,1,8,0:0:0:0:
320,204,165063,2,0,P|395:219|450:193,1,125.999996154785
150,130,165394,1,0,0:0:0:0:
199,334,165560,2,0,B|183:380|150:386|150:386|94:353|90:271|145:221,1,251.999992309571,8|0,0:0|0:0,0:0:0:0:
267,127,166057,2,0,P|207:109|143:134,1,125.999996154785,0|8,0:0|0:0,0:0:0:0:
368,216,166389,2,0,P|429:220|482:187,1,125.999996154785
401,42,166720,1,0,0:0:0:0:
285,220,166886,1,8,0:0:0:0:
483,188,167052,1,0,0:0:0:0:
298,345,167217,6,0,L|284:211,1,125.999996154785,4|0,0:0|0:0,0:0:0:0:
483,188,167549,1,8,0:0:0:0:
345,89,167715,2,0,P|280:59|204:98,1,125.999996154785
483,188,168046,1,0,0:0:0:0:
284,219,168212,6,0,B|187:229|267:169|167:159|88:198|118:269|151:295|193:287,1,251.999992309571,8|0,0:0|0:0,0:0:0:0:
276,142,168709,1,0,0:0:0:0:
257,326,168875,2,0,P|193:379|94:331,1,188.999994232178,8|0,0:0|0:0,0:0:0:0:
190,171,169207,2,0,P|209:222|180:289,1,125.999996154785,8|0,0:0|0:0,0:0:0:0:
37,199,169538,2,0,L|24:73,1,125.999996154785,8|0,0:0|0:0,0:0:0:0:
198,69,169869,6,0,L|330:47,1,110.249996635437,4|0,0:0|0:0,0:0:0:0:
375,149,170201,1,8,0:0:0:0:
375,149,170367,1,0,0:0:0:0:
463,63,170532,2,0,P|497:120|488:185,1,110.249996635437,8|0,0:0|0:0,0:0:0:0:
412,291,170864,1,0,0:0:0:0:
313,192,171029,1,8,0:0:0:0:
291,335,171195,5,0,0:0:0:0:
413,207,171361,1,0,0:0:0:0:
229,242,171527,2,0,P|217:191|259:116,1,110.249996635437,8|0,0:0|0:0,0:0:0:0:
391,123,171858,2,0,P|363:167|280:190,1,110.249996635437,8|0,0:0|0:0,0:0:0:0:
126,149,172190,2,0,L|254:135,1,110.249996635437,8|0,0:0|0:0,0:0:0:0:
356,327,172521,6,0,P|262:343|241:223,1,220.499993270874,6|8,0:0|0:0,0:0:0:0:
297,94,173018,1,0,0:0:0:0:
297,94,173184,1,0,0:0:0:0:
328,213,173350,1,8,0:0:0:0:
445,160,173516,2,0,L|427:12,1,110.249996635437,8|0,0:0|0:0,0:0:0:0:
254,210,173847,5,8,0:0:0:0:
234,28,174013,2,0,P|302:6|351:31,1,110.249996635437
445,160,174344,2,8,P|377:182|328:157,1,110.249996635437,8|0,0:0|0:0,0:0:0:0:
183,102,174676,1,0,0:0:0:0:
221,285,174842,1,8,0:0:0:0:
343,169,175007,1,0,0:0:0:0:
266,214,175173,6,0,P|399:237|428:143,1,220.499993270874
427,28,175670,1,0,0:0:0:0:
318,98,175836,2,0,L|183:92,1,110.249996635437,8|0,0:0|0:0,0:0:0:0:
75,36,176168,1,0,0:0:0:0:
75,36,176333,1,0,0:0:0:0:
81,178,176499,5,0,0:0:0:0:
197,92,176665,1,0,0:0:0:0:
54,239,176831,2,0,L|29:111,1,110.249996635437
196,193,177162,1,8,0:0:0:0:
238,188,177245,1,0,0:0:0:0:
280,185,177328,1,0,0:0:0:0:
322,181,177411,1,0,0:0:0:0:
364,178,177494,2,0,P|382:238|339:320,1,110.249996635437
276,328,177825,6,0,P|360:383|451:332,1,210,6|0,0:0|0:0,0:0:0:0:
498,228,178322,1,0,0:0:0:0:
498,228,178488,2,0,P|450:214|380:238,1,105,2|0,0:0|0:0,0:0:0:0:
496,134,178820,2,0,P|509:75|489:20,1,105
397,226,179151,5,8,0:0:0:0:
309,151,179317,2,0,P|359:117|427:118,1,105
296,249,179648,1,0,0:0:0:0:
235,164,179814,1,0,0:0:0:0:
149,224,179980,1,0,0:0:0:0:
209,310,180146,1,0,0:0:0:0:
235,164,180311,1,0,0:0:0:0:
82,168,180477,6,0,P|17:163|73:75,1,210,6|0,0:0|0:0,0:0:0:0:
235,89,180974,1,0,0:0:0:0:
235,89,181140,2,0,P|170:106|123:85,1,105
307,17,181471,2,0,L|322:209,1,157.5
325,203,181803,6,0,P|385:220|432:178,1,105,8|0,0:0|0:0,0:0:0:0:
510,308,182134,2,0,L|501:106,1,157.5
500,121,182466,2,0,P|447:108|374:138,1,105,8|0,0:0|0:0,0:0:0:0:
264,196,182797,1,0,0:0:0:0:
289,67,182963,1,0,0:0:0:0:
162,116,183129,6,0,L|31:118,1,105,6|0,0:0|0:0,0:0:0:0:
132,222,183460,2,0,P|246:228|247:228,1,105
351,137,183792,1,0,0:0:0:0:
351,137,183958,1,8,0:0:0:0:
378,271,184123,1,0,0:0:0:0:
236,227,184289,1,8,0:0:0:0:
410,189,184455,1,0,0:0:0:0:
299,330,184621,2,0,L|309:225,1,105,8|0,0:0|0:0,0:0:0:0:
284,45,184952,1,0,0:0:0:0:
363,167,185118,1,0,0:0:0:0:
417,38,185284,1,8,0:0:0:0:
265,142,185449,2,0,L|157:132,1,105
52,48,185781,5,12,0:0:0:0:
120,238,185947,1,0,0:0:0:0:
216,66,186112,1,0,0:0:0:0:
24,147,186278,1,8,0:0:0:0:
200,264,186444,1,0,0:0:0:0:
215,69,186610,1,0,0:0:0:0:
46,259,186775,5,8,0:0:0:0:
311,276,186941,1,0,0:0:0:0:
93,119,187107,1,0,0:0:0:0:
216,383,187273,1,8,0:0:0:0:
336,147,187438,1,0,0:0:0:0:
87,323,187604,1,0,0:0:0:0:
120,43,187770,5,8,0:0:0:0:
331,291,187936,1,0,0:0:0:0:
402,0,188101,1,8,0:0:0:0:
146,168,188267,1,0,0:0:0:0:
401,240,188433,6,0,P|447:219|358:163,1,210,12|2,0:0|0:0,0:0:0:0:
238,113,188930,1,2,0:0:0:0:
244,306,189096,1,2,0:0:0:0:
109,77,189262,1,2,0:0:0:0:
369,150,189427,1,10,0:0:0:0:
105,324,189593,1,10,0:0:0:0:
300,55,189759,1,10,0:0:0:0:
66,141,189925,5,8,0:0:0:0:
111,190,190007,1,8,0:0:0:0:
179,196,190090,1,8,0:0:0:0:
235,157,190173,1,8,0:0:0:0:
292,119,190256,1,8,0:0:0:0:
360,122,190339,1,8,0:0:0:0:
404,174,190422,1,10,0:0:0:0:
406,242,190505,1,2,0:0:0:0:
351,283,190588,1,2,0:0:0:0:
283,277,190670,1,2,0:0:0:0:
235,227,190753,5,8,0:0:0:0:
295,176,190836,1,8,0:0:0:0:
309,98,190919,1,8,0:0:0:0:
262,34,191002,1,8,0:0:0:0:
186,35,191085,6,0,B|122:29|42:116|113:196|170:190|187:108,1,251.999992309571,14|8,0:0|0:0,0:0:0:0:
0,47,191582,1,0,0:0:0:0:
179,131,191748,1,0,0:0:0:0:
23,236,191913,1,0,0:0:0:0:
116,75,192079,2,0,P|166:49|240:72,1,125.999996154785,8|0,0:0|0:0,0:0:0:0:
403,211,192411,6,0,P|350:221|282:181,1,125.999996154785
231,64,192742,1,8,0:0:0:0:
194,239,192908,1,0,0:0:0:0:
194,239,192991,1,0,0:0:0:0:
194,239,193074,1,0,0:0:0:0:
360,132,193239,1,0,0:0:0:0:
145,7,193405,2,0,P|124:70|158:132,1,125.999996154785,8|0,0:0|0:0,0:0:0:0:
76,289,193737,6,0,P|161:261|128:112,1,251.999992309571,0|8,0:0|0:0,0:0:0:0:
33,59,194234,1,0,0:0:0:0:
92,205,194400,1,0,0:0:0:0:
221,72,194565,1,0,0:0:0:0:
221,72,194648,1,0,0:0:0:0:
221,72,194731,2,0,L|354:88,1,125.999996154785,8|0,0:0|0:0,0:0:0:0:
267,267,195063,6,0,L|177:145,1,125.999996154785
406,25,195394,2,0,P|432:87|392:162,1,125.999996154785,8|0,0:0|0:0,0:0:0:0:
354,180,195643,1,0,0:0:0:0:
354,180,195726,1,0,0:0:0:0:
221,72,195891,1,0,0:0:0:0:
406,25,196057,1,8,0:0:0:0:
467,197,196223,1,0,0:0:0:0:
304,261,196389,6,0,P|229:258|192:153,1,188.999994232178,6|0,0:0|0:0,0:0:0:0:
224,99,196720,1,8,0:0:0:0:
350,183,196886,1,0,0:0:0:0:
221,266,197052,1,0,0:0:0:0:
92,175,197217,1,0,0:0:0:0:
159,335,197383,2,0,P|225:362|297:321,1,125.999996154785,8|0,0:0|0:0,0:0:0:0:
447,313,197715,6,0,P|371:240|393:165,1,188.999994232178
403,156,198046,2,0,P|462:151|496:85,1,125.999996154785,8|0,0:0|0:0,0:0:0:0:
290,18,198378,1,0,0:0:0:0:
305,224,198543,1,0,0:0:0:0:
495,98,198709,1,8,0:0:0:0:
445,106,198792,1,0,0:0:0:0:
395,114,198875,1,0,0:0:0:0:
345,121,198958,1,0,0:0:0:0:
296,134,199041,2,0,L|312:228,1,62.9999980773926,14|0,0:0|0:0,0:0:0:0:
388,234,199206,2,0,L|531:210,1,125.999996154785
340,355,199538,6,0,L|324:289,1,62.9999980773926,8|0,0:0|0:0,0:0:0:0:
210,226,199704,2,0,L|198:395,1,125.999996154785,8|0,0:0|0:0,0:0:0:0:
73,38,200035,2,0,L|158:25,1,62.9999980773926,8|0,0:0|0:0,0:0:0:0:
281,105,200201,2,0,L|218:115,1,62.9999980773926,8|0,0:0|0:0,0:0:0:0:
86,199,200367,1,2,0:0:0:0:
86,199,200449,1,2,0:0:0:0:
86,199,200532,2,0,L|91:290,1,62.9999980773926,2|0,0:0|0:0,0:0:0:0:
218,114,200698,2,0,L|224:34,3,62.9999980773926,8|0|0|0,0:0|0:0|0:0|0:0,0:0:0:0:
310,228,201029,5,8,0:0:0:0:
363,247,201112,1,8,0:0:0:0:
419,245,201195,1,8,0:0:0:0:
472,225,201278,1,8,0:0:0:0:
512,185,201361,5,8,0:0:0:0:
461,147,201444,1,8,0:0:0:0:
398,152,201527,1,8,0:0:0:0:
356,199,201610,1,8,0:0:0:0:
333,257,201692,6,0,L|332:388,1,125.999996154785,8|0,0:0|0:0,0:0:0:0:
500,199,202024,2,0,P|490:110|382:91,1,188.999994232178,8|0,0:0|0:0,0:0:0:0:
372,92,202355,1,0,0:0:0:0:
281,182,202521,1,0,0:0:0:0:
249,38,202687,1,8,0:0:0:0:
377,164,202853,1,0,0:0:0:0:
184,238,203018,6,0,P|166:178|187:120,1,125.999996154785
249,38,203350,1,8,0:0:0:0:
281,182,203516,2,0,P|393:189|338:116,1,251.999992309571
184,238,204013,1,8,0:0:0:0:
249,38,204179,1,0,0:0:0:0:
282,289,204344,6,0,B|374:321|436:259|436:259|399:378,1,251.999992309571,4|8,0:0|0:0,0:0:0:0:
482,185,204842,1,0,0:0:0:0:
486,190,205007,2,0,P|502:125|477:63,1,125.999996154785
345,161,205339,1,8,0:0:0:0:
273,18,205505,1,0,0:0:0:0:
179,121,205670,6,0,L|48:143,1,125.999996154785
26,224,205919,2,0,L|172:197,1,125.999996154785,2|0,0:0|0:0,0:0:0:0:
247,175,206168,1,0,0:0:0:0:
165,314,206333,2,0,P|134:254|163:186,1,125.999996154785,2|0,0:0|0:0,0:0:0:0:
247,175,206582,2,0,P|275:82|242:28,1,125.999996154785,2|0,0:0|0:0,0:0:0:0:
209,9,206831,1,0,0:0:0:0:
149,200,206996,5,14,0:0:0:0:
348,131,207162,1,0,0:0:0:0:
110,101,207328,1,0,0:0:0:0:
343,234,207494,1,8,0:0:0:0:
106,322,207659,1,0,0:0:0:0:
204,54,207825,1,0,0:0:0:0:
356,312,207991,5,8,0:0:0:0:
458,42,208157,1,0,0:0:0:0:
164,181,208322,1,0,0:0:0:0:
490,227,208488,1,8,0:0:0:0:
191,379,208654,1,0,0:0:0:0:
221,54,208820,1,0,0:0:0:0:
428,285,208985,5,8,0:0:0:0:
91,323,209151,1,0,0:0:0:0:
330,50,209317,1,8,0:0:0:0:
230,308,209483,1,0,0:0:0:0:
76,122,209648,6,0,B|192:75|153:157|259:123,1,188.999994232178,6|0,0:0|0:0,0:0:0:0:
423,109,210146,1,0,0:0:0:0:
423,109,210228,1,0,0:0:0:0:
423,109,210311,1,0,0:0:0:0:
359,199,210477,1,0,0:0:0:0:
454,252,210643,1,0,0:0:0:0:
381,314,210808,1,0,0:0:0:0:
450,359,210974,1,0,0:0:0:0:
256,192,211057,12,0,212300,0:0:0:0:
278,222,214952,5,0,0:0:0:0:
298,234,217604,5,0,0:0:0:0:
268,227,220256,5,0,0:0:0:0:
203,253,221913,5,0,0:0:0:0:
302,81,222245,1,0,0:0:0:0:
414,277,222576,1,0,0:0:0:0:
512,184,222908,6,0,B|449:241|344:228|458:128|360:108|272:132|180:166|179:274|253:336|381:326|406:226|327:9|135:88|135:88|202:117|213:198|162:234,1,881.999973083497
106,172,225560,6,0,B|58:228|67:348|227:357|264:276|249:203|249:203|300:304|420:272|385:217|454:209|503:251|503:251|457:233|407:264,1,735
413,260,228212,2,0,P|503:141|353:202,1,420
318,286,229869,2,0,L|191:264,1,105
166,169,230367,1,0,0:0:0:0:
98,258,230532,1,0,0:0:0:0:
152,83,230864,1,10,0:0:0:0:
195,76,230947,1,8,0:0:0:0:
238,70,231029,1,8,0:0:0:0:
281,64,231112,1,8,0:0:0:0:
324,56,231195,2,0,L|333:152,1,62.9999980773926,8|0,0:0|0:0,0:0:0:0:
273,231,231361,5,10,0:0:0:0:
212,249,231444,1,8,0:0:0:0:
201,311,231527,1,8,0:0:0:0:
250,350,231610,1,8,0:0:0:0:
311,340,231692,2,0,L|345:265,1,62.9999980773926,8|0,0:0|0:0,0:0:0:0:
460,223,231858,5,10,0:0:0:0:
470,167,231941,1,8,0:0:0:0:
483,111,232024,1,8,0:0:0:0:
492,55,232107,1,8,0:0:0:0:
504,0,232190,5,8,0:0:0:0:
466,50,232273,1,0,0:0:0:0:
406,70,232355,1,0,0:0:0:0:
344,55,232438,1,0,0:0:0:0:
297,2,232521,5,10,0:0:0:0:
229,0,232604,1,8,0:0:0:0:
181,47,232687,1,8,0:0:0:0:
173,113,232770,1,8,0:0:0:0:
214,165,232853,5,10,0:0:0:0:
280,176,232936,1,8,0:0:0:0:
337,140,233018,1,8,0:0:0:0:
402,131,233101,1,8,0:0:0:0:
461,171,233184,5,10,0:0:0:0:
467,240,233267,1,8,0:0:0:0:
416,287,233350,1,8,0:0:0:0:
345,274,233433,1,8,0:0:0:0:
288,221,233516,6,0,P|303:141|257:67,1,141.750000540733,14|0,0:0|0:0,0:0:0:0:
42,52,233847,1,0,0:0:0:0:
68,308,234013,2,0,L|231:281,1,141.750000540733,8|0,0:0|0:0,0:0:0:0:
396,270,234344,2,0,P|398:306|374:355,1,70.8750002703667
204,211,234510,2,0,P|182:135|218:69,1,141.750000540733,8|0,0:0|0:0,0:0:0:0:
481,60,234842,5,0,0:0:0:0:
320,213,235007,1,8,0:0:0:0:
280,5,235173,1,0,0:0:0:0:
435,222,235339,1,0,0:0:0:0:
175,158,235505,1,8,0:0:0:0:
411,67,235670,1,0,0:0:0:0:
238,292,235836,1,8,0:0:0:0:
492,307,236002,1,0,0:0:0:0:
333,72,236168,6,0,P|306:140|348:229,1,141.750000540733,14|0,0:0|0:0,0:0:0:0:
492,307,236499,1,0,0:0:0:0:
253,362,236665,2,0,L|93:341,1,141.750000540733,8|0,0:0|0:0,0:0:0:0:
204,147,236996,2,0,L|191:64,1,70.8750002703667
23,223,237162,2,0,P|-25:302|130:305,1,283.500001081467,8|0,0:0|0:0,0:0:0:0:
281,130,237659,2,0,L|267:202,1,70.8750002703667,8|0,0:0|0:0,0:0:0:0:
245,316,237825,5,0,0:0:0:0:
155,124,237991,1,0,0:0:0:0:
385,232,238157,1,8,0:0:0:0:
101,236,238322,1,0,0:0:0:0:
327,35,238488,1,8,0:0:0:0:
29,21,238654,1,0,0:0:0:0:
199,220,238820,6,0,P|268:186|349:211,1,141.750000540733,14|0,0:0|0:0,0:0:0:0:
480,45,239151,1,0,0:0:0:0:
361,335,239317,2,0,L|318:151,1,141.750000540733,8|0,0:0|0:0,0:0:0:0:
147,25,239648,2,0,L|158:108,1,70.8750002703667
116,302,239814,2,0,P|183:316|254:274,1,141.750000540733,8|0,0:0|0:0,0:0:0:0:
388,80,240146,5,0,0:0:0:0:
147,25,240311,1,8,0:0:0:0:
296,291,240477,1,0,0:0:0:0:
314,12,240643,1,0,0:0:0:0:
97,201,240808,1,8,0:0:0:0:
438,125,240974,1,0,0:0:0:0:
242,360,241140,1,8,0:0:0:0:
239,15,241306,1,0,0:0:0:0:
239,15,241389,1,0,0:0:0:0:
239,15,241471,6,0,P|262:90|196:162,1,141.750000540733,14|0,0:0|0:0,0:0:0:0:
0,215,241803,2,0,P|34:197|68:198,1,70.8750002703667
314,368,241969,2,0,P|250:346|212:285,1,141.750000540733,8|0,0:0|0:0,0:0:0:0:
136,57,242300,1,0,0:0:0:0:
400,122,242466,5,8,0:0:0:0:
116,227,242632,1,0,0:0:0:0:
291,32,242797,1,0,0:0:0:0:
223,335,242963,1,8,0:0:0:0:
106,89,243129,1,0,0:0:0:0:
426,203,243295,1,0,0:0:0:0:
116,334,243460,5,8,0:0:0:0:
72,277,243543,1,0,0:0:0:0:
99,211,243626,1,0,0:0:0:0:
164,184,243709,1,0,0:0:0:0:
230,209,243792,1,8,0:0:0:0:
300,218,243875,1,0,0:0:0:0:
356,175,243958,2,0,L|362:101,1,70.8750002703667
192,1,244123,6,0,P|173:83|206:144,1,131.25,6|0,0:0|0:0,0:0:0:0:
478,193,244455,2,0,P|409:164|331:190,1,131.25,8|0,0:0|0:0,0:0:0:0:
222,374,244786,1,0,0:0:0:0:
257,161,244952,1,0,0:0:0:0:
399,304,245118,1,8,0:0:0:0:
167,272,245284,1,0,0:0:0:0:
354,175,245449,6,0,P|369:116|342:52,1,131.25
161,128,245781,2,0,P|50:142|114:27,1,262.5,8|0,0:0|0:0,0:0:0:0:
248,135,246278,1,0,0:0:0:0:
70,233,246444,1,8,0:0:0:0:
72,31,246610,1,0,0:0:0:0:
258,45,246775,6,0,B|412:-9|361:92|511:50,1,262.5,2|8,0:0|0:0,0:0:0:0:
331,237,247273,2,0,P|306:174|340:110,1,131.25
472,200,247604,2,0,L|392:179,1,65.625
376,321,247770,2,0,P|309:334|256:292,1,131.25,8|0,0:0|0:0,0:0:0:0:
240,211,248101,6,0,P|168:283|219:383,1,196.875
341,268,248433,2,0,P|271:207|213:226,1,131.25,8|0,0:0|0:0,0:0:0:0:
94,261,248764,1,0,0:0:0:0:
211,121,248930,1,0,0:0:0:0:
22,50,249096,2,0,P|34:118|52:228,1,131.25,8|0,0:0|0:0,0:0:0:0:
152,340,249427,6,0,P|78:359|16:319,1,131.25,2|0,0:0|0:0,0:0:0:0:
44,179,249759,1,8,0:0:0:0:
231,201,249925,2,0,L|371:176,1,131.25
266,375,250256,1,0,0:0:0:0:
471,308,250422,2,0,B|412:196|505:227|484:87|374:82,1,262.5,8|0,0:0|0:0,0:0:0:0:
259,11,250919,1,0,0:0:0:0:
259,11,251085,6,0,P|231:88|262:138,1,131.25,8|0,0:0|0:0,0:0:0:0:
415,232,251416,2,0,P|391:172|331:150,1,131.25
139,153,251748,1,8,0:0:0:0:
289,265,251913,1,0,0:0:0:0:
62,323,252079,2,0,P|136:353|195:329,1,131.25
289,265,252411,1,8,0:0:0:0:
116,96,252576,2,0,P|97:158|119:222,1,131.25
289,265,252908,1,0,0:0:0:0:
403,151,253074,6,0,P|521:150|453:241,1,262.5,8|0,0:0|0:0,0:0:0:0:
270,198,253571,1,0,0:0:0:0:
270,198,253737,2,0,P|193:206|128:83,1,196.875,8|0,0:0|0:0,0:0:0:0:
176,0,254068,2,0,P|217:44|213:137,1,131.25
2,128,254400,2,0,P|63:103|144:137,1,131.25,8|0,0:0|0:0,0:0:0:0:
270,198,254731,6,0,P|330:217|403:187,1,110.249996635437,6|0,0:0|0:0,0:0:0:0:
423,95,255063,1,0,0:0:0:0:
423,95,255228,1,0,0:0:0:0:
487,200,255394,2,0,L|512:339,1,110.249996635437,8|0,0:0|0:0,0:0:0:0:
374,206,255726,1,0,0:0:0:0:
281,302,255891,1,0,0:0:0:0:
238,175,256057,5,0,0:0:0:0:
131,240,256223,2,0,P|65:174|135:70,1,220.499993270874
247,137,256720,2,0,L|374:110,1,110.249996635437,8|0,0:0|0:0,0:0:0:0:
117,74,257052,2,0,L|1:64,1,110.249996635437
248,250,257383,6,0,P|313:226|243:137,1,220.499993270874,6|0,0:0|0:0,0:0:0:0:
124,191,257880,1,0,0:0:0:0:
124,191,258046,2,0,L|101:307,1,110.249996635437,8|0,0:0|0:0,0:0:0:0:
203,379,258378,1,0,0:0:0:0:
313,281,258543,6,0,L|459:254,1,110.249996635437
280,138,258875,6,0,L|171:117,1,110.249996635437
421,260,259206,2,0,P|454:203|433:125,1,110.249996635437,0|8,0:0|0:0,0:0:0:0:
309,23,259538,1,0,0:0:0:0:
309,23,259621,1,0,0:0:0:0:
309,23,259704,1,0,0:0:0:0:
470,43,259869,1,0,0:0:0:0:
342,162,260035,5,6,0:0:0:0:
256,192,260118,12,0,266665,0:0:0:0:
