osu file format v14

[General]
AudioFilename: audio.mp3
AudioLeadIn: 0
PreviewTime: 73754
Countdown: 1
SampleSet: Normal
StackLeniency: 0.7
Mode: 0
LetterboxInBreaks: 0
WidescreenStoryboard: 1

[Editor]
Bookmarks: 174347,212303
DistanceSpacing: 1.2
BeatDivisor: 4
GridSize: 32
TimelineZoom: 1.9

[Metadata]
Title:Sora Uso
TitleUnicode:ソラウソ
Artist:BUD VIRGIN LOGIC
ArtistUnicode:BUD VIRGIN LOGIC
Creator:Pawlyk here
Version:Hard
Source:Show By Rock!!
Tags:
BeatmapID:2768039
BeatmapSetID:803400

[Difficulty]
HPDrainRate:4
CircleSize:3.8
OverallDifficulty:6
ApproachRate:8
SliderMultiplier:1.6
SliderTickRate:1

[Events]
//Background and Video events
0,0,"bg.jpg",0,0
//Break Periods
2,50732,59064
2,124986,133318
//Storyboard Layer 0 (Background)
//Storyboard Layer 1 (Fail)
//Storyboard Layer 2 (Pass)
//Storyboard Layer 3 (Foreground)
//Storyboard Layer 4 (Overlay)
//Storyboard Sound Samples

[TimingPoints]
809,331.491712707182,4,1,1,30,1,0
809,-142.857142857143,4,1,1,30,0,0
12079,-142.857142857143,4,1,1,30,0,0
13400,-111.111111111111,4,1,1,30,0,0
13405,-111.111111111111,4,1,1,60,0,0
29317,-153.846153846154,4,1,1,60,0,0
61140,-133.333333333334,4,1,1,60,0,0
66444,-117.647058823529,4,1,1,60,0,0
69096,-105.263157894737,4,1,1,60,0,0
74400,-100,4,1,1,80,0,1
85007,-105.263157894737,4,1,1,80,0,1
100919,-100,4,1,1,80,0,0
103571,-117.647058823529,4,1,1,80,0,0
143350,-105.263157894737,4,1,1,80,0,0
148654,-100,4,1,1,80,0,1
175173,-100,4,1,1,80,0,0

[HitObjects]
226,189,809,5,0,0:0:0:0:
226,189,974,2,0,L|305:184,1,55.9999982910157
460,99,1471,1,0,0:0:0:0:
460,99,1637,6,0,P|467:133|452:176,2,55.9999982910157
245,346,2797,1,0,0:0:0:0:
245,346,2963,6,0,P|204:354|170:341,2,55.9999982910157
321,177,4123,1,0,0:0:0:0:
321,177,4289,6,0,P|329:146|324:115,2,55.9999982910157
133,26,5449,1,0,0:0:0:0:
133,26,5615,6,0,P|102:16|72:21,2,55.9999982910157
81,302,6775,6,0,L|158:290,1,55.9999982910157
198,255,7107,1,0,0:0:0:0:
198,255,7273,1,0,0:0:0:0:
422,157,8101,6,0,L|357:150,1,55.9999982910157
301,186,8433,1,0,0:0:0:0:
301,186,8599,1,0,0:0:0:0:
148,254,9427,6,0,P|143:222|154:180,3,55.9999982910157
203,145,10090,2,0,P|245:147|275:136,3,55.9999982910157
124,119,10753,6,0,P|90:97|54:90,3,55.9999982910157
60,170,11416,2,0,L|81:250,1,55.9999982910157
139,282,11748,5,0,0:0:0:0:
139,282,11913,1,0,0:0:0:0:
189,213,12079,2,0,P|319:216|219:300,1,335.999989746094
220,301,13405,6,0,P|178:291|131:306,1,71.9999978027344,14|0,0:0|0:0,0:0:0:0:
87,345,13737,1,0,0:0:0:0:
24,296,13902,2,0,P|1:224|37:154,1,143.999995605469,8|0,0:0|0:0,0:0:0:0:
119,189,14400,2,0,P|124:153|111:120,1,71.9999978027344,8|0,0:0|0:0,0:0:0:0:
69,50,14731,6,0,P|20:63|-17:54,2,71.9999978027344,8|0|0,0:0|0:0|0:0,0:0:0:0:
111,120,15228,1,8,0:0:0:0:
177,64,15394,2,0,L|259:58,1,71.9999978027344
326,97,15726,2,0,P|341:134|337:168,1,71.9999978027344,8|0,0:0|0:0,0:0:0:0:
242,193,16057,6,0,B|220:127|220:127|257:38,1,143.999995605469,8|0,0:0|0:0,0:0:0:0:
326,97,16554,2,0,B|415:125|415:125|461:106,1,143.999995605469,8|0,0:0|0:0,0:0:0:0:
469,204,17052,2,0,P|452:245|462:286,1,71.9999978027344,8|0,0:0|0:0,0:0:0:0:
432,354,17383,6,0,L|511:351,2,71.9999978027344,8|0|0,0:0|0:0|0:0,0:0:0:0:
358,261,17880,1,8,0:0:0:0:
287,297,18046,2,0,L|270:393,1,71.9999978027344
227,240,18378,1,8,0:0:0:0:
159,287,18543,1,0,0:0:0:0:
159,287,18709,6,0,P|89:301|38:229,1,143.999995605469,10|0,0:0|0:0,0:0:0:0:
81,185,19206,2,0,P|107:134|57:45,1,143.999995605469,8|0,0:0|0:0,0:0:0:0:
147,19,19704,2,0,L|231:14,1,71.9999978027344,8|0,0:0|0:0,0:0:0:0:
284,85,20035,6,0,L|197:100,1,71.9999978027344,8|0,0:0|0:0,0:0:0:0:
152,148,20367,1,0,0:0:0:0:
152,148,20532,1,8,0:0:0:0:
202,209,20698,2,0,L|213:302,1,71.9999978027344
118,267,21029,2,0,L|131:363,1,71.9999978027344,8|0,0:0|0:0,0:0:0:0:
135,368,21278,1,0,0:0:0:0:
135,368,21361,6,0,B|213:338|191:392|297:353,1,143.999995605469,6|0,0:0|0:0,0:0:0:0:
314,290,21858,2,0,P|356:234|443:251,1,143.999995605469,8|0,0:0|0:0,0:0:0:0:
480,180,22355,2,0,L|468:77,1,71.9999978027344,8|0,0:0|0:0,0:0:0:0:
416,51,22687,2,0,P|461:27|491:27,2,71.9999978027344,8|0|0,0:0|0:0|0:0,0:0:0:0:
391,126,23184,1,8,0:0:0:0:
320,86,23350,2,0,L|223:70,1,71.9999978027344
173,66,23681,2,0,L|163:150,1,71.9999978027344,8|0,0:0|0:0,0:0:0:0:
236,242,24013,6,8,P|270:222|250:125,1,143.999995605469,6|0,0:0|0:0,0:0:0:0:
173,66,24510,1,0,0:0:0:0:
102,102,24676,2,8,L|46:99,3,35.9999989013672
159,162,25007,2,8,L|214:162,3,35.9999989013672
262,212,25339,6,0,P|231:286|274:351,1,143.999995605469
316,276,25836,2,0,P|396:238|456:272,1,143.999995605469,2|0,0:0|0:0,0:0:0:0:
383,320,26333,2,0,P|303:358|243:324,1,143.999995605469,2|0,0:0|0:0,0:0:0:0:
256,192,26831,12,0,27991,0:0:0:0:
117,301,29317,6,0,L|238:291,1,103.999995239258
331,321,29980,2,0,P|393:258|307:240,1,207.999990478516
197,233,30974,2,0,L|191:113,1,103.999995239258
189,71,31471,2,0,P|259:91|297:72,1,103.999995239258
338,58,31969,6,0,P|325:117|357:172,1,103.999995239258
455,159,32632,2,0,P|496:123|403:113,1,207.999990478516
397,249,33958,2,0,L|280:252,1,103.999995239258
186,187,34621,6,0,P|165:243|179:290,1,103.999995239258
273,344,35284,2,0,P|334:312|327:175,1,207.999990478516
222,184,36278,2,0,L|206:58,1,103.999995239258
284,113,36775,2,0,L|299:224,1,103.999995239258
304,273,37273,6,0,P|244:263|188:296,1,103.999995239258
86,354,37936,2,0,B|43:256|122:258|65:143,1,207.999990478516
69,152,39262,2,0,L|169:120,1,103.999995239258
268,41,39925,6,0,P|295:87|284:146,1,103.999995239258
231,234,40588,2,0,L|337:218,1,103.999995239258
425,286,41250,1,0,0:0:0:0:
334,355,41582,2,0,L|231:339,1,103.999995239258
175,326,42079,2,0,P|189:273|170:227,1,103.999995239258
114,228,42576,6,0,P|102:278|118:326,1,103.999995239258
228,358,43239,2,0,P|276:342|345:342,1,103.999995239258
440,367,43902,1,0,0:0:0:0:
504,271,44234,2,0,L|504:159,1,103.999995239258
456,135,44731,2,0,P|408:151|350:128,1,103.999995239258
310,104,45228,6,0,P|254:87|191:112,1,103.999995239258
255,203,45891,2,0,P|272:254|150:263,1,207.999990478516
58,170,46886,2,0,L|165:159,1,103.999995239258
166,102,47383,2,0,L|275:92,1,103.999995239258
326,88,47880,6,0,P|308:137|430:160,1,207.999990478516
413,68,48875,2,0,L|422:177,1,103.999995239258
466,277,49538,2,0,P|410:290|358:268,1,103.999995239258
326,235,50035,2,0,L|332:338,1,103.999995239258
284,370,50532,1,0,0:0:0:0:
143,223,59814,6,0,B|114:216|114:216|83:225,2,51.999997619629
185,281,60311,2,0,P|214:234|201:183,1,103.999995239258
221,114,60808,1,0,0:0:0:0:
221,114,60974,1,0,0:0:0:0:
280,157,61140,6,0,L|363:162,1,60.0000022888184,6|0,0:0|0:0,0:0:0:0:
411,157,61471,2,0,P|439:144|463:105,1,60.0000022888184
438,51,61803,2,0,P|409:40|364:50,1,60.0000022888184
325,89,62134,1,0,0:0:0:0:
257,63,62300,6,0,L|234:-19,2,60.0000022888184,0|8|0,0:0|0:0|0:0,0:0:0:0:
325,89,62797,1,0,0:0:0:0:
312,160,62963,2,0,L|338:216,2,60.0000022888184
257,63,63460,1,0,0:0:0:0:
224,129,63626,1,0,0:0:0:0:
224,129,63792,6,0,L|151:123,1,60.0000022888184,2|0,0:0|0:0,0:0:0:0:
117,69,64123,2,0,P|77:66|40:79,1,60.0000022888184
49,145,64455,1,0,0:0:0:0:
49,145,64621,2,0,L|58:223,1,60.0000022888184
111,250,64952,1,0,0:0:0:0:
182,240,65118,6,0,P|204:274|189:352,1,120.000004577637,8|0,0:0|0:0,0:0:0:0:
272,367,65615,1,0,0:0:0:0:
272,367,65781,2,0,P|335:380|407:354,1,120.000004577637,8|0,0:0|0:0,0:0:0:0:
455,336,66278,1,0,0:0:0:0:
455,336,66444,6,0,L|450:254,1,68.0000012969971,6|0,0:0|0:0,0:0:0:0:
379,230,66775,2,0,L|388:140,1,68.0000012969971
449,110,67107,1,0,0:0:0:0:
402,42,67273,6,0,L|319:34,2,68.0000012969971,8|0|8,0:0|0:0|0:0,0:0:0:0:
258,5,67770,1,0,0:0:0:0:
258,5,67936,2,0,P|251:37|265:81,1,68.0000012969971,8|0,0:0|0:0,0:0:0:0:
287,157,68267,1,0,0:0:0:0:
287,157,68350,1,0,0:0:0:0:
287,157,68433,2,0,L|205:149,1,68.0000012969971,8|0,0:0|0:0,0:0:0:0:
299,238,68764,2,0,L|392:230,1,68.0000012969971,8|0,0:0|0:0,0:0:0:0:
250,321,69096,6,0,L|152:308,2,75.9999979705811,14|0|0,0:0|0:0|0:0,0:0:0:0:
144,232,69593,2,0,P|160:191|147:132,1,75.9999979705811,8|0,0:0|0:0,0:0:0:0:
106,71,69925,1,0,0:0:0:0:
185,24,70090,6,0,L|270:21,2,75.9999979705811,8|0|0,0:0|0:0|0:0,0:0:0:0:
106,71,70588,1,8,0:0:0:0:
171,129,70753,2,0,L|259:125,1,75.9999979705811
305,196,71085,2,0,L|215:202,1,75.9999979705811,8|0,0:0|0:0,0:0:0:0:
351,256,71416,2,0,P|378:219|378:184,1,75.9999979705811,8|0,0:0|0:0,0:0:0:0:
229,201,71748,5,12,0:0:0:0:
278,309,71913,2,0,P|337:343|418:314,1,151.999995941162,2|0,0:0|0:0,0:0:0:0:
456,221,72411,2,2,L|494:220,3,37.9999989852906
400,172,72742,2,8,L|352:172,3,37.9999989852906
465,127,73074,6,0,L|481:42,1,75.9999979705811,0|8,0:0|0:0,0:0:0:0:
378,83,73405,1,10,0:0:0:0:
309,0,73571,1,2,0:0:0:0:
242,90,73737,1,0,0:0:0:0:
354,345,74400,6,0,P|430:345|455:248,1,160,8|0,0:0|0:0,0:0:0:0:
429,194,74897,2,0,L|409:85,1,80,8|0,0:0|0:0,0:0:0:0:
362,52,75228,1,0,0:0:0:0:
362,52,75394,2,0,L|260:45,1,80,8|0,0:0|0:0,0:0:0:0:
216,105,75726,5,0,0:0:0:0:
131,80,75891,2,0,P|82:150|116:228,1,160,8|0,0:0|0:0,0:0:0:0:
188,237,76389,2,0,P|226:224|285:235,1,80,8|0,0:0|0:0,0:0:0:0:
133,308,76720,2,0,P|93:310|55:297,1,80,8|0,0:0|0:0,0:0:0:0:
188,237,77052,6,0,P|261:289|245:379,1,160,8|0,0:0|0:0,0:0:0:0:
351,372,77549,1,8,0:0:0:0:
351,372,77715,2,0,L|458:363,1,80
487,297,78046,2,0,P|501:219|462:151,1,160,8|0,0:0|0:0,0:0:0:0:
388,114,78543,1,8,0:0:0:0:
388,114,78709,6,0,P|377:160|400:208,1,80
457,243,79041,1,8,0:0:0:0:
403,312,79206,1,0,0:0:0:0:
328,264,79372,2,0,L|221:263,1,80,8|0,0:0|0:0,0:0:0:0:
195,186,79704,6,0,P|158:253|185:328,1,160,12|0,0:0|0:0,0:0:0:0:
266,359,80201,2,0,L|360:344,1,80,8|0,0:0|0:0,0:0:0:0:
411,288,80532,1,0,0:0:0:0:
353,221,80698,2,0,L|331:119,1,80,8|0,0:0|0:0,0:0:0:0:
400,82,81029,1,0,0:0:0:0:
330,28,81195,6,0,P|250:63|176:22,1,160,8|0,0:0|0:0,0:0:0:0:
100,24,81692,2,0,P|47:42|26:83,1,80,8|0,0:0|0:0,0:0:0:0:
107,108,82024,2,0,P|126:159|114:207,1,80,8|0,0:0|0:0,0:0:0:0:
48,229,82355,6,0,P|138:185|196:225,1,160,12|0,0:0|0:0,0:0:0:0:
270,188,82853,2,0,L|255:266,1,80,8|0,0:0|0:0,0:0:0:0:
332,122,83184,1,0,0:0:0:0:
399,183,83350,2,0,L|488:171,1,80,8|0,0:0|0:0,0:0:0:0:
511,90,83681,5,0,0:0:0:0:
469,12,83847,2,0,L|351:15,1,80,8|0,0:0|0:0,0:0:0:0:
318,66,84179,1,0,0:0:0:0:
240,23,84344,1,8,0:0:0:0:
240,23,84427,1,8,0:0:0:0:
240,23,84510,2,0,L|171:22,4,40,8|0|0|0|0,0:0|0:0|0:0|0:0|0:0,0:0:0:0:
39,117,85007,6,0,P|83:170|54:251,1,151.999995941162,4|8,0:0|0:0,0:0:0:0:
38,327,85505,1,0,0:0:0:0:
38,327,85670,2,0,P|128:347|135:341,1,80
173,314,86002,1,8,0:0:0:0:
255,346,86168,1,0,0:0:0:0:
255,346,86333,6,0,B|322:338|322:338|345:352|345:352|425:343,2,151.999995941162,0|8|0,0:0|0:0|0:0,0:0:0:0:
201,281,87162,1,0,0:0:0:0:
257,219,87328,2,0,P|266:193|250:128,1,75.9999979705811,8|0,0:0|0:0,0:0:0:0:
180,103,87659,6,0,P|237:60|318:79,1,151.999995941162,0|8,0:0|0:0,0:0:0:0:
383,128,88157,1,0,0:0:0:0:
383,128,88322,2,0,P|371:173|394:214,1,75.9999979705811
395,289,88654,2,0,L|292:282,1,75.9999979705811,8|0,0:0|0:0,0:0:0:0:
259,211,88985,6,0,P|223:264|248:360,2,151.999995941162,0|8|0,0:0|0:0|0:0,0:0:0:0:
343,214,89814,1,0,0:0:0:0:
400,153,89980,2,0,P|417:90|394:29,1,113.999996955872,8|0,0:0|0:0,0:0:0:0:
388,13,90311,6,0,P|311:39|227:15,1,151.999995941162,4|8,0:0|0:0,0:0:0:0:
170,60,90808,1,0,0:0:0:0:
170,60,90974,2,0,L|83:50,1,75.9999979705811
111,156,91306,2,0,B|194:165|194:165|266:123,1,151.999995941162,8|0,0:0|0:0,0:0:0:0:
333,153,91803,1,0,0:0:0:0:
333,153,91969,6,0,P|344:187|336:231,1,75.9999979705811,8|0,0:0|0:0,0:0:0:0:
285,290,92300,2,0,P|287:345|303:379,2,75.9999979705811,0|0|8,0:0|0:0|0:0,0:0:0:0:
224,231,92797,1,0,0:0:0:0:
155,279,92963,2,0,P|73:292|32:220,1,151.999995941162,0|8,0:0|0:0,0:0:0:0:
85,178,93460,1,0,0:0:0:0:
167,194,93626,2,0,L|254:185,1,75.9999979705811
252,102,93958,6,0,P|183:72|125:117,1,151.999995941162,8|0,0:0|0:0,0:0:0:0:
85,178,94455,1,0,0:0:0:0:
167,194,94621,2,0,B|184:274|184:274|167:365,2,151.999995941162,8|0|8,0:0|0:0|0:0,0:0:0:0:
252,102,95449,1,0,0:0:0:0:
309,162,95615,6,0,B|372:179|372:179|403:140|470:154,1,151.999995941162,4|0,0:0|0:0,0:0:0:0:
501,242,96112,1,0,0:0:0:0:
501,242,96278,2,0,P|449:291|369:258,1,151.999995941162,8|0,0:0|0:0,0:0:0:0:
314,216,96775,2,0,P|296:247|302:312,1,75.9999979705811
336,334,97107,2,0,P|285:295|184:304,1,151.999995941162
124,331,97604,2,0,L|108:241,1,75.9999979705811,8|0,0:0|0:0,0:0:0:0:
186,219,97936,2,0,L|194:122,1,75.9999979705811
115,108,98267,6,0,P|190:136|260:99,1,151.999995941162
310,48,98764,1,0,0:0:0:0:
310,48,98930,2,0,P|347:34|399:46,1,75.9999979705811,8|0,0:0|0:0,0:0:0:0:
448,98,99262,1,0,0:0:0:0:
448,98,99427,6,0,B|474:202|427:163|451:264,1,151.999995941162
460,330,99925,1,0,0:0:0:0:
382,298,100090,2,0,L|273:290,1,75.9999979705811,0|8,0:0|0:0,0:0:0:0:
225,315,100422,2,8,L|212:365,2,37.9999989852906
217,231,100753,1,0,0:0:0:0:
134,262,100919,6,0,L|22:231,1,80,8|0,0:0|0:0,0:0:0:0:
37,96,101250,1,0,0:0:0:0:
115,136,101416,2,0,L|231:126,2,80,8|0|0,0:0|0:0|0:0,0:0:0:0:
200,36,101913,1,8,0:0:0:0:
267,92,102079,1,0,0:0:0:0:
332,32,102245,1,0,0:0:0:0:
332,32,102411,6,0,P|363:81|316:174,1,160,8|0,0:0|0:0,0:0:0:0:
238,174,102908,2,0,L|248:265,1,80,8|0,0:0|0:0,0:0:0:0:
299,323,103239,1,0,0:0:0:0:
89,279,103571,6,0,L|89:117,1,136.000002593994,0|8,0:0|0:0,0:0:0:0:
129,72,104068,1,0,0:0:0:0:
129,72,104234,2,0,P|189:65|208:79,1,68.0000012969971
237,136,104565,2,0,L|333:116,1,68.0000012969971,8|0,0:0|0:0,0:0:0:0:
367,70,104897,6,0,P|345:110|401:186,1,136.000002593994,0|8,0:0|0:0,0:0:0:0:
461,150,105394,1,0,0:0:0:0:
480,229,105560,2,0,L|466:296,1,68.0000012969971
400,344,105891,1,8,0:0:0:0:
334,303,106057,1,0,0:0:0:0:
334,303,106223,6,0,L|189:298,1,136.000002593994,0|8,0:0|0:0,0:0:0:0:
118,316,106720,2,0,P|64:274|73:190,1,136.000002593994
90,134,107217,2,0,L|175:118,1,68.0000012969971,8|0,0:0|0:0,0:0:0:0:
216,193,107549,6,0,L|131:211,2,68.0000012969971,0|0|8,0:0|0:0|0:0,0:0:0:0:
251,119,108046,2,0,P|298:184|271:254,1,136.000002593994
224,286,108543,2,0,P|218:323|232:360,1,68.0000012969971,8|0,0:0|0:0,0:0:0:0:
271,361,108792,1,0,0:0:0:0:
271,361,108875,6,0,L|368:344,1,68.0000012969971
419,356,109206,1,8,0:0:0:0:
465,288,109372,2,0,L|455:145,1,136.000002593994
378,124,109869,2,0,P|341:172|247:164,1,136.000002593994,8|0,0:0|0:0,0:0:0:0:
191,183,110367,1,0,0:0:0:0:
191,183,110532,6,0,L|189:270,1,68.0000012969971,8|0,0:0|0:0,0:0:0:0:
269,177,110864,2,0,L|267:103,1,68.0000012969971
199,63,111195,2,0,P|241:29|270:27,1,68.0000012969971,8|0,0:0|0:0,0:0:0:0:
381,79,111527,6,8,P|342:118|257:99,1,136.000002593994,4|8,0:0|0:0,0:0:0:0:
190,136,112024,2,0,P|126:116|45:152,1,136.000002593994
42,215,112521,2,0,L|61:306,1,68.0000012969971,8|0,0:0|0:0,0:0:0:0:
130,315,112853,2,0,L|225:326,2,68.0000012969971,0|0|8,0:0|0:0|0:0,0:0:0:0:
225,250,113350,2,0,P|276:305|258:372,1,136.000002593994
346,379,113847,2,0,P|390:385|436:365,1,68.0000012969971,8|0,0:0|0:0,0:0:0:0:
468,319,114179,6,0,L|463:161,1,136.000002593994
308,34,114842,5,0,0:0:0:0:
368,88,115007,2,0,L|450:82,2,68.0000012969971
324,157,115505,2,0,L|226:147,1,68.0000012969971
205,92,115836,1,0,0:0:0:0:
205,92,116002,2,0,P|180:166|209:213,1,136.000002593994
279,250,116499,1,0,0:0:0:0:
244,332,116665,1,0,0:0:0:0:
244,332,116831,6,0,P|326:326|363:274,1,136.000002593994
400,98,117494,1,0,0:0:0:0:
475,129,117659,1,0,0:0:0:0:
475,129,117825,2,0,L|476:213,1,68.0000012969971
394,209,118157,2,0,L|308:188,1,68.0000012969971
291,191,118405,1,0,0:0:0:0:
291,191,118488,6,0,P|284:277|225:279,1,136.000002593994
174,252,118985,1,0,0:0:0:0:
113,307,119151,2,0,L|16:303,1,68.0000012969971
94,175,119483,6,0,P|154:186|164:271,1,136.000002593994
191,331,119980,2,0,P|255:350|321:308,1,136.000002593994
328,238,120477,1,0,0:0:0:0:
400,285,120643,1,0,0:0:0:0:
400,285,120808,6,0,L|475:280,1,68.0000012969971
472,198,121140,2,0,L|404:192,1,68.0000012969971
294,181,121471,2,0,P|324:219|323:265,1,68.0000012969971
216,220,121803,2,0,P|202:189|205:155,1,68.0000012969971
280,90,122134,6,0,P|211:56|137:79,1,136.000002593994
94,121,122632,2,0,P|118:189|95:269,1,136.000002593994
51,311,123129,1,0,0:0:0:0:
189,296,123460,6,0,P|227:286|273:291,1,68.0000012969971
331,330,123792,1,0,0:0:0:0:
331,330,123958,2,0,P|372:335|419:320,2,68.0000012969971
295,213,124455,1,0,0:0:0:0:
355,157,124621,2,0,L|442:145,1,68.0000012969971
179,221,134068,5,0,0:0:0:0:
179,221,134234,2,0,P|211:211|252:224,1,68.0000012969971
302,284,134565,2,0,P|332:232|297:150,1,136.000002593994
240,120,135063,2,0,L|154:134,1,68.0000012969971
99,94,135394,6,0,P|89:130|106:178,1,68.0000012969971
163,204,135726,2,0,P|171:246|147:290,1,68.0000012969971
112,333,136057,1,0,0:0:0:0:
185,368,136223,2,0,L|341:348,1,136.000002593994
402,333,136720,5,0,0:0:0:0:
402,333,136886,2,0,L|415:249,1,68.0000012969971
339,241,137217,1,0,0:0:0:0:
339,241,137383,2,0,L|322:153,1,68.0000012969971
386,118,137715,2,0,P|425:124|463:106,1,68.0000012969971
483,39,138046,6,0,P|400:16|344:53,1,136.000002593994
303,117,138543,1,0,0:0:0:0:
234,71,138709,2,0,L|152:66,1,68.0000012969971
88,92,139041,2,0,L|108:186,1,68.0000012969971
90,239,139372,2,0,P|141:199|216:232,1,136.000002593994
258,285,139869,1,0,0:0:0:0:
258,285,140035,2,0,P|316:303|393:252,1,136.000002593994
317,157,140532,1,0,0:0:0:0:
317,157,140698,6,0,P|309:197|314:224,1,68.0000012969971
392,282,141029,1,0,0:0:0:0:
392,282,141112,1,0,0:0:0:0:
392,282,141195,2,0,L|439:271,5,34.0000006484985
325,348,141692,2,0,L|263:334,4,34.0000006484985
234,268,142190,1,0,0:0:0:0:
153,308,142355,2,0,L|143:392,1,68.0000012969971
83,252,142687,2,0,B|69:219|81:180|81:171,1,68.0000012969971
226,202,143018,2,0,P|237:236|226:286,1,68.0000012969971
166,108,143350,6,0,P|200:90|240:90,2,75.9999979705811
324,135,143847,2,0,P|367:143|420:118,1,75.9999979705811
441,66,144179,1,0,0:0:0:0:
496,128,144344,2,0,L|512:203,2,75.9999979705811
441,66,144842,1,0,0:0:0:0:
397,134,145007,2,0,L|418:231,1,75.9999979705811
464,279,145338,2,0,P|430:296|393:294,1,75.9999979705811
326,231,145670,2,0,P|281:224|233:240,1,75.9999979705811
180,289,146002,1,0,0:0:0:0:
116,223,146168,6,0,L|102:45,1,151.999995941162
181,23,146665,2,0,L|220:15,3,37.9999989852906
263,91,146996,2,0,L|303:98,3,37.9999989852906
371,53,147328,6,0,L|397:143,1,75.9999979705811
387,220,147659,1,0,0:0:0:0:
485,181,147825,1,0,0:0:0:0:
485,181,147991,1,0,0:0:0:0:
285,113,148654,6,0,P|207:81|132:137,1,160
117,206,149151,2,0,P|135:244|117:303,1,80
82,364,149483,1,0,0:0:0:0:
176,376,149648,2,0,L|269:360,1,80
319,290,149980,1,0,0:0:0:0:
395,213,150146,6,0,B|420:259|420:259|404:365,1,160
382,220,150643,2,0,P|393:263|374:302,1,80
314,173,150974,2,0,P|302:125|318:91,1,80
441,62,151306,6,0,P|385:116|301:86,1,160
231,60,151803,2,0,L|134:56,1,80
98,137,152134,1,0,0:0:0:0:
12,92,152300,2,0,P|2:61|16:6,1,80
151,56,152632,1,0,0:0:0:0:
166,189,152797,2,0,P|86:224|7:164,1,160
185,105,153295,2,0,L|278:84,1,80
322,191,153626,2,0,L|232:215,1,80
126,357,153958,2,0,P|123:263|166:201,1,160
229,263,154455,2,0,L|332:238,1,80
369,141,154786,1,0,0:0:0:0:
432,175,154952,2,0,L|469:275,1,80
321,324,155284,1,0,0:0:0:0:
254,239,155449,2,0,P|231:188|294:78,1,160
465,148,155947,2,0,L|375:154,1,80
320,48,156278,2,0,L|216:59,1,80
