osu file format v14

[General]
AudioFilename: audio.mp3
AudioLeadIn: 0
PreviewTime: 69160
Countdown: 0
SampleSet: Soft
StackLeniency: 0.7
Mode: 0
LetterboxInBreaks: 0
WidescreenStoryboard: 1

[Editor]
DistanceSpacing: 0.3
BeatDivisor: 6
GridSize: 32
TimelineZoom: 1.5

[Metadata]
Title:Danzai no Solitude
TitleUnicode:断罪のソリテュード
Artist:BUD VIRGIN LOGIC
ArtistUnicode:BUD VIRGIN LOGIC
Creator:jiwoas
Version:Kneel Before Me
Source:SHOW BY ROCK!!#
Tags:melize matsuyuki ame matsuyuki_ame rk657 shirahane suou shirahane_suou 野口瑠璃子 ruriko noguchi 田中あいみ tanaka aimi 木戸衣吹 kido ibuki ailane peipain hundreko conviction of ペイペイン anime アイレーン japanese ハンドレッコ rock j-rock jrock
BeatmapID:3979647
BeatmapSetID:1927181

[Difficulty]
HPDrainRate:6
CircleSize:4.3
OverallDifficulty:9.3
ApproachRate:9.7
SliderMultiplier:2.03
SliderTickRate:1

[Events]
//Background and Video events
0,0,"bg.jpg",0,0
//Break Periods
2,204360,212808
//Storyboard Layer 0 (Background)
//Storyboard Layer 1 (Fail)
//Storyboard Layer 2 (Pass)
//Storyboard Layer 3 (Foreground)
//Storyboard Layer 4 (Overlay)
//Storyboard Sound Samples

[TimingPoints]
30446,285.714285714286,4,2,3,65,1,0
30446,-107.52688172043,4,2,3,65,0,0
32731,-97.0873786407767,4,2,3,70,0,0
33517,-97.0873786407767,4,2,3,5,0,0
33588,-97.0873786407767,4,2,3,70,0,0
34374,-97.0873786407767,4,2,3,5,0,0
34445,-97.0873786407767,4,2,3,70,0,0
38088,-97.0873786407767,4,2,3,5,0,0
38160,-97.0873786407767,4,2,3,70,0,0
38945,-97.0873786407767,4,2,3,5,0,0
39017,-97.0873786407767,4,2,3,70,0,0
41874,-107.52688172043,4,2,3,60,0,0
51017,-107.52688172043,4,2,3,65,0,0
52374,-107.52688172043,4,2,3,5,0,0
52446,-107.52688172043,4,2,3,65,0,0
60160,-136.986301369862,4,2,3,50,0,0
62660,-136.986301369862,4,2,3,5,0,0
62731,-136.986301369862,4,2,3,50,0,0
63231,-136.986301369862,4,2,3,5,0,0
63303,-136.986301369862,4,2,3,50,0,0
64088,-136.986301369862,4,2,3,5,0,0
64160,-136.986301369862,4,2,3,50,0,0
69160,-136.986301369862,4,2,3,5,0,0
69303,-769.230769230751,4,2,3,60,0,0
71303,-107.52688172043,4,2,3,70,0,0
71588,-88.4955752212387,4,2,3,80,0,0
71803,-88.4955752212387,4,2,3,5,0,0
71874,-88.4955752212387,4,2,3,80,0,0
72374,-88.4955752212387,4,2,3,5,0,0
72446,-88.4955752212387,4,2,3,80,0,0
74088,-88.4955752212387,4,2,3,5,0,0
74160,-88.4955752212387,4,2,3,80,0,0
75231,-88.4955752212387,4,2,3,5,0,0
75303,-88.4955752212387,4,2,3,80,0,0
76374,-88.4955752212387,4,2,3,5,0,0
76446,-88.4955752212387,4,2,3,80,0,0
76946,-88.4955752212387,4,2,3,5,0,0
77017,-88.4955752212387,4,2,3,80,0,0
77803,-88.4955752212387,4,2,3,5,0,0
77874,-88.4955752212387,4,2,3,80,0,0
80088,-88.4955752212387,4,2,3,5,0,0
80160,-88.4955752212387,4,2,3,80,0,0
80946,-88.4955752212387,4,2,3,5,0,0
81017,-88.4955752212387,4,2,3,80,0,0
82374,-88.4955752212387,4,2,3,5,0,0
82446,-88.4955752212387,4,2,3,80,0,0
83803,-88.4955752212387,4,2,3,5,0,0
83874,-88.4955752212387,4,2,3,80,0,0
86660,-88.4955752212387,4,2,3,5,0,0
86731,-88.4955752212387,4,2,3,80,0,0
90088,-88.4955752212387,4,2,3,5,0,0
90160,-88.4955752212387,4,2,3,80,0,0
90660,-88.4955752212387,4,2,3,5,0,0
90731,-88.4955752212387,4,2,3,80,0,0
92374,-88.4955752212387,4,2,3,5,0,0
92446,-88.4955752212387,4,2,3,80,0,0
93517,-88.4955752212387,4,2,3,5,0,0
93588,-88.4955752212387,4,2,3,80,0,0
94660,-88.4955752212387,4,2,3,5,0,0
94731,-88.4955752212387,4,2,3,80,0,0
95231,-88.4955752212387,4,2,3,5,0,0
95303,-88.4955752212387,4,2,3,80,0,0
96088,-88.4955752212387,4,2,3,5,0,0
96160,-88.4955752212387,4,2,3,80,0,0
99231,-88.4955752212387,4,2,3,5,0,0
99303,-88.4955752212387,4,2,3,80,0,0
100374,-88.4955752212387,4,2,3,5,0,0
100446,-88.4955752212387,4,2,3,80,0,0
101517,-88.4955752212387,4,2,3,5,0,0
101588,-88.4955752212387,4,2,3,80,0,0
105517,-88.4955752212387,4,2,3,5,0,0
105588,-88.4955752212387,4,2,3,80,0,0
112731,-107.52688172043,4,2,3,60,0,0
113517,-107.52688172043,4,2,3,5,0,0
113588,-107.52688172043,4,2,3,60,0,0
115803,-107.52688172043,4,2,3,5,0,0
115874,-107.52688172043,4,2,3,60,0,0
117517,-107.52688172043,4,2,3,5,0,0
117588,-107.52688172043,4,2,3,60,0,0
119231,-107.52688172043,4,2,3,5,0,0
119303,-107.52688172043,4,2,3,60,0,0
120160,-188.679245283019,4,2,3,60,0,0
121874,-97.0873786407766,4,2,3,70,0,0
126660,-97.0873786407766,4,2,3,5,0,0
126731,-97.0873786407766,4,2,3,70,0,0
127803,-97.0873786407766,4,2,3,5,0,0
127874,-97.0873786407766,4,2,3,70,0,0
131017,-136.986301369863,4,2,3,60,0,0
133303,-107.52688172043,4,2,3,65,0,0
135803,-107.52688172043,4,2,3,5,0,0
135874,-107.52688172043,4,2,3,65,0,0
136946,-107.52688172043,4,2,3,5,0,0
137017,-107.52688172043,4,2,3,65,0,0
137517,-107.52688172043,4,2,3,5,0,0
137588,-107.52688172043,4,2,3,65,0,0
142446,-232.558139534884,4,2,3,50,0,0
151588,-136.986301369862,4,2,3,60,0,0
156160,-188.679245283017,4,2,3,60,0,0
160588,-188.679245283017,4,2,3,5,0,0
160731,-303.030303030298,4,2,3,65,0,0
162446,-303.030303030298,4,2,3,70,0,0
162588,-107.52688172043,4,2,3,70,0,0
163017,-88.4955752212387,4,2,3,80,0,0
163231,-88.4955752212387,4,2,3,5,0,0
163303,-88.4955752212387,4,2,3,80,0,0
163803,-88.4955752212387,4,2,3,5,0,0
163874,-88.4955752212387,4,2,3,80,0,0
165517,-88.4955752212387,4,2,3,5,0,0
165588,-88.4955752212387,4,2,3,80,0,0
166660,-88.4955752212387,4,2,3,5,0,0
166731,-88.4955752212387,4,2,3,80,0,0
167803,-88.4955752212387,4,2,3,5,0,0
167874,-88.4955752212387,4,2,3,80,0,0
168374,-88.4955752212387,4,2,3,5,0,0
168446,-88.4955752212387,4,2,3,80,0,0
169231,-88.4955752212387,4,2,3,5,0,0
169303,-88.4955752212387,4,2,3,80,0,0
171517,-88.4955752212387,4,2,3,5,0,0
171588,-88.4955752212387,4,2,3,80,0,0
172374,-88.4955752212387,4,2,3,5,0,0
172446,-88.4955752212387,4,2,3,80,0,0
173803,-88.4955752212387,4,2,3,5,0,0
173874,-88.4955752212387,4,2,3,80,0,0
175231,-88.4955752212387,4,2,3,5,0,0
175303,-88.4955752212387,4,2,3,80,0,0
178088,-88.4955752212387,4,2,3,5,0,0
178160,-88.4955752212387,4,2,3,80,0,0
181517,-88.4955752212387,4,2,3,5,0,0
181588,-88.4955752212387,4,2,3,80,0,0
182088,-88.4955752212387,4,2,3,5,0,0
182160,-88.4955752212387,4,2,3,80,0,0
183803,-88.4955752212387,4,2,3,5,0,0
183874,-88.4955752212387,4,2,3,80,0,0
184946,-88.4955752212387,4,2,3,5,0,0
185017,-88.4955752212387,4,2,3,80,0,0
186088,-88.4955752212387,4,2,3,5,0,0
186160,-88.4955752212387,4,2,3,80,0,0
186660,-88.4955752212387,4,2,3,5,0,0
186731,-88.4955752212387,4,2,3,80,0,0
187517,-88.4955752212387,4,2,3,5,0,0
187588,-88.4955752212387,4,2,3,80,0,0
190660,-88.4955752212387,4,2,3,5,0,0
190731,-88.4955752212387,4,2,3,80,0,0
191803,-88.4955752212387,4,2,3,5,0,0
191874,-88.4955752212387,4,2,3,80,0,0
192946,-88.4955752212387,4,2,3,5,0,0
193017,-88.4955752212387,4,2,3,80,0,0
196946,-88.4955752212387,4,2,3,5,0,0
197017,-88.4955752212387,4,2,3,80,0,0
213303,-188.679245283019,4,2,3,70,0,0
222446,-88.4955752212389,4,2,3,80,0,0
224946,-88.4955752212389,4,2,3,5,0,0
225017,-88.4955752212389,4,2,3,80,0,0
226088,-88.4955752212389,4,2,3,5,0,0
226160,-88.4955752212389,4,2,3,80,0,0
226660,-88.4955752212389,4,2,3,5,0,0
226731,-88.4955752212389,4,2,3,80,0,0
229517,-88.4955752212389,4,2,3,5,0,0
229588,-88.4955752212389,4,2,3,80,0,0
230088,-88.4955752212389,4,2,3,5,0,0
230160,-88.4955752212389,4,2,3,80,0,0
236374,-88.4955752212389,4,2,3,5,0,0
236446,-88.4955752212389,4,2,3,80,0,0
237517,-88.4955752212389,4,2,3,5,0,0
237588,-88.4955752212389,4,2,3,80,0,0
238088,-88.4955752212389,4,2,3,5,0,0
238160,-88.4955752212389,4,2,3,80,0,0
240946,-88.4955752212389,4,2,3,5,0,0
241017,-88.4955752212389,4,2,3,80,0,0
241517,-88.4955752212389,4,2,3,5,0,0
241588,-88.4955752212389,4,2,3,80,0,0
243231,-88.4955752212389,4,2,3,5,0,0
243303,-88.4955752212389,4,2,3,80,0,0
244374,-88.4955752212389,4,2,3,5,0,0
244446,-88.4955752212389,4,2,3,80,0,0
245517,-88.4955752212389,4,2,3,5,0,0
245588,-88.4955752212389,4,2,3,80,0,0
246088,-88.4955752212389,4,2,3,5,0,0
246160,-88.4955752212389,4,2,3,80,0,0
246946,-88.4955752212389,4,2,3,5,0,0
247017,-88.4955752212389,4,2,3,80,0,0
249231,-88.4955752212389,4,2,3,5,0,0
249303,-88.4955752212389,4,2,3,80,0,0
250088,-88.4955752212389,4,2,3,5,0,0
250160,-88.4955752212389,4,2,3,80,0,0
251517,-88.4955752212389,4,2,3,5,0,0
251588,-88.4955752212389,4,2,3,80,0,0
252946,-88.4955752212389,4,2,3,5,0,0
253017,-88.4955752212389,4,2,3,80,0,0
255803,-88.4955752212389,4,2,3,5,0,0
255874,-88.4955752212389,4,2,3,80,0,0
259017,-88.4955752212389,4,2,3,85,0,1
259231,-88.4955752212389,4,2,3,5,0,1
259303,-88.4955752212389,4,2,3,85,0,1
263803,-88.4955752212389,4,2,3,5,0,1
263874,-88.4955752212389,4,2,3,85,0,1
264946,-88.4955752212389,4,2,3,5,0,1
265017,-88.4955752212389,4,2,3,85,0,1
268374,-88.4955752212389,4,2,3,5,0,1
268446,-88.4955752212389,4,2,3,85,0,1
269517,-88.4955752212389,4,2,3,5,0,1
269588,-88.4955752212389,4,2,3,85,0,1
270660,-88.4955752212389,4,2,3,5,0,1
270731,-88.4955752212389,4,2,3,85,0,1
272731,-88.4955752212389,4,2,3,80,0,0
274660,-88.4955752212389,4,2,3,5,0,0
274731,-88.4955752212389,4,2,3,80,0,0
281874,-107.52688172043,4,2,3,80,0,0
284160,-88.4955752212389,4,2,3,80,0,0
286446,-107.52688172043,4,2,3,60,0,0
287231,-107.52688172043,4,2,3,5,0,0
287303,-107.52688172043,4,2,3,60,0,0
289517,-107.52688172043,4,2,3,5,0,0
289588,-107.52688172043,4,2,3,60,0,0
291231,-107.52688172043,4,2,3,5,0,0
291303,-107.52688172043,4,2,3,60,0,0
292946,-107.52688172043,4,2,3,5,0,0
293017,-107.52688172043,4,2,3,60,0,0
294446,-107.52688172043,4,2,3,70,0,0
295588,-107.52688172043,4,2,3,80,0,0
300160,-107.52688172043,4,2,3,5,0,0

[Colours]
Combo1 : 255,81,81
Combo2 : 214,107,149
Combo3 : 249,162,195
Combo4 : 255,4,4

[HitObjects]
193,243,30445,5,6,1:2:0:0:
348,89,30588,1,8,0:0:0:0:
440,276,30731,1,8,0:0:0:0:
446,291,30874,1,0,1:0:0:0:
244,125,31017,5,8,0:0:0:0:
303,366,31160,1,0,1:0:0:0:
430,153,31303,5,8,0:0:0:0:
231,323,31445,2,0,B|143:313|200:267|92:249,1,141.592504429087,0|0,1:0|0:0,0:0:0:0:
84,244,31731,2,0,P|78:267|73:288,2,31.4650009842415,0|0|0,1:0|1:0|1:0,0:0:0:0:
232,231,31874,1,8,0:0:0:0:
222,204,31945,1,0,1:0:0:0:
215,176,32017,1,0,1:0:0:0:
209,148,32088,1,0,1:0:0:0:
205,119,32160,5,8,0:0:0:0:
405,7,32303,1,8,0:0:0:0:
108,3,32445,6,0,L|153:17,1,47.1975014763623,10|0,0:0|0:0,0:0:0:0:
484,124,32588,1,8,0:0:0:0:
270,295,32731,6,0,B|224:184|344:212|285:85,1,209.089998245247,6|8,1:2|0:0,0:0:0:0:
291,99,33160,1,0,0:0:0:0:
476,230,33303,2,0,B|434:213|403:192|403:192|384:227|354:255,1,156.817498683935,2|0,1:2|0:0,0:0:0:0:
346,268,33588,2,0,P|395:284|443:305,1,104.544999122623,8|0,0:0|0:0,0:0:0:0:
246,380,33874,6,0,P|197:370|182:322,1,104.544999122623,2|0,1:2|0:0,0:0:0:0:
46,113,34160,2,0,P|119:115|144:184,1,156.817498683935,8|0,0:0|0:0,0:0:0:0:
141,204,34445,2,0,P|91:220|43:240,1,104.544999122623,2|0,1:2|0:0,0:0:0:0:
172,56,34731,2,0,P|220:75|269:92,1,104.544999122623,8|0,0:0|0:0,0:0:0:0:
476,184,35017,5,2,1:2:0:0:
427,178,35112,1,2,0:0:0:0:
385,203,35207,1,2,0:0:0:0:
370,248,35303,2,0,P|380:282|391:315,2,69.696666081749,10|2|2,0:0|0:0|0:0,0:0:0:0:
290,295,35588,5,2,1:2:0:0:
242,308,35684,1,2,0:0:0:0:
197,288,35779,1,2,0:0:0:0:
182,241,35874,2,0,P|192:207|203:174,2,69.696666081749,10|2|2,0:0|0:0|0:0,0:0:0:0:
94,291,36160,5,2,1:2:0:0:
94,291,36303,1,2,0:0:0:0:
196,380,36445,1,10,0:0:0:0:
0,205,36588,1,2,0:0:0:0:
242,121,36731,5,2,1:2:0:0:
70,0,36874,1,2,0:0:0:0:
127,178,37017,1,10,0:0:0:0:
256,0,37160,1,2,0:0:0:0:
413,137,37303,6,0,P|379:235|351:336,1,209.089998245247,6|8,1:2|0:0,0:0:0:0:
351,336,37731,1,0,0:0:0:0:
118,384,37874,2,0,B|204:375|185:298|185:298|161:282|162:249,1,156.817498683935,2|0,1:2|0:0,0:0:0:0:
169,241,38160,2,0,P|119:257|69:271,1,104.544999122623,8|0,0:0|0:0,0:0:0:0:
130,27,38445,6,0,P|143:77|157:127,1,104.544999122623,2|0,1:2|0:0,0:0:0:0:
356,283,38731,2,0,B|328:247|302:221|302:221|333:191|362:157,1,156.817498683935,8|0,0:0|0:0,0:0:0:0:
368,151,39017,2,0,P|416:170|466:187,1,104.544999122623,2|0,1:2|0:0,0:0:0:0:
360,379,39303,2,0,L|305:359,1,52.2724995613117,10|0,0:0|0:0,0:0:0:0:
268,300,39445,2,0,L|219:318,1,52.2724995613117,2|0,0:0|0:0,0:0:0:0:
63,382,39588,5,2,1:2:0:0:
27,347,39684,1,2,0:0:0:0:
32,298,39779,1,2,0:0:0:0:
68,265,39874,2,0,L|133:291,2,69.696666081749,10|2|2,0:0|0:0|0:0,0:0:0:0:
143,199,40160,5,2,1:2:0:0:
170,159,40255,1,2,0:0:0:0:
163,110,40350,1,2,0:0:0:0:
121,83,40445,2,0,L|16:119,1,104.544999122623,10|0,0:0|0:0,0:0:0:0:
22,116,40660,1,8,0:0:0:0:
22,116,40731,5,8,3:0:0:0:
167,0,40874,1,8,0:0:0:0:
265,187,41017,2,0,P|315:173|365:159,1,104.544999122623,8|0,0:0|0:0,0:0:0:0:
387,155,41231,1,8,0:0:0:0:
387,155,41303,1,8,3:0:0:0:
295,62,41445,1,8,0:0:0:0:
143,199,41588,5,2,1:2:0:0:
146,214,41660,1,0,1:0:0:0:
149,229,41731,1,2,1:2:0:0:
152,244,41803,1,0,1:0:0:0:
156,258,41874,5,6,1:2:0:0:
205,358,42017,1,0,1:0:0:0:
205,358,42160,1,2,1:2:0:0:
112,339,42303,1,2,1:2:0:0:
244,275,42445,2,0,P|289:287|335:298,1,94.3950029527245,8|2,0:0|1:2,0:0:0:0:
335,298,42731,1,0,1:0:0:0:
497,361,42874,2,0,P|451:373|405:384,1,94.3950029527245,10|0,0:0|1:0,0:0:0:0:
416,225,43160,5,2,1:2:0:0:
420,238,43231,1,0,1:0:0:0:
425,251,43303,1,2,1:2:0:0:
282,154,43445,1,2,1:2:0:0:
381,63,43588,2,0,P|371:109|360:155,1,94.3950029527245,8|2,0:0|1:2,0:0:0:0:
360,155,43874,1,2,1:2:0:0:
186,230,44017,2,0,P|195:183|206:137,1,94.3950029527245,10|0,0:0|1:0,0:0:0:0:
206,137,44303,5,2,1:2:0:0:
346,260,44445,1,2,1:2:0:0:
346,260,44588,1,2,1:2:0:0:
166,322,44731,2,0,P|120:310|74:298,1,94.3950029527245,10|2,0:0|1:2,0:0:0:0:
74,298,45017,1,2,1:2:0:0:
241,383,45160,2,0,P|286:371|332:359,1,94.3950029527245,10|0,0:0|1:0,0:0:0:0:
494,210,45445,5,0,1:0:0:0:
491,224,45517,1,0,1:0:0:0:
489,237,45588,1,0,1:0:0:0:
430,319,45731,1,0,1:0:0:0:
302,157,45874,2,0,P|347:171|392:185,1,94.3950029527245,10|0,0:0|1:0,0:0:0:0:
392,185,46160,1,0,1:0:0:0:
512,60,46303,2,0,P|466:74|421:88,1,94.3950029527245,8|0,0:0|1:0,0:0:0:0:
271,66,46588,5,2,1:2:0:0:
271,66,46731,1,2,1:2:0:0:
352,23,46874,1,2,1:2:0:0:
214,146,47017,2,0,P|226:191|237:237,1,94.3950029527245,10|2,0:0|1:2,0:0:0:0:
237,237,47303,1,0,1:0:0:0:
118,316,47446,2,0,P|105:270|94:224,1,94.3950029527245,10|0,0:0|1:0,0:0:0:0:
263,369,47731,5,2,1:2:0:0:
276,364,47803,1,0,1:0:0:0:
289,358,47874,1,2,1:2:0:0:
365,263,48017,1,2,1:2:0:0:
473,368,48160,2,0,P|427:355|381:343,1,94.3950029527245,8|2,0:0|1:2,0:0:0:0:
381,343,48446,1,2,1:2:0:0:
229,229,48588,1,10,0:0:0:0:
400,89,48731,6,0,P|386:134|374:179,1,94.3950029527245,2|0,1:2|1:0,0:0:0:0:
487,289,49017,2,0,P|499:243|512:198,1,94.3950029527245,2|0,1:2|1:0,0:0:0:0:
292,117,49303,1,10,0:0:0:0:
292,117,49446,2,0,P|246:129|200:140,1,94.3950029527245,2|0,1:2|1:0,0:0:0:0:
31,26,49731,1,10,0:0:0:0:
136,52,49874,5,0,1:0:0:0:
27,232,50017,1,0,1:0:0:0:
23,218,50088,1,0,1:0:0:0:
20,203,50160,1,0,1:0:0:0:
63,122,50303,1,0,1:0:0:0:
163,277,50446,5,8,0:0:0:0:
0,371,50588,1,0,1:0:0:0:
73,303,50731,1,0,1:0:0:0:
174,366,50874,1,8,0:0:0:0:
379,253,51017,6,0,B|433:154|321:161|378:51,1,188.790005905449,6|2,1:2|1:2,0:0:0:0:
367,74,51446,1,0,0:0:0:0:
274,169,51588,1,2,1:2:0:0:
274,169,51731,1,2,1:2:0:0:
168,9,51874,2,0,P|213:21|258:34,1,94.3950029527245,2|2,1:2|0:0,0:0:0:0:
107,163,52160,6,0,P|39:169|8:229,1,141.592504429087,2|0,1:2|0:0,0:0:0:0:
8,257,52446,1,2,1:2:0:0:
99,353,52588,1,2,1:2:0:0:
99,353,52731,2,0,P|109:306|120:260,1,94.3950029527245,0|2,1:0|0:0,0:0:0:0:
248,183,53017,2,0,P|237:137|226:90,1,94.3950029527245,2|2,1:2|0:0,0:0:0:0:
363,252,53303,5,0,1:0:0:0:
448,155,53446,1,2,1:2:0:0:
353,267,53588,2,0,P|338:325|327:370,1,94.3950029527245,2|2,1:2|0:0,0:0:0:0:
458,250,53874,5,2,1:2:0:0:
230,304,54017,1,2,0:0:0:0:
320,131,54160,1,2,1:2:0:0:
349,246,54303,1,2,1:2:0:0:
209,55,54446,5,2,1:2:0:0:
71,206,54588,2,0,B|125:193|125:193|130:189|130:189|190:176,1,94.3950029527245,8|2,0:0|1:2,0:0:0:0:
161,182,54874,1,2,1:2:0:0:
326,21,55017,5,8,0:0:0:0:
469,234,55160,1,10,0:0:0:0:
512,128,55303,2,0,P|466:140|420:153,1,94.3950029527245,2|2,1:2|0:0,0:0:0:0:
141,280,55588,5,6,1:2:0:0:
319,384,55731,2,0,P|329:338|340:292,1,94.3950029527245,10|0,0:0|1:0,0:0:0:0:
340,292,56017,1,2,0:0:0:0:
211,378,56160,5,0,1:0:0:0:
211,378,56303,1,0,1:0:0:0:
159,158,56446,5,10,0:0:0:0:
49,301,56588,2,0,P|94:290|140:279,1,94.3950029527245,10|0,0:0|1:0,0:0:0:0:
296,36,56874,2,0,P|250:46|204:57,1,94.3950029527245,10|0,0:0|1:0,0:0:0:0:
204,57,57160,1,0,1:0:0:0:
321,122,57303,1,2,1:2:0:0:
468,5,57446,6,0,P|457:51|448:97,1,94.3950029527245,10|0,0:0|1:0,0:0:0:0:
448,97,57731,1,2,1:2:0:0:
224,221,57874,2,0,P|234:174|243:128,1,94.3950029527245,8|0,0:0|1:0,0:0:0:0:
243,128,58160,1,2,1:2:0:0:
449,298,58303,6,0,P|438:251|429:205,1,94.3950029527245,10|0,0:0|1:0,0:0:0:0:
429,205,58588,1,2,1:2:0:0:
156,292,58731,2,0,P|165:338|175:384,1,94.3950029527245,8|0,0:0|1:0,0:0:0:0:
20,107,59017,6,0,P|9:153|0:199,1,94.3950029527245,10|0,0:0|0:0,0:0:0:0:
32,320,59303,1,0,1:0:0:0:
32,320,59446,1,2,0:0:0:0:
174,97,59588,5,8,3:0:0:0:
186,277,59731,1,8,3:0:0:0:
360,57,59874,5,8,0:0:0:0:
319,336,60017,1,8,0:0:0:0:
507,161,60160,5,6,1:2:0:0:
507,161,60446,6,0,L|492:108,3,49.3966680233867,2|2|2|2,0:0|0:0|0:0|0:0,0:0:0:0:
354,175,61017,6,0,P|317:183|281:192,1,74.09500203508,2|0,0:0|0:0,0:0:0:0:
256,200,61231,1,2,0:0:0:0:
256,200,61303,1,2,0:0:0:0:
72,84,61588,6,0,P|141:72|178:132,2,148.19000407016,2|2|2,0:0|0:0|0:0,0:0:0:0:
6,205,62446,6,0,P|16:259|27:314,1,111.14250305262,2|0,1:2|0:0,0:0:0:0:
35,339,62731,2,0,P|69:329|86:297,1,74.09500203508,2|0,0:0|0:0,0:0:0:0:
178,132,63017,2,0,P|125:136|101:184,1,111.14250305262,2|0,0:0|0:0,0:0:0:0:
106,207,63303,2,0,P|141:216|176:228,1,74.09500203508,2|0,0:0|0:0,0:0:0:0:
309,322,63588,6,0,P|273:333|238:345,1,74.09500203508,2|0,0:0|0:0,0:0:0:0:
336,204,63874,2,0,P|373:243|427:249,1,111.14250305262,2|0,0:0|0:0,0:0:0:0:
448,242,64160,1,2,0:0:0:0:
494,129,64303,1,2,0:0:0:0:
494,129,64446,2,0,L|415:149,1,74.09500203508,2|0,1:2|0:0,0:0:0:0:
251,5,64731,6,0,P|258:41|266:77,1,74.09500203508,2|0,1:2|0:0,0:0:0:0:
217,158,65017,1,0,1:0:0:0:
217,158,65160,1,0,1:0:0:0:
131,122,65303,2,0,P|60:120|31:183,1,148.19000407016,0|0,1:0|0:0,0:0:0:0:
31,183,65731,1,0,1:0:0:0:
110,308,65874,6,0,P|120:272|130:236,1,74.09500203508,2|0,0:0|0:0,0:0:0:0:
237,229,66160,2,0,P|226:193|216:157,1,74.09500203508,2|0,0:0|0:0,0:0:0:0:
440,375,66446,6,0,P|429:339|419:303,1,74.09500203508,2|0,0:0|0:0,0:0:0:0:
313,296,66732,2,0,P|323:260|333:224,1,74.09500203508,2|0,0:0|0:0,0:0:0:0:
15,370,67017,5,6,1:2:0:0:
256,192,67088,12,0,69160,0:0:0:0:
15,370,69303,6,0,L|69:355,3,52.7799996778564,2|2|2|2,0:0|0:0|0:0|0:0,0:0:0:0:
104,257,71303,5,8,3:0:0:0:
156,235,71374,1,8,3:0:0:0:
212,244,71446,1,8,3:0:0:0:
238,293,71517,1,8,3:0:0:0:
253,334,71588,6,0,B|279:308|320:309|320:309|344:245|276:223,1,172.042500525032,6|0,1:2|0:0,0:0:0:0:
216,159,71874,2,0,B|191:187|214:221|214:221|217:187|245:169,1,114.695000350021,10|0,0:0|0:0,0:0:0:0:
468,166,72160,2,0,B|421:196|364:158|371:110|371:110|389:86|376:50,1,172.042500525032,2|0,1:2|0:0,0:0:0:0:
308,26,72446,2,0,B|332:-5|368:10|368:10|336:15|322:42,1,114.695000350021,10|0,0:0|0:0,0:0:0:0:
110,222,72731,5,2,1:2:0:0:
75,74,72874,1,0,0:0:0:0:
208,274,73017,5,10,0:0:0:0:
298,46,73160,1,0,0:0:0:0:
272,351,73303,5,2,1:2:0:0:
474,154,73446,1,0,0:0:0:0:
210,0,73588,6,0,B|173:49|173:49|216:106,1,114.695000350021,10|0,0:0|0:0,0:0:0:0:
465,300,73874,6,0,B|444:208|361:237|361:237|347:261|321:273,1,172.042500525032,6|0,1:2|0:0,0:0:0:0:
330,266,74160,1,8,0:0:0:0:
173,358,74303,1,0,0:0:0:0:
243,162,74446,1,0,1:0:0:0:
377,378,74588,1,0,0:0:0:0:
154,229,74731,2,0,P|81:249|33:262,1,114.695000350021,10|0,0:0|0:0,0:0:0:0:
250,62,75017,6,0,B|288:49|307:12|307:12|305:58|330:104,1,172.042500525032,2|0,1:2|0:0,0:0:0:0:
341,116,75303,1,8,0:0:0:0:
478,27,75446,1,2,0:0:0:0:
370,205,75588,2,0,P|316:218|273:184,1,114.695000350021,2|2,1:2|0:0,0:0:0:0:
96,0,75874,5,10,0:0:0:0:
341,116,76017,1,10,0:0:0:0:
96,0,76160,6,0,B|46:90|145:73|98:170,1,172.042500525032,6|0,1:2|0:0,0:0:0:0:
57,242,76446,2,0,B|27:222|33:186|33:186|42:214|70:228,1,114.695000350021,10|0,0:0|0:0,0:0:0:0:
264,364,76731,2,0,B|304:334|337:312|337:312|303:268|280:231,1,172.042500525032,2|0,1:2|0:0,0:0:0:0:
240,168,77017,2,0,B|210:188|216:224|216:224|225:196|253:182,1,114.695000350021,10|0,0:0|0:0,0:0:0:0:
512,124,77303,6,0,B|457:112|457:112|447:104|447:104|388:90,1,114.695000350021,6|0,1:2|0:0,0:0:0:0:
146,46,77588,2,0,P|209:-5|286:22,1,172.042500525032,10|0,0:0|0:0,0:0:0:0:
299,42,77874,1,2,1:2:0:0:
369,183,78017,1,0,0:0:0:0:
169,269,78160,1,10,0:0:0:0:
237,152,78303,1,0,0:0:0:0:
327,358,78446,6,0,B|386:385|423:334|423:334|428:312|428:312|460:260|522:277,1,229.390000700043,6|8,1:2|0:0,0:0:0:0:
511,274,78874,1,0,0:0:0:0:
392,70,79017,2,0,P|380:126|368:182,1,114.695000350021,2|0,1:2|0:0,0:0:0:0:
192,381,79303,2,0,P|180:324|168:268,1,114.695000350021,10|0,0:0|0:0,0:0:0:0:
14,47,79588,5,6,1:2:0:0:
141,182,79731,1,0,0:0:0:0:
305,17,79874,2,0,P|226:-3|174:59,1,172.042500525032,10|0,0:0|0:0,0:0:0:0:
174,82,80160,2,0,P|228:100|282:118,1,114.695000350021,2|0,1:2|0:0,0:0:0:0:
108,288,80446,2,0,P|53:269|0:252,1,114.695000350021,8|0,0:0|0:0,0:0:0:0:
291,384,80731,6,0,B|212:349|251:277|251:277|286:261|285:225,1,172.042500525032,6|0,1:2|0:0,0:0:0:0:
259,165,81017,2,0,B|224:169|221:209|221:209|239:183|276:177,1,114.695000350021,10|0,0:0|0:0,0:0:0:0:
440,325,81303,5,2,1:2:0:0:
351,127,81446,1,0,0:0:0:0:
368,238,81588,5,10,0:0:0:0:
413,39,81731,1,0,0:0:0:0:
259,165,81874,6,0,P|203:149|149:132,1,114.695000350021,6|0,1:2|0:0,0:0:0:0:
16,298,82160,2,0,B|16:336|-2:353|-2:353|74:372|101:282,1,172.042500525032,10|0,0:0|0:0,0:0:0:0:
105,287,82446,1,2,1:2:0:0:
78,201,82588,1,0,0:0:0:0:
173,364,82731,1,10,0:0:0:0:
270,187,82874,1,0,0:0:0:0:
402,384,83017,6,0,P|346:369|291:354,1,114.695000350021,6|0,1:2|0:0,0:0:0:0:
78,201,83303,2,0,P|133:186|188:171,1,114.695000350021,10|0,0:0|0:0,0:0:0:0:
393,0,83588,2,0,B|443:90|344:73|391:170,1,172.042500525032,2|0,1:2|0:0,0:0:0:0:
415,230,83874,2,0,P|463:203|464:148,1,114.695000350021,10|0,0:0|0:0,0:0:0:0:
207,45,84160,5,6,1:2:0:0:
260,251,84303,1,0,0:0:0:0:
198,36,84446,2,0,B|153:-4|153:-4|94:26,1,114.695000350021,10|0,0:0|0:0,0:0:0:0:
18,248,84731,5,6,1:2:0:0:
278,129,84874,1,0,0:0:0:0:
0,257,85017,1,10,0:0:0:0:
183,368,85160,5,2,1:2:0:0:
189,352,85231,1,0,1:0:0:0:
195,335,85303,6,0,B|300:248|378:347|286:419|247:366,1,229.390000700043,6|8,1:2|0:0,0:0:0:0:
260,377,85731,1,0,0:0:0:0:
125,275,85874,2,0,P|114:218|104:162,1,114.695000350021,0|0,1:0|0:0,0:0:0:0:
12,21,86160,1,8,0:0:0:0:
12,21,86303,1,2,1:2:0:0:
202,146,86446,6,0,B|318:123|233:74|368:55,1,172.042500525032,6|0,1:2|0:0,0:0:0:0:
426,0,86731,2,0,B|441:37|415:64|415:64|415:28|390:6,1,114.695000350021,10|0,0:0|0:0,0:0:0:0:
512,188,87017,2,0,P|477:144|422:148,1,114.695000350021,0|0,1:0|0:0,0:0:0:0:
323,279,87303,1,10,0:0:0:0:
323,279,87446,1,2,1:2:0:0:
462,377,87588,5,6,1:2:0:0:
428,251,87731,1,0,0:0:0:0:
278,381,87874,1,10,0:0:0:0:
278,381,88017,1,0,0:0:0:0:
195,157,88160,5,0,1:0:0:0:
137,332,88303,1,0,0:0:0:0:
0,172,88446,1,10,0:0:0:0:
97,96,88588,5,0,1:0:0:0:
100,113,88660,1,0,1:0:0:0:
103,129,88731,5,10,0:0:0:0:
246,381,88874,1,0,1:0:0:0:
397,131,89017,1,2,1:2:0:0:
75,278,89160,5,8,0:0:0:0:
341,363,89303,1,2,1:2:0:0:
294,103,89446,1,0,1:0:0:0:
512,328,89588,6,0,B|456:316|456:316|448:310|448:310|379:295,1,114.695000350021,10|0,0:0|1:0,0:0:0:0:
131,138,89874,6,0,B|168:155|212:181|212:181|236:145|269:107,1,172.042500525032,6|0,1:2|0:0,0:0:0:0:
350,26,90160,2,0,B|329:45|324:78|324:78|305:51|272:44,1,114.695000350021,10|0,0:0|0:0,0:0:0:0:
395,290,90446,2,0,B|321:257|360:190|360:190|392:179|397:137,1,172.042500525032,2|0,1:2|0:0,0:0:0:0:
434,39,90731,2,0,B|429:63|402:82|402:82|435:87|454:108,1,114.695000350021,10|0,0:0|0:0,0:0:0:0:
262,261,91017,5,2,1:2:0:0:
189,83,91160,1,0,0:0:0:0:
146,302,91303,5,10,0:0:0:0:
100,62,91446,1,0,0:0:0:0:
27,338,91588,5,2,1:2:0:0:
10,45,91731,1,0,0:0:0:0:
262,261,91874,6,0,B|314:246|314:246|321:239|321:239|370:226,1,114.695000350021,10|0,0:0|0:0,0:0:0:0:
230,13,92160,6,0,P|150:-3|101:61,1,172.042500525032,6|0,1:2|0:0,0:0:0:0:
103,81,92446,1,8,0:0:0:0:
182,251,92588,1,0,0:0:0:0:
253,134,92731,1,0,1:0:0:0:
80,336,92874,1,0,0:0:0:0:
0,162,93017,2,0,B|58:144|58:144|89:184,1,114.695000350021,10|0,0:0|0:0,0:0:0:0:
289,367,93303,6,0,B|366:386|414:331|354:274|312:322,1,172.042500525032,2|0,1:2|0:0,0:0:0:0:
272,375,93589,1,8,0:0:0:0:
102,259,93732,1,2,0:0:0:0:
179,380,93874,2,0,P|191:324|204:268,1,114.695000350021,2|0,1:2|0:0,0:0:0:0:
393,87,94160,5,10,0:0:0:0:
104,159,94303,1,10,0:0:0:0:
393,87,94446,6,0,B|395:-2|301:16|301:16|289:39|264:52,1,172.042500525032,6|0,1:2|0:0,0:0:0:0:
182,106,94731,2,0,B|203:90|208:55|208:55|217:89|248:109,1,114.695000350021,10|0,0:0|0:0,0:0:0:0:
337,338,95017,2,0,B|315:311|281:312|281:312|265:241|339:228,1,172.042500525032,2|0,1:2|0:0,0:0:0:0:
428,160,95303,2,0,B|407:176|402:211|402:211|393:177|362:157,1,114.695000350021,10|0,0:0|0:0,0:0:0:0:
94,307,95589,6,0,B|149:295|149:295|159:287|159:287|218:273,1,114.695000350021,6|0,1:2|0:0,0:0:0:0:
35,73,95874,2,0,B|75:114|100:135|100:135|67:167|37:200,1,172.042500525032,10|0,0:0|0:0,0:0:0:0:
26,206,96160,1,2,1:2:0:0:
112,384,96303,1,0,0:0:0:0:
185,243,96446,1,10,0:0:0:0:
0,334,96589,1,0,0:0:0:0:
230,384,96731,6,0,B|300:266|160:283|229:146,1,229.390000700043,6|8,1:2|0:0,0:0:0:0:
218,169,97160,1,0,0:0:0:0:
381,0,97303,2,0,P|385:54|340:87,1,114.695000350021,2|0,1:2|0:0,0:0:0:0:
103,54,97588,2,0,P|148:23|198:45,1,114.695000350021,10|0,0:0|0:0,0:0:0:0:
397,262,97874,5,6,0:0:0:0:
156,125,98017,1,0,1:0:0:0:
414,253,98160,5,6,0:0:0:0:
97,231,98303,1,0,1:0:0:0:
429,243,98446,5,6,0:0:0:0:
66,356,98588,1,0,1:0:0:0:
264,55,98731,5,4,0:0:0:0:
350,337,98874,1,0,1:0:0:0:
354,355,98946,1,0,1:0:0:0:
357,372,99017,6,0,B|403:273|307:300|354:183,1,172.042500525032,6|0,1:2|0:0,0:0:0:0:
353,194,99303,1,10,0:0:0:0:
470,365,99446,1,0,1:0:0:0:
497,85,99588,5,10,0:0:0:0:
259,298,99731,1,0,1:0:0:0:
279,0,99874,5,10,0:0:0:0:
512,236,100017,1,0,1:0:0:0:
174,137,100160,6,0,B|101:155|101:155|83:184|83:184|-4:205,1,172.042500525032,6|0,1:2|0:0,0:0:0:0:
2,208,100446,1,10,0:0:0:0:
89,20,100588,1,0,1:0:0:0:
139,305,100731,5,10,0:0:0:0:
206,32,100874,1,0,1:0:0:0:
302,357,101017,5,10,0:0:0:0:
314,18,101160,1,0,1:0:0:0:
477,291,101303,6,0,B|450:260|408:264|408:264|381:200|443:171,1,172.042500525032,6|0,1:2|0:0,0:0:0:0:
445,170,101588,1,10,0:0:0:0:
412,355,101731,1,0,1:0:0:0:
276,101,101874,5,10,0:0:0:0:
216,359,102017,1,0,1:0:0:0:
21,138,102160,6,0,P|77:150|133:161,1,114.695000350021,10|0,0:0|1:0,0:0:0:0:
153,165,102374,1,0,1:0:0:0:
153,165,102446,1,6,1:2:0:0:
114,43,102588,1,0,0:0:0:0:
68,243,102731,5,10,0:0:0:0:
295,102,102874,1,0,1:0:0:0:
21,138,103017,5,8,0:0:0:0:
260,360,103160,1,0,1:0:0:0:
449,132,103303,5,10,0:0:0:0:
176,306,103446,1,10,0:0:0:0:
172,289,103517,1,8,0:0:0:0:
169,272,103588,6,0,B|314:293|225:365|388:381,2,229.390000700043,6|10|0,1:2|0:0|1:0,0:0:0:0:
3,368,104303,1,0,0:0:0:0:
54,196,104446,2,0,P|71:250|87:305,1,114.695000350021,10|0,0:0|0:0,0:0:0:0:
192,154,104731,6,0,P|230:114|284:125,1,114.695000350021,2|0,1:2|0:0,0:0:0:0:
449,283,105017,2,0,P|394:293|356:254,1,114.695000350021,10|0,0:0|0:0,0:0:0:0:
159,384,105303,2,0,B|238:355|210:283|210:283|179:268|176:230,1,172.042500525032,2|0,1:2|0:0,0:0:0:0:
199,232,105588,2,0,P|143:246|88:262,1,114.695000350021,10|0,0:0|0:0,0:0:0:0:
149,0,105874,5,6,1:2:0:0:
114,144,106017,1,2,0:0:0:0:
160,12,106160,5,10,0:0:0:0:
125,156,106303,1,2,0:0:0:0:
330,74,106446,5,2,1:2:0:0:
360,265,106588,1,2,0:0:0:0:
313,80,106731,5,10,0:0:0:0:
343,271,106873,1,2,0:0:0:0:
107,136,107017,5,10,0:0:0:0:
378,256,107160,1,0,1:0:0:0:
131,384,107303,1,0,1:0:0:0:
301,85,107446,5,8,0:0:0:0:
294,371,107588,1,0,1:0:0:0:
15,261,107731,1,0,1:0:0:0:
130,5,107874,6,0,P|136:32|142:61,1,57.3475001750107,10|0,0:0|0:0,0:0:0:0:
262,290,108017,2,0,P|268:261|274:233,1,57.3475001750107,0|0,1:0|0:0,0:0:0:0:
502,9,108160,5,6,1:2:0:0:
186,107,109303,5,6,1:2:0:0:
372,342,110303,5,0,1:0:0:0:
375,325,110374,1,0,1:0:0:0:
379,308,110446,5,10,0:0:0:0:
277,87,110588,1,0,1:0:0:0:
112,296,110731,1,0,1:0:0:0:
385,137,110874,5,8,0:0:0:0:
249,377,111017,1,0,1:0:0:0:
153,116,111160,1,0,1:0:0:0:
3,369,111303,5,8,0:0:0:0:
268,235,111446,1,0,1:0:0:0:
14,362,111588,1,0,1:0:0:0:
322,315,111731,5,8,0:0:0:0:
51,128,111874,1,0,1:0:0:0:
313,308,112017,1,0,1:0:0:0:
187,6,112160,6,0,P|170:61|152:115,1,114.695000350021,8|0,0:0|1:0,0:0:0:0:
393,380,112446,2,0,P|409:324|427:270,1,114.695000350021,8|0,0:0|1:0,0:0:0:0:
146,202,112731,6,0,B|269:191|183:125|321:104,1,188.790005905449,6|2,1:2|1:2,0:0:0:0:
299,108,113160,1,0,1:0:0:0:
479,1,113303,2,0,B|453:27|422:52|422:52|451:86|475:121,1,141.592504429087,10|0,0:0|0:0,0:0:0:0:
512,111,113588,2,0,P|467:125|423:142,1,94.3950029527245,2|0,1:2|1:0,0:0:0:0:
287,236,113874,5,2,1:2:0:0:
424,324,114017,2,0,P|412:278|401:232,1,94.3950029527245,8|2,0:0|1:2,0:0:0:0:
401,232,114303,1,2,1:2:0:0:
286,353,114446,2,0,P|240:365|195:378,1,94.3950029527245,10|0,0:0|1:0,0:0:0:0:
87,278,114731,2,0,P|132:266|178:254,1,94.3950029527245,2|0,1:2|1:0,0:0:0:0:
350,135,115017,5,2,1:2:0:0:
364,93,115112,1,2,0:0:0:0:
341,55,115207,1,2,0:0:0:0:
300,36,115303,2,0,P|284:80|272:126,1,94.3950029527245,2|2,1:2|1:2,0:0:0:0:
286,353,115588,6,0,B|297:283|365:293|365:293|379:312|411:315,1,141.592504429087,10|0,0:0|0:0,0:0:0:0:
457,276,115874,1,2,1:2:0:0:
425,245,115969,1,2,0:0:0:0:
420,200,116065,1,2,0:0:0:0:
447,165,116160,5,2,1:2:0:0:
512,27,116303,2,0,B|469:5|469:5|429:45,1,94.3950029527245,8|2,0:0|1:2,0:0:0:0:
436,37,116588,1,2,1:2:0:0:
305,215,116731,5,10,0:0:0:0:
193,2,116874,1,8,0:0:0:0:
267,51,117017,5,2,1:2:0:0:
224,175,117160,1,8,0:0:0:0:
38,290,117303,6,0,P|61:227|127:227,1,141.592504429087,6|0,1:2|0:0,0:0:0:0:
143,240,117588,2,0,P|187:255|232:269,1,94.3950029527245,2|0,1:2|1:0,0:0:0:0:
405,376,117874,5,10,0:0:0:0:
370,348,117969,1,2,0:0:0:0:
365,303,118065,1,2,0:0:0:0:
389,266,118160,2,0,P|434:253|479:238,1,94.3950029527245,2|0,1:2|1:0,0:0:0:0:
372,80,118446,5,10,0:0:0:0:
270,218,118588,1,8,0:0:0:0:
163,48,118731,2,0,P|208:60|254:71,1,94.3950029527245,2|0,1:2|1:0,0:0:0:0:
129,239,119017,2,0,B|107:211|93:174|93:174|68:189|17:203,1,141.592504429087,2|0,1:2|0:0,0:0:0:0:
10,205,119303,2,0,P|27:258|39:301,1,94.3950029527245,2|0,1:2|1:0,0:0:0:0:
250,384,119588,5,6,1:2:0:0:
250,384,120160,6,0,P|266:277|283:171,1,215.180000328339,2|2,0:0|0:0,0:0:0:0:
283,171,121017,2,0,P|322:177|362:184,1,80.692500123127,0|0,1:0|0:0,0:0:0:0:
373,202,121303,2,0,L|399:205,1,26.8975000410423,2|0,1:2|1:0,0:0:0:0:
461,141,121446,1,2,1:2:0:0:
475,134,121517,1,0,1:0:0:0:
491,124,121588,5,8,3:0:0:0:
503,89,121659,1,8,3:0:0:0:
493,54,121730,1,8,3:0:0:0:
465,29,121802,1,8,3:0:0:0:
429,24,121874,5,6,1:2:0:0:
336,107,122017,1,2,0:0:0:0:
157,5,122160,1,10,0:0:0:0:
46,145,122303,2,0,P|96:130|146:117,1,104.544999122623,2|2,0:0|1:2,0:0:0:0:
330,17,122588,2,0,P|279:23|254:67,1,104.544999122623,2|10,0:0|0:0,0:0:0:0:
201,349,122874,6,0,B|246:308|229:243|184:224|184:224|150:232|124:202,1,209.089998245247,2|2,0:0|0:0,0:0:0:0:
44,25,123303,1,10,0:0:0:0:
181,139,123446,5,2,0:0:0:0:
181,139,123588,1,2,1:2:0:0:
231,64,123731,1,2,0:0:0:0:
302,278,123874,5,10,0:0:0:0:
410,84,124017,1,2,0:0:0:0:
475,296,124160,5,2,1:2:0:0:
426,291,124255,1,2,0:0:0:0:
395,253,124350,1,2,0:0:0:0:
397,203,124446,2,0,P|430:190|462:176,2,69.696666081749,10|2|2,0:0|0:0|0:0,0:0:0:0:
349,127,124731,5,2,1:2:0:0:
307,101,124826,1,2,0:0:0:0:
260,117,124922,1,2,0:0:0:0:
239,160,125017,2,0,P|249:194|259:227,2,69.696666081749,10|2|2,0:0|0:0|0:0,0:0:0:0:
160,71,125303,5,2,1:2:0:0:
4,222,125446,1,2,0:0:0:0:
189,338,125588,2,0,P|174:287|159:237,1,104.544999122623,10|0,0:0|0:0,0:0:0:0:
38,45,125874,2,0,B|18:96|18:96|57:134,1,104.544999122623,2|0,1:2|0:0,0:0:0:0:
251,8,126160,2,0,P|301:1|340:33,1,104.544999122623,8|0,0:0|0:0,0:0:0:0:
511,209,126446,6,0,B|410:229|476:264|368:287,1,156.817498683935,6|0,1:2|0:0,0:0:0:0:
377,299,126731,2,0,P|325:289|274:280,1,104.544999122623,8|0,0:0|0:0,0:0:0:0:
74,348,127017,5,2,1:2:0:0:
103,309,127112,1,2,0:0:0:0:
89,262,127207,1,2,0:0:0:0:
55,225,127303,2,0,B|32:180|32:180|81:146,1,104.544999122623,10|0,0:0|0:0,0:0:0:0:
298,89,127588,6,0,B|201:73|267:27|162:3,1,156.817498683935,2|0,1:2|0:0,0:0:0:0:
157,1,127874,5,10,0:0:0:0:
201,197,128017,1,2,0:0:0:0:
309,68,128160,5,2,1:2:0:0:
251,289,128303,1,2,0:0:0:0:
453,146,128446,5,10,0:0:0:0:
162,275,128588,1,2,0:0:0:0:
453,146,128731,5,6,1:2:0:0:
473,102,128826,1,2,0:0:0:0:
452,57,128922,1,2,0:0:0:0:
407,37,129017,2,0,P|373:47|340:56,2,69.696666081749,10|2|2,0:0|0:0|0:0,0:0:0:0:
346,158,129303,5,2,1:2:0:0:
326,202,129398,1,2,0:0:0:0:
353,242,129493,1,2,0:0:0:0:
401,244,129588,2,0,P|450:228|501:215,1,104.544999122623,10|0,0:0|0:0,0:0:0:0:
501,215,129803,1,0,1:0:0:0:
501,215,129874,5,6,1:2:0:0:
472,315,130017,1,2,0:0:0:0:
326,202,130160,5,10,0:0:0:0:
364,375,130303,1,2,0:0:0:0:
326,202,130446,1,2,1:2:0:0:
196,341,130588,5,2,0:0:0:0:
234,94,130731,1,10,0:0:0:0:
196,341,130874,1,2,0:0:0:0:
60,181,131017,6,0,L|136:171,1,74.09500203508,2|0,0:0|0:0,0:0:0:0:
159,152,131303,2,0,L|85:161,1,74.09500203508,2|0,0:0|0:0,0:0:0:0:
208,74,131588,6,0,L|284:84,1,74.09500203508,2|0,0:0|0:0,0:0:0:0:
307,103,131874,2,0,L|233:93,1,74.09500203508,2|0,0:0|0:0,0:0:0:0:
370,33,132160,5,2,0:0:0:0:
393,50,132303,1,2,0:0:0:0:
415,86,132446,1,2,0:0:0:0:
398,141,132588,1,2,0:0:0:0:
300,267,132731,5,2,0:0:0:0:
398,141,132874,1,2,0:0:0:0:
490,304,133017,1,2,0:0:0:0:
385,229,133160,1,2,0:0:0:0:
190,384,133303,5,6,1:2:0:0:
276,351,133446,1,2,0:0:0:0:
161,254,133588,2,0,P|97:270|45:282,1,94.3950029527245,10|0,0:0|0:0,0:0:0:0:
226,122,133874,1,2,1:2:0:0:
226,122,134017,1,2,0:0:0:0:
289,221,134160,1,10,0:0:0:0:
100,136,134303,6,0,P|120:70|132:28,1,94.3950029527245,2|0,0:0|1:0,0:0:0:0:
213,8,134588,1,2,0:0:0:0:
330,117,134731,1,10,0:0:0:0:
181,213,134874,1,2,0:0:0:0:
330,258,135017,1,2,1:2:0:0:
260,377,135160,1,2,0:0:0:0:
260,377,135303,2,0,P|252:330|243:283,1,94.3950029527245,8|2,0:0|0:0,0:0:0:0:
113,145,135588,6,0,P|46:136|10:192,1,141.592504429087,0|0,1:0|0:0,0:0:0:0:
19,213,135874,1,8,0:0:0:0:
91,297,136017,1,2,0:0:0:0:
211,168,136160,1,2,1:2:0:0:
334,367,136303,5,2,0:0:0:0:
173,244,136446,1,10,0:0:0:0:
361,154,136588,1,2,0:0:0:0:
235,359,136731,6,0,B|209:282|280:297|255:211,1,141.592504429087,2|0,1:2|0:0,0:0:0:0:
211,168,137017,2,0,P|165:154|120:140,1,94.3950029527245,8|0,0:0|0:0,0:0:0:0:
301,8,137303,2,0,P|338:65|406:76,1,141.592504429087,2|0,1:2|0:0,0:0:0:0:
429,66,137588,1,8,0:0:0:0:
345,258,137731,1,8,0:0:0:0:
342,243,137803,1,8,0:0:0:0:
339,229,137874,5,6,1:2:0:0:
287,131,138017,1,2,0:0:0:0:
435,284,138160,2,0,P|389:270|344:257,1,94.3950029527245,10|2,0:0|0:0,0:0:0:0:
167,317,138446,1,2,1:2:0:0:
160,335,138588,1,2,0:0:0:0:
112,237,138731,1,10,0:0:0:0:
252,384,138874,1,10,0:0:0:0:
249,369,138946,1,8,0:0:0:0:
246,355,139017,6,0,P|256:308|265:262,1,94.3950029527245,0|2,1:0|0:0,0:0:0:0:
112,237,139303,2,0,P|101:190|92:144,1,94.3950029527245,2|2,1:2|0:0,0:0:0:0:
92,144,139588,1,2,1:2:0:0:
287,3,139731,2,0,P|277:49|268:95,1,94.3950029527245,10|2,0:0|0:0,0:0:0:0:
376,250,140017,1,2,1:2:0:0:
388,256,140088,1,0,1:0:0:0:
400,262,140160,5,10,0:0:0:0:
213,346,140303,1,0,1:0:0:0:
421,180,140446,1,0,1:0:0:0:
174,123,140588,5,10,0:0:0:0:
344,322,140731,1,0,1:0:0:0:
48,184,140874,1,2,1:2:0:0:
306,48,141017,6,0,B|336:88|336:88|314:137,1,94.3950029527245,8|2,0:0|1:2,0:0:0:0:
104,346,141303,2,0,B|74:306|74:306|96:257,1,94.3950029527245,8|0,0:0|0:0,0:0:0:0:
434,340,141588,5,0,1:0:0:0:
434,340,141874,5,8,3:0:0:0:
480,207,142017,1,8,3:0:0:0:
355,384,142160,5,8,0:0:0:0:
270,125,142303,1,8,0:0:0:0:
104,346,142446,5,6,1:2:0:0:
104,346,142731,6,0,P|141:334|153:331,3,29.0966671106466,2|2|2|2,0:0|0:0|0:0|0:0,0:0:0:0:
0,370,143303,5,2,0:0:0:0:
37,282,143588,2,0,P|58:197|78:112,1,174.580002663879,2|2,0:0|0:0,0:0:0:0:
78,112,144446,1,2,0:0:0:0:
162,35,144731,6,0,P|202:49|244:63,1,87.2900013319397,2|2,0:0|0:0,0:0:0:0:
260,149,145303,2,0,P|301:135|342:121,1,87.2900013319397,2|2,0:0|0:0,0:0:0:0:
485,21,145874,5,2,0:0:0:0:
453,128,146160,1,2,0:0:0:0:
508,259,146446,5,2,0:0:0:0:
417,221,146588,2,0,L|375:235,1,43.6450006659699,2|0,0:0|0:0,0:0:0:0:
276,380,147017,6,0,B|317:288|225:308|268:207,1,174.580002663879,2|0,0:0|0:0,0:0:0:0:
264,215,147874,1,2,0:0:0:0:
203,119,148160,6,0,P|169:146|126:153,1,87.2900013319397,2|2,0:0|0:0,0:0:0:0:
0,241,148731,2,0,P|42:248|76:275,1,87.2900013319397,2|2,0:0|0:0,0:0:0:0:
10,113,149303,6,0,P|26:33|107:26,2,174.580002663879,2|2|2,0:0|0:0|0:0,0:0:0:0:
132,365,151303,5,8,3:0:0:0:
135,352,151375,1,8,3:0:0:0:
138,339,151446,1,8,3:0:0:0:
142,326,151518,1,8,3:0:0:0:
146,313,151588,6,0,P|218:298|291:286,1,148.19000407016,6|0,1:2|0:0,0:0:0:0:
432,208,152088,1,2,0:0:0:0:
431,208,152160,2,0,P|396:197|360:188,1,74.09500203508,2|0,0:0|0:0,0:0:0:0:
246,122,152446,2,0,P|281:111|317:102,1,74.09500203508,2|0,0:0|0:0,0:0:0:0:
479,11,152731,5,2,0:0:0:0:
394,117,153017,2,0,L|376:38,1,74.09500203508,2|0,0:0|0:0,0:0:0:0:
229,194,153303,2,0,L|247:115,1,74.09500203508,2|0,0:0|0:0,0:0:0:0:
90,286,153588,2,0,L|72:207,1,74.09500203508,2|0,0:0|0:0,0:0:0:0:
243,341,153874,6,0,P|309:307|382:297,2,148.19000407016,2|2|2,0:0|0:0|0:0,0:0:0:0:
144,377,154731,1,2,0:0:0:0:
68,291,155017,6,0,P|73:221|140:205,1,148.19000407016,2|2,0:0|0:0,0:0:0:0:
308,160,155446,2,0,P|308:90|243:64,1,148.19000407016
66,0,155874,2,0,P|101:8|125:35,1,74.09500203508,2|0,0:0|0:0,0:0:0:0:
242,225,156160,6,0,B|403:199|310:117|482:90,1,268.975000410423,2|0,0:0|0:0,0:0:0:0:
465,92,157303,5,2,0:0:0:0:
435,185,157588,1,2,0:0:0:0:
510,252,157874,1,2,0:0:0:0:
436,296,158160,1,2,0:0:0:0:
320,384,158446,5,2,0:0:0:0:
256,192,158517,12,0,160588,0:0:0:0:
320,384,160731,6,0,P|307:318|294:252,3,133.979999591125,2|2|2|2,0:0|0:0|0:0|1:2,0:0:0:0:
243,195,162517,1,0,1:0:0:0:
243,195,162588,2,0,L|193:206,1,47.1975014763623,8|8,3:0|3:0,0:0:0:0:
94,135,162731,2,0,L|140:124,1,47.1975014763623,8|8,3:0|3:0,0:0:0:0:
363,33,162874,5,8,0:0:0:0:
345,10,162946,1,8,0:0:0:0:
316,8,163017,6,0,B|269:98|363:77|317:178,1,172.042500525032,6|0,1:2|0:0,0:0:0:0:
352,257,163303,2,0,B|387:244|386:206|386:206|373:229|346:240,1,114.695000350021,10|0,0:0|0:0,0:0:0:0:
121,367,163588,2,0,B|93:325|69:294|69:294|100:272|145:234,1,172.042500525032,2|0,1:2|0:0,0:0:0:0:
201,171,163874,2,0,B|227:195|208:230|208:230|202:198|172:177,1,114.695000350021,10|0,0:0|0:0,0:0:0:0:
57,112,164160,5,2,1:2:0:0:
256,27,164303,1,0,0:0:0:0:
382,214,164446,5,10,0:0:0:0:
156,55,164589,1,0,0:0:0:0:
29,290,164732,5,2,1:2:0:0:
329,108,164875,1,0,0:0:0:0:
422,361,165017,6,0,B|369:381|369:381|318:335,1,114.695000350021,10|0,0:0|0:0,0:0:0:0:
108,224,165303,6,0,B|148:185|148:138|148:138|161:183|208:209,1,172.042500525032,6|0,1:2|0:0,0:0:0:0:
217,200,165588,1,8,0:0:0:0:
126,330,165732,1,0,0:0:0:0:
331,188,165875,1,0,1:0:0:0:
135,57,166017,1,0,0:0:0:0:
276,311,166160,2,0,P|331:295|387:283,1,114.695000350021,10|0,0:0|0:0,0:0:0:0:
489,33,166446,6,0,B|457:68|433:102|433:102|400:77|349:58,1,172.042500525032,2|0,1:2|0:0,0:0:0:0:
345,53,166732,1,8,0:0:0:0:
188,192,166875,1,2,0:0:0:0:
235,0,167017,2,0,P|251:54|266:110,1,114.695000350021,2|2,1:2|0:0,0:0:0:0:
350,367,167303,5,10,0:0:0:0:
437,123,167446,1,10,0:0:0:0:
350,367,167588,6,0,P|263:344|172:318,1,172.042500525032,6|0,1:2|0:0,0:0:0:0:
132,243,167874,2,0,B|102:263|108:299|108:299|117:271|145:257,1,114.695000350021,10|0,0:0|0:0,0:0:0:0:
330,174,168160,2,0,B|354:149|407:150|407:150|422:106|362:58,1,172.042500525032,2|0,1:2|0:0,0:0:0:0:
279,58,168446,2,0,B|277:24|321:14|321:14|300:37|302:67,1,114.695000350021,10|0,0:0|0:0,0:0:0:0:
495,265,168732,6,0,B|440:253|440:253|430:245|430:245|371:231,1,114.695000350021,6|0,1:2|0:0,0:0:0:0:
199,19,169017,2,0,B|158:110|250:90|199:187,1,172.042500525032,10|0,0:0|0:0,0:0:0:0:
194,200,169303,1,2,1:2:0:0:
116,145,169446,1,0,0:0:0:0:
203,309,169589,1,10,0:0:0:0:
35,205,169732,1,0,0:0:0:0:
291,384,169874,6,0,B|388:334|316:241|316:241|276:241|259:206,1,229.390000700043,6|8,1:2|0:0,0:0:0:0:
156,57,170303,1,0,0:0:0:0:
321,163,170446,2,0,P|333:107|345:51,1,114.695000350021,2|0,1:2|0:0,0:0:0:0:
116,145,170732,2,0,P|128:201|139:257,1,114.695000350021,10|0,0:0|0:0,0:0:0:0:
374,337,171017,5,6,1:2:0:0:
246,228,171160,1,0,0:0:0:0:
428,79,171303,2,0,B|456:113|488:144|488:144|455:179|425:221,1,172.042500525032,10|0,0:0|0:0,0:0:0:0:
422,229,171589,2,0,P|368:247|314:265,1,114.695000350021,2|0,1:2|0:0,0:0:0:0:
136,138,171875,2,0,P|190:120|244:101,1,114.695000350021,8|0,0:0|0:0,0:0:0:0:
44,348,172160,6,0,B|33:327|12:317|12:317|59:239|141:316,1,172.042500525032,6|0,1:2|0:0,0:0:0:0:
213,305,172446,2,0,B|204:339|173:349|173:349|191:329|192:298,1,114.695000350021,10|0,0:0|0:0,0:0:0:0:
164,42,172732,5,2,1:2:0:0:
364,209,172875,1,0,0:0:0:0:
204,207,173017,5,10,0:0:0:0:
329,52,173160,1,0,0:0:0:0:
423,285,173303,6,0,P|467:252|463:197,1,114.695000350021,6|0,1:2|0:0,0:0:0:0:
243,0,173588,2,0,P|258:84|274:169,1,172.042500525032,10|0,0:0|0:0,0:0:0:0:
280,182,173875,1,2,1:2:0:0:
218,347,174017,1,0,0:0:0:0:
158,215,174160,1,10,0:0:0:0:
323,294,174303,1,0,0:0:0:0:
100,384,174446,6,0,B|57:340|57:340|81:292,1,114.695000350021,6|0,1:2|0:0,0:0:0:0:
250,142,174731,2,0,B|293:186|293:186|268:233,1,114.695000350021,10|0,0:0|0:0,0:0:0:0:
40,119,175017,2,0,B|150:100|77:38|208:17,1,172.042500525032,2|0,1:2|0:0,0:0:0:0:
286,52,175303,2,0,B|266:45|250:14|250:14|252:54|224:75,1,114.695000350021,10|0,0:0|0:0,0:0:0:0:
358,222,175589,5,6,1:2:0:0:
431,38,175732,1,0,0:0:0:0:
352,242,175874,2,0,P|369:296|384:351,1,114.695000350021,10|0,0:0|0:0,0:0:0:0:
209,137,176160,5,6,1:2:0:0:
484,244,176303,1,0,0:0:0:0:
188,129,176446,1,10,0:0:0:0:
426,5,176588,5,2,1:2:0:0:
428,22,176660,1,0,1:0:0:0:
431,38,176731,6,0,B|300:54|373:127|232:148,1,229.390000700043,6|8,1:2|0:0,0:0:0:0:
238,146,177160,1,0,0:0:0:0:
395,283,177303,2,0,P|408:227|423:171,1,114.695000350021,0|0,1:0|0:0,0:0:0:0:
512,89,177589,1,8,0:0:0:0:
512,89,177732,1,2,1:2:0:0:
288,245,177874,6,0,B|253:273|247:323|247:323|222:276|176:268,1,172.042500525032,6|0,1:2|0:0,0:0:0:0:
102,330,178160,2,0,B|85:293|111:266|111:266|111:302|136:324,1,114.695000350021,10|0,0:0|0:0,0:0:0:0:
360,368,178446,2,0,P|414:351|469:335,1,114.695000350021,0|0,1:0|0:0,0:0:0:0:
512,259,178732,1,10,0:0:0:0:
512,259,178875,1,2,1:2:0:0:
350,142,179017,5,6,1:2:0:0:
394,260,179160,1,0,0:0:0:0:
468,108,179303,1,10,0:0:0:0:
468,108,179446,1,0,0:0:0:0:
248,211,179589,5,0,1:0:0:0:
290,34,179732,1,0,0:0:0:0:
83,228,179875,5,10,0:0:0:0:
208,108,180017,1,8,0:0:0:0:
191,105,180088,1,8,0:0:0:0:
174,101,180160,5,10,0:0:0:0:
383,257,180303,1,8,3:0:0:0:
214,384,180446,6,0,P|197:328|180:274,1,114.695000350021,2|0,1:2|0:0,0:0:0:0:
0,126,180731,2,0,P|55:139|111:151,1,114.695000350021,2|0,1:2|0:0,0:0:0:0:
342,104,181017,2,0,P|302:145|263:187,1,114.695000350021,2|0,1:2|0:0,0:0:0:0:
432,383,181303,6,0,B|354:336|396:273|396:273|424:261|433:229,1,172.042500525032,6|0,1:2|0:0,0:0:0:0:
511,156,181588,2,0,B|490:175|485:208|485:208|466:181|433:174,1,114.695000350021,10|0,0:0|0:0,0:0:0:0:
209,303,181874,2,0,B|227:263|278:264|278:264|310:209|240:173,1,172.042500525032,2|0,1:2|0:0,0:0:0:0:
174,105,182160,2,0,B|192:129|191:160|191:160|207:132|235:118,1,114.695000350021,10|0,0:0|0:0,0:0:0:0:
405,19,182446,5,2,1:2:0:0:
362,193,182589,1,0,0:0:0:0:
274,36,182732,5,10,0:0:0:0:
323,296,182875,1,0,0:0:0:0:
477,127,183017,5,2,1:2:0:0:
282,384,183160,1,0,0:0:0:0:
58,185,183303,6,0,B|73:133|73:133|80:126|80:126|93:77,1,114.695000350021,10|0,0:0|0:0,0:0:0:0:
244,275,183588,6,0,P|163:269|130:343,1,172.042500525032,6|0,1:2|0:0,0:0:0:0:
132,360,183874,1,8,0:0:0:0:
183,173,184017,1,0,0:0:0:0:
324,313,184160,1,0,1:0:0:0:
270,91,184303,1,0,0:0:0:0:
410,280,184446,2,0,B|471:295|471:295|510:232,1,114.695000350021,10|0,0:0|0:0,0:0:0:0:
351,22,184731,6,0,P|269:50|186:71,1,172.042500525032,2|0,1:2|0:0,0:0:0:0:
169,77,185018,1,8,0:0:0:0:
270,174,185161,1,2,0:0:0:0:
58,15,185303,2,0,P|45:70|33:126,1,114.695000350021,2|0,1:2|0:0,0:0:0:0:
177,384,185589,5,10,0:0:0:0:
424,191,185732,1,10,0:0:0:0:
177,384,185874,6,0,B|147:291|244:320|197:208,1,172.042500525032,6|0,1:2|0:0,0:0:0:0:
160,134,186160,2,0,B|129:156|136:189|136:189|150:165|179:152,1,114.695000350021,10|0,0:0|0:0,0:0:0:0:
446,60,186446,2,0,P|368:36|321:102,1,172.042500525032,2|0,1:2|0:0,0:0:0:0:
276,193,186731,2,0,B|248:169|257:131|257:131|267:158|288:169,1,114.695000350021,10|0,0:0|0:0,0:0:0:0:
455,349,187018,6,0,B|400:337|400:337|390:329|390:329|331:315,1,114.695000350021,6|0,1:2|0:0,0:0:0:0:
77,225,187303,2,0,B|157:250|174:174|174:174|154:152|162:122,1,172.042500525032,10|0,0:0|0:0,0:0:0:0:
164,115,187589,1,2,1:2:0:0:
18,11,187732,1,0,0:0:0:0:
71,138,187875,1,10,0:0:0:0:
176,16,188018,1,0,0:0:0:0:
345,224,188160,6,0,B|239:260|183:167|279:101|312:167,1,229.390000700043,6|8,1:2|0:0,0:0:0:0:
307,159,188589,1,0,0:0:0:0:
470,289,188731,2,0,P|415:281|376:321,1,114.695000350021,2|0,1:2|0:0,0:0:0:0:
126,369,189017,2,0,P|180:376|219:336,1,114.695000350021,10|0,0:0|0:0,0:0:0:0:
33,82,189303,5,6,0:0:0:0:
42,258,189446,1,0,1:0:0:0:
170,40,189589,5,6,0:0:0:0:
151,294,189732,1,0,1:0:0:0:
305,19,189875,5,6,0:0:0:0:
254,338,190017,1,0,1:0:0:0:
499,193,190160,5,4,0:0:0:0:
174,28,190303,1,0,1:0:0:0:
183,14,190374,1,0,1:0:0:0:
197,4,190446,6,0,P|211:66|235:182,1,172.042500525032,6|0,1:2|0:0,0:0:0:0:
239,190,190731,1,10,0:0:0:0:
392,48,190875,1,0,1:0:0:0:
506,314,191017,5,10,0:0:0:0:
321,112,191160,1,0,1:0:0:0:
219,360,191303,5,10,0:0:0:0:
461,114,191446,1,0,1:0:0:0:
339,377,191588,6,0,B|368:285|274:313|307:210,1,172.042500525032,6|0,1:2|0:0,0:0:0:0:
312,201,191875,1,10,0:0:0:0:
124,291,192017,1,0,1:0:0:0:
0,100,192160,5,10,0:0:0:0:
225,259,192303,1,0,1:0:0:0:
335,79,192446,5,10,0:0:0:0:
19,233,192589,1,0,1:0:0:0:
224,0,192731,6,0,B|198:42|171:74|171:74|207:102|250:147,1,172.042500525032,6|0,1:2|0:0,0:0:0:0:
252,139,193017,1,10,0:0:0:0:
419,38,193160,1,0,1:0:0:0:
357,269,193303,5,10,0:0:0:0:
426,16,193446,1,0,1:0:0:0:
512,238,193589,6,0,P|455:250|400:263,1,114.695000350021,10|0,0:0|1:0,0:0:0:0:
380,265,193803,1,0,1:0:0:0:
380,265,193874,1,6,1:2:0:0:
467,350,194017,1,0,0:0:0:0:
243,258,194160,5,10,0:0:0:0:
427,135,194303,1,0,1:0:0:0:
253,384,194446,5,8,0:0:0:0:
115,98,194589,1,0,1:0:0:0:
6,376,194732,5,10,0:0:0:0:
237,81,194875,1,10,0:0:0:0:
233,64,194946,1,8,0:0:0:0:
231,46,195017,6,0,P|126:34|98:135,2,229.390000700043,6|10|0,1:2|0:0|1:0,0:0:0:0:
345,197,195732,1,0,0:0:0:0:
494,35,195875,2,0,P|440:52|385:68,1,114.695000350021,10|0,0:0|0:0,0:0:0:0:
268,264,196160,6,0,P|226:228|235:174,1,114.695000350021,2|0,1:2|0:0,0:0:0:0:
407,275,196446,2,0,P|416:328|374:364,1,114.695000350021,10|0,0:0|0:0,0:0:0:0:
140,384,196731,6,0,P|120:300|98:217,1,172.042500525032,2|0,1:2|0:0,0:0:0:0:
100,144,197017,2,0,P|45:148|23:198,1,114.695000350021,10|0,0:0|0:0,0:0:0:0:
229,344,197303,5,6,1:2:0:0:
366,248,197446,1,2,0:0:0:0:
239,352,197588,5,10,0:0:0:0:
376,256,197731,1,2,0:0:0:0:
256,101,197874,5,2,1:2:0:0:
489,195,198017,1,2,0:0:0:0:
268,85,198160,5,10,0:0:0:0:
501,179,198303,1,2,0:0:0:0:
188,234,198446,5,10,0:0:0:0:
400,56,198588,1,0,1:0:0:0:
461,336,198731,1,0,1:0:0:0:
231,78,198874,5,8,0:0:0:0:
512,191,199017,1,0,1:0:0:0:
283,384,199160,1,0,1:0:0:0:
400,56,199303,6,0,P|394:84|389:112,1,57.3475001750107,10|0,0:0|0:0,0:0:0:0:
282,307,199446,2,0,P|276:278|271:250,1,57.3475001750107,0|0,1:0|0:0,0:0:0:0:
30,14,199588,5,6,1:2:0:0:
314,164,200732,5,6,1:2:0:0:
159,45,201731,5,0,1:0:0:0:
154,61,201803,1,0,1:0:0:0:
150,77,201874,1,10,0:0:0:0:
175,348,202446,5,10,0:0:0:0:
34,86,203017,5,10,0:0:0:0:
270,354,203588,5,2,1:2:0:0:
353,327,203731,1,2,1:2:0:0:
437,297,203874,1,2,1:2:0:0:
270,354,204017,5,10,0:0:0:0:
404,43,204160,1,6,1:2:0:0:
173,69,213303,6,0,B|192:132|207:171|207:171|154:189|92:227,1,215.180000328339,8|0,0:0|0:0,0:0:0:0:
88,119,214160,1,0,1:0:0:0:
211,309,214446,6,0,B|238:279|262:244|262:244|302:277|341:307,2,161.385000246254,8|0|0,0:0|1:0|1:0,0:0:0:0:
404,181,215588,6,0,B|339:166|298:160|298:160|309:105|307:32,1,215.180000328339,8|0,0:0|0:0,0:0:0:0:
403,83,216445,1,0,1:0:0:0:
468,251,216731,6,0,B|498:224|532:199|532:199|500:160|482:137,2,161.385000246254,8|0|0,0:0|1:0|1:0,0:0:0:0:
297,350,217874,6,0,B|209:333|209:333|190:293|190:293|91:271,1,215.180000328339,8|0,0:0|0:0,0:0:0:0:
110,275,218731,1,0,1:0:0:0:
0,104,219017,6,0,B|33:121|72:147|72:147|92:118|134:80,2,161.385000246254,8|0|0,0:0|1:0|1:0,0:0:0:0:
58,35,220160,5,6,1:2:0:0:
58,35,220446,1,0,1:0:0:0:
165,184,220731,1,8,0:0:0:0:
218,109,221017,1,0,1:0:0:0:
311,223,221303,6,0,L|320:177,3,26.8975000410423,6|0|0|0,1:2|1:0|1:0|1:0,0:0:0:0:
206,293,221588,2,0,L|197:247,3,26.8975000410423,6|0|0|0,1:2|1:0|1:0|1:0,0:0:0:0:
318,340,221874,5,8,3:0:0:0:
343,329,221945,1,8,3:0:0:0:
369,320,222016,1,8,3:0:0:0:
395,313,222088,1,8,3:0:0:0:
421,306,222160,2,0,L|446:313,1,26.8975000410423,8|8,0:0|3:0,0:0:0:0:
502,234,222303,2,0,L|476:241,1,26.8975000410423,8|8,0:0|3:0,0:0:0:0:
218,109,222446,5,6,1:2:0:0:
136,347,222588,1,2,0:0:0:0:
21,174,222731,1,10,0:0:0:0:
226,238,222874,1,2,0:0:0:0:
84,42,223017,5,2,1:2:0:0:
122,221,223160,1,2,0:0:0:0:
278,29,223303,1,10,0:0:0:0:
307,153,223446,1,2,0:0:0:0:
505,237,223588,5,2,1:2:0:0:
442,119,223731,1,2,0:0:0:0:
319,308,223874,1,10,0:0:0:0:
437,325,224017,1,2,0:0:0:0:
228,105,224160,5,2,1:2:0:0:
397,218,224303,1,2,0:0:0:0:
213,374,224446,2,0,B|176:326|176:326|208:271,1,114.695000350021,10|2,0:0|0:0,0:0:0:0:
87,30,224731,6,0,B|108:66|137:100|137:100|101:127|56:168,1,172.042500525032,6|0,1:2|0:0,0:0:0:0:
0,168,225017,2,0,B|51:187|51:187|57:198|57:198|110:217,1,114.695000350021,10|2,0:0|0:0,0:0:0:0:
359,332,225303,5,2,1:2:0:0:
364,362,225446,1,2,0:0:0:0:
267,157,225588,1,10,0:0:0:0:
491,282,225731,1,2,0:0:0:0:
195,384,225874,6,0,B|152:320|218:280|218:280|252:281|266:255,1,172.042500525032,2|0,1:2|0:0,0:0:0:0:
354,255,226160,2,0,B|353:214|318:210|318:210|339:238|336:274,1,114.695000350021,10|0,0:0|0:0,0:0:0:0:
468,181,226446,2,0,B|440:153|400:161|400:161|375:107|420:74,1,172.042500525032,2|0,1:2|0:0,0:0:0:0:
483,0,226731,2,0,B|509:30|492:64|492:64|487:34|458:12,1,114.695000350021,10|0,0:0|0:0,0:0:0:0:
207,203,227017,5,6,1:2:0:0:
134,8,227160,1,2,0:0:0:0:
0,178,227303,1,10,0:0:0:0:
125,124,227446,1,2,0:0:0:0:
256,317,227588,5,2,1:2:0:0:
65,364,227731,1,2,0:0:0:0:
207,203,227874,2,0,P|260:222|315:240,1,114.695000350021,10|2,0:0|0:0,0:0:0:0:
455,371,228160,5,6,1:2:0:0:
420,130,228303,1,2,0:0:0:0:
256,317,228446,1,10,0:0:0:0:
377,301,228588,1,2,0:0:0:0:
213,95,228731,5,2,1:2:0:0:
101,267,228874,1,2,0:0:0:0:
82,127,229017,1,10,0:0:0:0:
212,215,229160,1,2,0:0:0:0:
452,20,229303,6,0,P|371:5|324:71,1,172.042500525032,6|0,1:2|0:0,0:0:0:0:
328,87,229588,2,0,P|351:140|367:195,1,114.695000350021,8|0,0:0|0:0,0:0:0:0:
230,360,229874,2,0,B|179:370|142:383|142:383|122:347|87:293,1,172.042500525032,2|0,1:2|0:0,0:0:0:0:
96,293,230160,2,0,P|114:238|130:183,1,114.695000350021,8|0,0:0|0:0,0:0:0:0:
352,306,230446,6,0,P|404:323|451:292,1,114.695000350021,6|0,1:2|0:0,0:0:0:0:
251,127,230731,5,8,0:0:0:0:
251,127,230874,1,0,0:0:0:0:
210,260,231017,5,2,1:2:0:0:
210,260,231160,1,0,0:0:0:0:
19,99,231303,6,0,P|65:68|118:85,1,114.695000350021,8|0,0:0|0:0,0:0:0:0:
355,193,231588,5,6,1:2:0:0:
369,175,231684,2,0,P|375:137|380:99,1,76.4633335666809,2|2,0:0|0:0,0:0:0:0:
210,260,231874,5,10,0:0:0:0:
196,242,231970,2,0,P|189:204|184:166,1,76.4633335666809,2|2,0:0|0:0,0:0:0:0:
427,342,232160,5,10,0:0:0:0:
441,324,232256,2,0,P|447:286|452:248,1,76.4633335666809,2|2,0:0|0:0,0:0:0:0:
136,384,232446,5,10,0:0:0:0:
122,366,232542,2,0,P|115:328|110:290,1,76.4633335666809,2|2,0:0|0:0,0:0:0:0:
274,147,232731,5,10,0:0:0:0:
330,308,232874,1,0,1:0:0:0:
357,99,233017,5,10,0:0:0:0:
237,338,233160,1,0,1:0:0:0:
225,67,233303,5,10,0:0:0:0:
401,360,233446,1,0,1:0:0:0:
418,24,233588,5,10,0:0:0:0:
150,368,233731,1,0,1:0:0:0:
52,109,233874,5,10,0:0:0:0:
269,231,234017,1,0,1:0:0:0:
52,109,234160,1,10,0:0:0:0:
269,231,234303,1,0,1:0:0:0:
114,251,234446,5,10,0:0:0:0:
370,122,234588,1,0,1:0:0:0:
114,251,234731,1,10,0:0:0:0:
370,122,234873,1,0,1:0:0:0:
196,55,235017,5,10,0:0:0:0:
454,265,235160,1,0,1:0:0:0:
196,55,235303,1,10,0:0:0:0:
454,265,235446,1,0,1:0:0:0:
206,304,235588,5,10,0:0:0:0:
470,26,235731,1,0,1:0:0:0:
206,304,235874,1,10,0:0:0:0:
470,26,236017,1,10,0:0:0:0:
454,19,236088,1,8,0:0:0:0:
437,13,236160,6,0,B|383:103|492:85|425:199,1,172.042500525032,6|0,1:2|0:0,0:0:0:0:
421,195,236446,2,0,P|365:209|309:223,1,114.695000350021,8|0,0:0|0:0,0:0:0:0:
88,68,236731,1,2,1:2:0:0:
138,215,236874,1,0,0:0:0:0:
197,118,237017,1,10,0:0:0:0:
39,273,237160,1,0,0:0:0:0:
263,375,237303,6,0,P|345:349|428:328,1,172.042500525032,6|0,1:2|0:0,0:0:0:0:
465,263,237588,2,0,P|510:293|502:347,1,114.695000350021,10|0,0:0|0:0,0:0:0:0:
305,209,237874,2,0,B|321:167|340:128|340:128|294:103|248:74,1,172.042500525032,2|0,1:2|0:0,0:0:0:0:
253,68,238160,2,0,P|203:94|150:117,1,114.695000350021,10|0,0:0|0:0,0:0:0:0:
20,354,238446,5,2,1:2:0:0:
20,354,238588,1,0,0:0:0:0:
111,194,238731,5,10,0:0:0:0:
111,194,238873,1,0,0:0:0:0:
279,374,239017,5,2,1:2:0:0:
279,374,239159,1,0,0:0:0:0:
338,117,239303,5,10,0:0:0:0:
338,117,239445,1,0,0:0:0:0:
482,355,239588,5,10,0:0:0:0:
202,264,239731,1,0,1:0:0:0:
202,264,239874,1,2,1:2:0:0:
432,91,240017,5,8,0:0:0:0:
106,204,240160,1,2,1:2:0:0:
106,204,240303,1,0,1:0:0:0:
320,7,240446,6,0,B|360:53|360:53|319:99,1,114.695000350021,10|0,0:0|0:0,0:0:0:0:
0,198,240731,6,0,B|47:178|76:219|76:219|80:236|80:236|103:272|155:267,1,172.042500525032,6|0,1:2|0:0,0:0:0:0:
220,310,241017,2,0,B|233:280|211:252|211:252|213:284|198:311,1,114.695000350021,10|0,0:0|0:0,0:0:0:0:
359,104,241303,2,0,B|383:100|408:78|408:78|464:141|408:188,1,172.042500525032,2|0,1:2|0:0,0:0:0:0:
362,258,241588,2,0,B|333:243|344:203|344:203|357:233|387:258,1,114.695000350021,10|0,0:0|0:0,0:0:0:0:
216,64,241874,5,2,1:2:0:0:
103,198,242017,1,0,0:0:0:0:
360,276,242160,5,10,0:0:0:0:
297,17,242303,1,0,0:0:0:0:
53,263,242446,5,2,1:2:0:0:
374,362,242589,1,0,0:0:0:0:
216,64,242731,6,0,P|229:119|240:176,1,114.695000350021,10|0,0:0|0:0,0:0:0:0:
6,339,243017,6,0,B|33:296|52:262|52:262|89:283|136:302,1,172.042500525032,6|0,1:2|0:0,0:0:0:0:
144,305,243303,1,8,0:0:0:0:
374,362,243446,1,0,0:0:0:0:
305,143,243588,1,0,1:0:0:0:
249,383,243731,1,0,0:0:0:0:
467,216,243874,2,0,P|451:160|436:105,1,114.695000350021,10|0,0:0|0:0,0:0:0:0:
168,38,244160,6,0,B|167:24|141:7|141:7|226:-11|233:88,1,172.042500525032,2|0,1:2|0:0,0:0:0:0:
236,89,244446,1,8,0:0:0:0:
350,38,244589,1,2,0:0:0:0:
139,194,244731,2,0,P|124:138|108:83,1,114.695000350021,2|2,1:2|0:0,0:0:0:0:
250,373,245017,5,10,0:0:0:0:
319,110,245160,1,10,0:0:0:0:
250,373,245303,6,0,B|357:354|283:299|417:278,1,172.042500525032,6|0,1:2|0:0,0:0:0:0:
496,216,245588,2,0,B|469:236|461:267|461:267|451:236|420:216,1,114.695000350021,10|0,0:0|0:0,0:0:0:0:
193,129,245874,2,0,B|147:73|184:6|272:34|240:98,1,172.042500525032,2|0,1:2|0:0,0:0:0:0:
315,178,246160,2,0,B|299:156|264:152|264:152|291:144|312:112,1,114.695000350021,10|0,0:0|0:0,0:0:0:0:
74,281,246446,6,0,B|126:268|126:268|136:260|136:260|195:246,1,114.695000350021,6|0,1:2|0:0,0:0:0:0:
407,384,246731,2,0,P|462:325|421:256,1,172.042500525032,10|0,0:0|0:0,0:0:0:0:
405,249,247017,5,2,1:2:0:0:
243,183,247160,1,0,0:0:0:0:
388,88,247303,5,10,0:0:0:0:
286,304,247446,1,0,0:0:0:0:
154,72,247588,6,0,B|120:28|49:21|14:87|33:130|33:130|53:142|60:161,1,229.390000700043,6|8,1:2|0:0,0:0:0:0:
56,153,248017,1,0,0:0:0:0:
150,332,248160,2,0,P|94:344|38:356,1,114.695000350021,2|0,1:2|0:0,0:0:0:0:
243,183,248446,2,0,P|299:195|355:206,1,114.695000350021,10|0,0:0|0:0,0:0:0:0:
459,372,248731,5,6,1:2:0:0:
270,290,248874,1,0,0:0:0:0:
473,142,249017,2,0,P|492:64|423:23,1,172.042500525032,10|0,0:0|0:0,0:0:0:0:
394,10,249303,2,0,P|380:65|370:122,1,114.695000350021,2|0,1:2|0:0,0:0:0:0:
166,207,249588,2,0,P|155:150|142:94,1,114.695000350021,8|0,0:0|0:0,0:0:0:0:
360,308,249874,6,0,B|319:283|309:246|309:246|304:296|272:340,1,172.042500525032,6|0,1:2|0:0,0:0:0:0:
207,373,250160,2,0,B|189:349|209:318|209:318|205:344|223:375,1,114.695000350021,10|0,0:0|0:0,0:0:0:0:
407,208,250446,5,2,1:2:0:0:
155,97,250589,1,0,0:0:0:0:
362,111,250731,5,10,0:0:0:0:
195,207,250874,1,0,0:0:0:0:
366,0,251017,6,0,P|353:55|341:111,1,114.695000350021,6|0,1:2|0:0,0:0:0:0:
104,283,251303,2,0,B|77:255|41:253|41:253|15:193|78:162,1,172.042500525032,10|0,0:0|0:0,0:0:0:0:
83,157,251589,5,2,1:2:0:0:
213,14,251731,1,0,0:0:0:0:
183,113,251874,5,10,0:0:0:0:
63,8,252017,1,0,0:0:0:0:
271,171,252160,6,0,P|326:156|381:141,1,114.695000350021,6|0,1:2|0:0,0:0:0:0:
214,313,252446,2,0,P|159:298|104:283,1,114.695000350021,10|0,0:0|0:0,0:0:0:0:
362,384,252731,2,0,B|472:361|393:303|524:283,1,172.042500525032,2|0,1:2|0:0,0:0:0:0:
512,293,253017,2,0,P|458:306|422:266,1,114.695000350021,10|0,0:0|0:0,0:0:0:0:
273,31,253303,5,6,1:2:0:0:
194,220,253446,1,0,0:0:0:0:
286,10,253588,2,0,P|299:65|311:121,1,114.695000350021,10|0,0:0|0:0,0:0:0:0:
289,350,253874,5,6,1:2:0:0:
41,246,254017,1,0,0:0:0:0:
300,352,254160,1,10,0:0:0:0:
110,162,254303,5,2,1:2:0:0:
115,145,254374,1,0,1:0:0:0:
120,128,254446,6,0,B|181:96|220:157|220:157|221:178|221:178|242:227|309:215,1,229.390000700043,6|8,1:2|0:0,0:0:0:0:
295,216,254874,1,0,0:0:0:0:
473,47,255017,2,0,P|420:67|364:81,1,114.695000350021,0|0,1:0|0:0,0:0:0:0:
231,134,255303,1,8,0:0:0:0:
231,134,255446,1,2,1:2:0:0:
417,324,255588,6,0,B|439:287|467:253|467:253|434:229|398:193,1,172.042500525032,6|0,1:2|0:0,0:0:0:0:
309,195,255874,2,0,B|307:160|345:150|345:150|325:174|328:208,1,114.695000350021,10|0,0:0|0:0,0:0:0:0:
256,345,256160,2,0,P|200:330|144:317,1,114.695000350021,0|0,1:0|0:0,0:0:0:0:
6,363,256446,1,10,0:0:0:0:
6,363,256589,1,2,1:2:0:0:
88,142,256731,5,6,1:2:0:0:
206,237,256874,1,0,0:0:0:0:
188,57,257017,5,10,0:0:0:0:
188,57,257160,1,0,0:0:0:0:
329,247,257303,5,0,1:0:0:0:
353,21,257446,1,0,0:0:0:0:
463,289,257588,5,10,0:0:0:0:
276,113,257731,1,0,1:0:0:0:
279,96,257803,1,0,1:0:0:0:
282,80,257874,5,10,0:0:0:0:
195,368,258017,1,0,1:0:0:0:
0,137,258160,1,2,1:2:0:0:
329,247,258303,5,8,0:0:0:0:
50,306,258446,1,2,1:2:0:0:
133,52,258589,1,0,1:0:0:0:
314,360,258731,6,0,B|323:305|323:305|329:297|329:297|336:248,1,114.695000350021,10|0,0:0|1:0,0:0:0:0:
509,12,259017,6,0,B|437:34|437:34|427:69|427:69|353:93,1,172.042500525032,6|0,1:2|0:0,0:0:0:0:
351,97,259303,5,10,0:0:0:0:
186,271,259446,1,0,1:0:0:0:
198,104,259588,5,10,0:0:0:0:
415,301,259731,1,0,1:0:0:0:
118,378,259874,6,0,P|62:362|7:348,1,114.695000350021,10|0,0:0|1:0,0:0:0:0:
288,197,260160,5,6,1:2:0:0:
56,77,260303,1,0,1:0:0:0:
307,193,260446,5,10,0:0:0:0:
0,268,260588,1,0,1:0:0:0:
188,0,260731,6,0,P|198:56|208:112,1,114.695000350021,10|0,0:0|1:0,0:0:0:0:
482,278,261017,2,0,P|471:221|461:165,1,114.695000350021,10|0,0:0|1:0,0:0:0:0:
157,231,261303,5,6,1:2:0:0:
375,354,261446,1,0,1:0:0:0:
115,308,261588,5,8,0:0:0:0:
350,89,261731,1,0,1:0:0:0:
188,357,261874,5,8,0:0:0:0:
88,29,262017,1,0,1:0:0:0:
6,344,262160,6,0,P|60:326|115:309,1,114.695000350021,10|0,0:0|1:0,0:0:0:0:
391,150,262446,6,0,P|336:133|281:114,1,114.695000350021,10|0,0:0|1:0,0:0:0:0:
268,111,262660,1,0,1:0:0:0:
268,111,262731,1,8,0:0:0:0:
33,0,262874,5,0,1:0:0:0:
67,3,262946,1,0,1:0:0:0:
88,29,263017,2,0,P|95:56|101:84,1,57.3475001750107,4|0,1:2|0:0,0:0:0:0:
193,353,263160,5,0,1:0:0:0:
225,343,263231,1,0,1:0:0:0:
243,313,263303,2,0,P|249:285|256:257,1,57.3475001750107,6|0,1:2|0:0,0:0:0:0:
363,4,263446,5,2,1:2:0:0:
512,267,263588,6,0,B|484:246|450:246|450:246|424:178|498:157,1,172.042500525032,6|0,1:2|0:0,0:0:0:0:
509,153,263874,5,10,0:0:0:0:
456,342,264017,1,0,1:0:0:0:
271,82,264160,5,10,0:0:0:0:
348,369,264303,1,0,1:0:0:0:
135,99,264446,6,0,P|79:83|25:65,1,114.695000350021,10|0,0:0|1:0,0:0:0:0:
178,347,264731,6,0,B|215:309|219:259|219:259|222:301|256:333,1,172.042500525032,6|0,1:2|0:0,0:0:0:0:
272,342,265017,5,10,0:0:0:0:
88,247,265160,1,0,1:0:0:0:
19,304,265303,5,10,0:0:0:0:
246,146,265446,1,0,1:0:0:0:
320,199,265588,5,10,0:0:0:0:
51,8,265731,1,0,1:0:0:0:
168,289,265874,5,6,1:2:0:0:
343,65,266017,1,0,1:0:0:0:
155,307,266160,5,8,0:0:0:0:
354,50,266303,1,0,1:0:0:0:
487,313,266446,6,0,P|432:293|377:280,1,114.695000350021,10|0,0:0|1:0,0:0:0:0:
40,140,266731,2,0,P|95:126|149:107,1,114.695000350021,10|0,0:0|1:0,0:0:0:0:
440,0,267017,5,10,0:0:0:0:
465,50,267088,1,8,0:0:0:0:
453,105,267159,1,8,0:0:0:0:
410,140,267231,1,8,0:0:0:0:
353,141,267303,1,8,3:0:0:0:
301,121,267374,1,8,3:0:0:0:
249,142,267445,1,8,3:0:0:0:
225,192,267517,1,8,3:0:0:0:
243,246,267589,5,0,1:0:0:0:
282,244,267660,1,0,1:0:0:0:
312,270,267731,1,0,1:0:0:0:
316,309,267803,1,0,1:0:0:0:
294,341,267874,5,0,1:0:0:0:
265,335,267946,1,0,1:0:0:0:
236,329,268017,1,0,1:0:0:0:
208,320,268088,1,0,1:0:0:0:
180,311,268160,6,0,B|144:310|112:335|112:335|56:294|92:233,1,172.042500525032,6|0,1:2|0:0,0:0:0:0:
94,229,268446,1,10,0:0:0:0:
186,60,268589,1,0,1:0:0:0:
265,335,268731,5,10,0:0:0:0:
278,47,268874,1,0,1:0:0:0:
446,350,269017,5,10,0:0:0:0:
363,19,269160,1,0,1:0:0:0:
88,121,269303,6,0,B|157:144|157:144|167:179|167:179|241:203,1,172.042500525032,6|0,1:2|0:0,0:0:0:0:
244,201,269589,1,10,0:0:0:0:
73,309,269731,1,0,1:0:0:0:
179,134,269874,5,10,0:0:0:0:
337,384,270017,1,0,1:0:0:0:
512,98,270160,5,10,0:0:0:0:
220,323,270303,1,0,1:0:0:0:
361,0,270446,6,0,B|399:101|301:68|332:175,1,172.042500525032,6|0,1:2|0:0,0:0:0:0:
334,177,270731,1,10,0:0:0:0:
232,10,270874,1,0,1:0:0:0:
64,295,271017,5,10,0:0:0:0:
129,79,271160,1,0,1:0:0:0:
328,340,271303,6,0,P|383:355|438:371,1,114.695000350021,10|0,0:0|1:0,0:0:0:0:
439,372,271517,1,0,1:0:0:0:
439,372,271589,1,6,1:2:0:0:
218,223,271731,1,0,1:0:0:0:
428,120,271874,5,8,0:0:0:0:
243,380,272017,1,0,1:0:0:0:
138,90,272160,5,8,0:0:0:0:
82,82,272231,1,8,0:0:0:0:
36,114,272302,1,8,0:0:0:0:
24,169,272374,1,8,0:0:0:0:
53,217,272445,1,2,1:2:0:0:
94,238,272517,1,0,1:2:0:0:
112,267,272588,1,2,1:2:0:0:
110,295,272660,1,0,1:2:0:0:
100,308,272731,6,0,B|38:195|169:203|100:77,2,229.390000700043,6|8|0,1:2|0:0|1:0,0:0:0:0:
267,384,273446,1,0,0:0:0:0:
389,194,273589,2,0,P|335:211|280:227,1,114.695000350021,10|0,0:0|0:0,0:0:0:0:
431,384,273874,6,0,B|386:341|386:341|412:295,1,114.695000350021,2|0,1:2|0:0,0:0:0:0:
493,43,274160,2,0,B|538:86|538:86|511:131,1,114.695000350021,10|0,0:0|0:0,0:0:0:0:
239,135,274446,2,0,B|268:98|292:62|292:62|328:86|370:105,1,172.042500525032,2|0,1:2|0:0,0:0:0:0:
389,116,274731,2,0,P|375:171|363:227,1,114.695000350021,10|0,0:0|0:0,0:0:0:0:
156,362,275017,5,6,1:2:0:0:
130,222,275160,1,2,0:0:0:0:
165,348,275303,5,10,0:0:0:0:
139,208,275446,1,2,0:0:0:0:
369,308,275588,5,2,1:2:0:0:
405,93,275731,1,2,0:0:0:0:
354,294,275874,5,10,0:0:0:0:
390,79,276017,1,2,0:0:0:0:
123,234,276160,5,10,0:0:0:0:
389,384,276303,1,0,1:0:0:0:
420,109,276446,1,0,1:0:0:0:
214,384,276588,5,8,0:0:0:0:
494,247,276731,1,0,1:0:0:0:
230,69,276874,1,0,1:0:0:0:
114,377,277017,6,0,P|110:348|105:320,1,57.3475001750107,10|0,0:0|0:0,0:0:0:0:
326,99,277160,2,0,P|321:127|317:155,1,57.3475001750107,0|0,1:0|0:0,0:0:0:0:
492,368,277303,5,6,1:2:0:0:
259,208,278446,5,6,1:2:0:0:
17,16,279446,5,0,1:0:0:0:
20,32,279517,1,0,1:0:0:0:
23,48,279588,1,6,1:2:0:0:
259,208,280731,5,6,1:2:0:0:
106,60,281731,5,0,1:0:0:0:
101,76,281803,1,0,1:0:0:0:
97,92,281874,6,0,P|122:182|144:274,1,188.790005905449,6|0,1:2|0:0,0:0:0:0:
144,274,282303,1,0,1:0:0:0:
266,375,282446,2,0,P|310:357|354:343,1,94.3950029527245,8|0,0:0|0:0,0:0:0:0:
450,277,282731,2,0,P|405:262|361:245,1,94.3950029527245,2|0,1:2|0:0,0:0:0:0:
241,108,283017,6,0,B|181:45|239:-36|322:24|288:62,1,188.790005905449,6|0,1:2|0:0,0:0:0:0:
292,55,283446,1,0,1:0:0:0:
178,157,283588,5,10,0:0:0:0:
383,54,283731,1,8,0:0:0:0:
416,137,283874,1,10,3:0:0:0:
343,189,284017,1,8,3:0:0:0:
119,90,284160,5,10,0:0:0:0:
197,310,284303,1,0,1:0:0:0:
119,90,284446,1,0,1:0:0:0:
64,384,284588,5,8,0:0:0:0:
220,153,284731,1,0,1:0:0:0:
64,384,284874,1,0,1:0:0:0:
12,118,285017,5,8,0:0:0:0:
216,329,285160,1,0,1:0:0:0:
254,42,285303,1,0,1:0:0:0:
39,283,285446,5,8,0:0:0:0:
371,199,285588,1,0,1:0:0:0:
113,0,285731,1,0,1:0:0:0:
221,352,285874,6,0,P|234:296|247:240,1,114.695000350021,8|0,0:0|1:0,0:0:0:0:
486,0,286160,2,0,P|498:55|512:111,1,114.695000350021,8|0,0:0|1:0,0:0:0:0:
155,191,286446,6,0,P|208:120|293:145,1,188.790005905449,6|2,1:2|1:2,0:0:0:0:
293,145,286874,1,0,1:0:0:0:
458,286,287017,2,0,B|430:258|412:228|412:228|378:248|344:260,1,141.592504429087,10|0,0:0|0:0,0:0:0:0:
334,270,287303,2,0,P|349:315|362:360,1,94.3950029527245,2|0,1:2|1:0,0:0:0:0:
241,249,287589,5,2,1:2:0:0:
171,363,287732,2,0,P|125:352|79:340,1,94.3950029527245,8|2,0:0|1:2,0:0:0:0:
79,340,288018,1,2,1:2:0:0:
132,144,288161,2,0,P|145:189|157:235,1,94.3950029527245,10|0,0:0|1:0,0:0:0:0:
0,334,288446,2,0,P|12:289|24:243,1,94.3950029527245,2|0,1:2|1:0,0:0:0:0:
94,56,288731,5,2,1:2:0:0:
134,39,288826,1,2,0:0:0:0:
176,52,288922,1,2,0:0:0:0:
198,87,289017,2,0,P|228:123|273:134,1,94.3950029527245,2|2,1:2|1:2,0:0:0:0:
482,27,289303,6,0,P|414:19|372:72,1,141.592504429087,10|0,0:0|0:0,0:0:0:0:
394,146,289588,5,2,1:2:0:0:
421,180,289684,1,2,0:0:0:0:
425,223,289779,1,2,0:0:0:0:
398,257,289874,5,2,1:2:0:0:
244,333,290017,2,0,P|287:352|330:372,1,94.3950029527245,8|2,0:0|1:2,0:0:0:0:
330,372,290303,1,2,1:2:0:0:
148,198,290446,5,10,0:0:0:0:
87,314,290589,1,8,0:0:0:0:
157,377,290732,5,2,1:2:0:0:
67,152,290875,1,8,0:0:0:0:
282,72,291017,6,0,P|259:138|236:206,1,141.592504429087,6|0,1:2|0:0,0:0:0:0:
225,242,291303,2,0,P|185:219|179:174,1,94.3950029527245,2|0,1:2|1:0,0:0:0:0:
405,114,291588,5,10,0:0:0:0:
432,79,291684,1,2,0:0:0:0:
425,35,291779,1,2,0:0:0:0:
390,8,291874,2,0,P|345:24|300:39,1,94.3950029527245,2|0,1:2|1:0,0:0:0:0:
179,174,292161,5,10,0:0:0:0:
20,70,292303,1,8,0:0:0:0:
174,0,292446,2,0,P|161:45|150:91,1,94.3950029527245,2|0,1:2|1:0,0:0:0:0:
0,278,292731,2,0,P|49:230|115:243,1,141.592504429087,2|0,1:2|0:0,0:0:0:0:
134,264,293018,2,0,P|174:289|221:293,1,94.3950029527245,2|0,1:2|1:0,0:0:0:0:
448,123,293303,5,6,1:2:0:0:
229,361,294446,5,6,1:2:0:0:
48,44,295392,6,0,P|53:24|59:2,2,35.3981261072717,0|0|0,1:0|1:0|1:0,0:0:0:0:
26,131,295588,5,6,1:2:0:0:
256,192,295660,12,0,300160,0:0:0:0:
