osu file format v14

[General]
AudioFilename: audio.mp3
AudioLeadIn: 0
PreviewTime: 48883
Countdown: 0
SampleSet: None
StackLeniency: 0.7
Mode: 0
LetterboxInBreaks: 0
WidescreenStoryboard: 0

[Editor]
DistanceSpacing: 1.5
BeatDivisor: 4
GridSize: 4
TimelineZoom: 2.5

[Metadata]
Title:DANZAI NO SORITUDO
TitleUnicode:断罪のソリテュード
Artist:BUD VIRGIN LOGIC
ArtistUnicode:BUD VIRGIN LOGIC
Creator:-Light-
Version:Affection
Source:Show By Rock!! #
Tags:anime tv size opening op autism
BeatmapID:1567524
BeatmapSetID:743302

[Difficulty]
HPDrainRate:6
CircleSize:4.3
OverallDifficulty:9
ApproachRate:9.6
SliderMultiplier:2
SliderTickRate:1

[Events]
//Background and Video events
0,0,"Konachan.com - 261468 sample.jpg",0,0
//Break Periods
//Storyboard Layer 0 (Background)
//Storyboard Layer 1 (Fail)
//Storyboard Layer 2 (Pass)
//Storyboard Layer 3 (Foreground)
//Storyboard Sound Samples

[TimingPoints]
19241,285.714285714286,4,1,0,60,1,0
19241,-100,4,1,0,60,0,0
30669,-133.333333333333,4,1,0,60,0,0
39812,-166.666666666667,4,2,0,30,0,0
51241,-100,4,1,0,60,0,1
69526,-133.333333333333,4,1,0,60,0,0
76383,-100,4,1,0,60,0,0
78669,-133.333333333333,4,1,0,60,0,0
85526,-200,4,1,0,60,0,0

[Colours]
Combo1 : 47,165,215
Combo2 : 157,176,176
Combo3 : 244,97,89
Combo4 : 230,23,23
Combo5 : 236,236,70
Combo6 : 44,108,188

[HitObjects]
256,192,16669,12,0,19098,0:0:0:0:
330,358,19240,5,0,0:0:0:0:
127,264,19383,1,0,0:0:0:0:
378,170,19526,1,0,0:0:0:0:
378,170,19669,1,0,0:0:0:0:
219,321,19812,6,0,L|214:201,1,100
316,30,20098,1,0,0:0:0:0:
316,30,20240,2,0,L|311:129,1,100
428,262,20526,1,0,0:0:0:0:
428,262,20598,1,0,0:0:0:0:
428,262,20669,6,0,B|390:270|390:270|314:261,1,100
203,105,20955,1,0,0:0:0:0:
203,105,21098,1,0,0:0:0:0:
119,332,21240,6,0,L|237:318,1,100
377,158,21526,5,0,0:0:0:0:
242,13,21669,1,0,0:0:0:0:
282,239,21812,1,0,0:0:0:0:
429,89,21955,1,0,0:0:0:0:
429,89,22026,1,0,0:0:0:0:
429,89,22098,6,0,B|317:51|340:127|226:90,1,200
93,41,22526,1,0,0:0:0:0:
41,189,22669,2,0,P|87:161|178:254,1,200
269,372,23098,1,0,0:0:0:0:
378,282,23240,2,0,B|398:170|336:213|367:76,1,200
469,176,23669,1,0,0:0:0:0:
298,243,23812,5,0,0:0:0:0:
239,270,23907,1,0,0:0:0:0:
179,245,24002,1,0,0:0:0:0:
157,184,24098,2,0,L|162:83,1,100
366,183,24384,2,0,P|382:224|377:281,1,100
222,360,24669,2,0,L|112:351,1,100
35,180,24955,5,0,0:0:0:0:
247,125,25098,1,0,0:0:0:0:
25,182,25240,1,0,0:0:0:0:
163,21,25383,1,0,0:0:0:0:
121,263,25526,1,0,0:0:0:0:
51,58,25669,1,0,0:0:0:0:
209,215,25812,1,0,0:0:0:0:
256,7,25955,1,0,0:0:0:0:
451,159,26098,6,0,B|379:146|379:146|328:162|328:162|249:147,1,200
364,24,26526,1,0,0:0:0:0:
364,24,26669,2,0,P|460:16|503:114,1,200
396,234,27098,1,0,0:0:0:0:
271,303,27240,2,0,B|159:272|183:349|73:308,1,200
11,178,27669,1,0,0:0:0:0:
251,110,27812,6,0,L|244:224,1,100
37,44,28098,1,0,0:0:0:0:
63,18,28169,1,0,0:0:0:0:
99,6,28240,1,0,0:0:0:0:
135,12,28312,1,0,0:0:0:0:
166,34,28383,6,0,L|268:20,1,100
343,223,28669,2,0,L|241:209,1,100
419,46,28955,2,0,B|405:157|452:118|435:245,1,200
328,348,29383,1,0,0:0:0:0:
328,348,29455,1,0,0:0:0:0:
328,348,29526,5,0,0:0:0:0:
121,292,29669,1,0,0:0:0:0:
312,131,29812,1,0,0:0:0:0:
244,379,29955,1,0,0:0:0:0:
244,379,30026,1,0,0:0:0:0:
244,379,30098,5,0,0:0:0:0:
194,102,30241,1,0,0:0:0:0:
422,301,30383,1,0,0:0:0:0:
372,24,30526,1,0,0:0:0:0:
246,266,30669,5,0,0:0:0:0:
246,266,30741,1,0,0:0:0:0:
246,266,30812,2,0,L|253:178,1,75.0000028610231
89,96,31098,2,0,L|94:170,1,75.0000028610231
78,313,31383,2,0,P|116:306|160:326,1,75.0000028610231
274,371,31669,6,0,L|352:361,1,75.0000028610231
476,257,31955,1,0,0:0:0:0:
476,257,32026,1,0,0:0:0:0:
476,257,32098,1,0,0:0:0:0:
324,148,32241,1,0,0:0:0:0:
361,345,32383,1,0,0:0:0:0:
441,177,32526,1,0,0:0:0:0:
358,358,32669,1,0,0:0:0:0:
243,227,32812,2,0,L|239:146,1,75.0000028610231
332,39,33098,5,0,0:0:0:0:
223,10,33241,1,0,0:0:0:0:
122,59,33383,1,0,0:0:0:0:
12,33,33526,2,0,L|20:123,1,75.0000028610231
63,237,33812,1,0,0:0:0:0:
152,145,33955,6,0,B|237:128|217:180|324:150,1,150.000005722046
365,112,34312,1,0,0:0:0:0:
365,112,34383,1,0,0:0:0:0:
392,272,34526,1,0,0:0:0:0:
503,151,34669,2,0,L|498:238,1,75.0000028610231
383,359,34955,2,0,L|378:272,1,75.0000028610231
298,156,35241,6,0,P|257:145|212:154,1,75.0000028610231
69,198,35526,1,0,0:0:0:0:
69,198,35669,1,0,0:0:0:0:
31,91,35812,1,0,0:0:0:0:
120,23,35955,2,0,L|201:31,1,75.0000028610231
308,86,36241,6,0,P|293:114|299:160,1,75.0000028610231
351,265,36526,1,0,0:0:0:0:
351,265,36598,1,0,0:0:0:0:
351,265,36669,1,0,0:0:0:0:
212,221,36812,2,0,L|210:298,1,75.0000028610231
339,353,37098,1,0,0:0:0:0:
339,353,37241,2,0,L|340:278,1,75.0000028610231
443,160,37526,5,0,0:0:0:0:
443,160,37669,1,0,0:0:0:0:
388,27,37812,2,0,L|306:32,1,75.0000028610231
207,90,38098,1,0,0:0:0:0:
112,143,38241,2,0,P|102:111|113:55,1,75.0000028610231
314,32,38526,6,0,L|306:204,1,150.000005722046
248,233,38883,1,0,0:0:0:0:
248,233,38955,2,0,B|215:224|215:224|157:236,1,75.0000028610231
244,350,39241,5,0,0:0:0:0:
427,294,39383,1,0,0:0:0:0:
285,153,39526,1,0,0:0:0:0:
333,370,39669,1,0,0:0:0:0:
479,215,39812,6,0,B|353:181|379:282|242:231,1,239.999992675781
119,155,40669,2,0,L|125:72,1,59.9999981689454
185,47,40883,1,0,0:0:0:0:
185,47,40955,6,0,B|246:36|237:74|306:59,1,119.999996337891
443,51,41526,2,0,P|408:85|426:148,1,119.999996337891
469,265,42098,5,0,0:0:0:0:
350,248,42383,1,0,0:0:0:0:
253,379,42669,5,0,0:0:0:0:
371,362,42954,1,0,0:0:0:0:
260,169,43241,6,0,L|253:296,1,119.999996337891
384,158,43812,1,0,0:0:0:0:
384,158,43955,2,0,L|377:38,1,119.999996337891
257,28,44383,6,0,P|213:38|136:18,2,119.999996337891
85,119,45526,6,0,P|67:174|95:243,1,119.999996337891
251,364,46098,2,0,P|269:307|251:251,1,119.999996337891
218,160,46526,1,0,0:0:0:0:
218,160,46669,6,0,B|284:140|263:186|335:169,1,119.999996337891
256,192,47241,12,0,48955,0:0:0:0:
420,290,51241,5,0,0:0:0:0:
166,217,51383,1,0,0:0:0:0:
426,158,51526,5,0,2:0:0:0:
198,340,51669,1,0,2:0:0:0:
216,87,51812,5,0,0:0:0:0:
301,369,51955,1,0,0:0:0:0:
319,60,52098,5,0,0:0:0:0:
190,355,52241,1,0,0:0:0:0:
124,72,52383,6,0,L|235:67,1,100
353,271,52669,2,0,L|242:266,1,100
408,68,52955,2,0,B|422:102|422:102|413:170,1,100
182,320,53241,2,0,B|168:286|168:286|177:218,1,100
308,39,53526,6,0,B|324:158|263:110|283:240,1,200
454,370,53955,1,0,0:0:0:0:
454,370,54098,2,0,P|471:329|456:252,1,100
265,326,54383,2,0,L|369:314,1,100
491,130,54669,6,0,B|449:105|449:105|289:122,1,200
123,224,55098,1,0,0:0:0:0:
265,326,55241,2,0,P|281:273|274:213,1,100
112,74,55526,2,0,L|115:131,1,50
209,183,55669,2,0,L|211:133,1,50
263,32,55812,5,0,0:0:0:0:
178,291,55955,1,0,0:0:0:0:
268,20,56098,5,0,0:0:0:0:
353,348,56241,1,0,0:0:0:0:
430,61,56383,5,0,0:0:0:0:
114,123,56526,1,0,0:0:0:0:
468,219,56669,5,0,0:0:0:0:
173,21,56812,1,0,0:0:0:0:
380,174,56955,6,0,B|382:211|382:211|365:277,1,100
91,318,57241,2,0,B|89:281|89:281|106:215,1,100
279,382,57526,2,0,L|169:370,1,100
46,150,57812,2,0,L|156:138,1,100
471,73,58098,6,0,B|481:117|481:117|454:281,1,200
279,382,58526,1,0,0:0:0:0:
279,382,58669,2,0,L|262:284,1,100
394,120,58955,2,0,L|377:218,1,100
82,136,59241,5,0,0:0:0:0:
373,33,59383,1,0,0:0:0:0:
119,292,59526,5,0,0:0:0:0:
252,12,59669,1,0,0:0:0:0:
406,282,59812,5,0,0:0:0:0:
172,75,59955,1,0,0:0:0:0:
325,308,60098,1,0,0:0:0:0:
252,91,60241,1,0,0:0:0:0:
481,229,60383,5,0,0:0:0:0:
135,199,60526,1,0,0:0:0:0:
469,111,60669,5,0,0:0:0:0:
119,292,60812,1,0,0:0:0:0:
372,27,60955,5,0,0:0:0:0:
240,368,61098,1,0,0:0:0:0:
84,53,61241,6,0,L|190:47,1,100
356,220,61526,5,0,0:0:0:0:
45,148,61669,1,0,0:0:0:0:
294,18,61812,5,0,0:0:0:0:
250,358,61955,1,0,0:0:0:0:
69,39,62098,5,0,0:0:0:0:
113,379,62241,1,0,0:0:0:0:
360,116,62383,6,0,B|317:104|317:104|242:113,1,100
425,351,62669,5,0,0:0:0:0:
432,24,62812,1,0,0:0:0:0:
184,254,62955,5,0,0:0:0:0:
510,163,63098,1,0,0:0:0:0:
168,89,63241,5,0,0:0:0:0:
462,254,63384,1,0,0:0:0:0:
176,381,63526,5,0,0:0:0:0:
249,26,63669,1,0,0:0:0:0:
409,335,63812,5,0,0:0:0:0:
41,271,63955,1,0,0:0:0:0:
341,16,64098,5,0,0:0:0:0:
277,384,64241,1,0,0:0:0:0:
43,145,64383,5,0,0:0:0:0:
80,112,64454,1,0,0:0:0:0:
128,102,64525,1,0,0:0:0:0:
176,117,64597,1,0,0:0:0:0:
209,153,64668,1,0,0:0:0:0:
246,185,64741,1,0,0:0:0:0:
294,195,64812,1,0,0:0:0:0:
342,180,64884,1,0,0:0:0:0:
375,144,64955,6,0,L|368:249,1,100
129,306,65241,2,0,L|122:206,1,100
324,48,65526,1,0,0:0:0:0:
234,276,65669,1,0,0:0:0:0:
166,21,65812,1,0,0:0:0:0:
166,21,65955,1,0,0:0:0:0:
375,144,66098,6,0,B|343:147|343:147|258:129,1,100
503,89,66383,2,0,L|493:194,1,100
374,375,66669,2,0,L|364:275,1,100
276,132,66955,2,0,B|189:110|211:167|113:135,1,150
50,187,67241,6,0,P|62:232|48:284,1,100
251,313,67526,2,0,P|237:265|249:217,1,100
367,39,67812,2,0,B|294:27|294:27|239:46|239:46|159:38,1,200
19,110,68241,1,0,0:0:0:0:
145,365,68383,5,0,0:0:0:0:
302,119,68526,1,0,0:0:0:0:
309,111,68669,1,0,0:0:0:0:
50,187,68812,5,0,0:0:0:0:
345,276,68955,1,0,0:0:0:0:
353,281,69098,1,0,0:0:0:0:
171,39,69241,5,0,0:0:0:0:
246,353,69383,1,0,0:0:0:0:
249,361,69454,1,0,0:0:0:0:
252,368,69526,6,0,L|247:279,1,75.0000028610231
145,186,69812,2,0,B|177:193|177:193|238:186,1,75.0000028610231
244,41,70098,1,0,0:0:0:0:
244,41,70241,2,0,B|212:34|212:34|151:41,1,75.0000028610231
73,125,70526,1,0,0:0:0:0:
73,125,70669,6,0,P|54:158|52:204,1,75.0000028610231
117,351,70955,2,0,P|136:318|138:272,1,75.0000028610231
218,188,71241,2,0,B|277:180|277:180|322:196|322:196|384:188,1,150.000005722046
455,83,71669,1,0,0:0:0:0:
455,83,71741,1,0,0:0:0:0:
455,83,71812,6,0,P|423:91|368:83,1,75.0000028610231
259,21,72098,2,0,L|182:32,1,75.0000028610231
143,198,72383,1,0,0:0:0:0:
143,198,72526,2,0,L|220:187,1,75.0000028610231
367,190,72812,1,0,0:0:0:0:
367,190,72955,6,0,P|353:220|356:272,1,75.0000028610231
248,370,73241,2,0,P|248:332|233:298,1,75.0000028610231
143,198,73526,2,0,B|124:113|182:140|162:36,1,150.000005722046
55,125,73955,1,0,0:0:0:0:
55,125,74026,1,0,0:0:0:0:
55,125,74098,6,0,P|45:166|55:213,1,75.0000028610231
141,291,74383,2,0,L|219:281,1,75.0000028610231
287,159,74669,1,0,0:0:0:0:
340,76,74811,1,0,0:0:0:0:
438,82,74954,1,0,0:0:0:0:
481,171,75097,1,0,0:0:0:0:
424,251,75241,6,0,B|376:241|376:241|318:247|318:247|266:235,1,150.000005722046
167,172,75669,1,0,0:0:0:0:
167,172,75812,2,0,P|179:211|166:249,1,75.0000028610231
42,133,76098,2,0,P|33:97|45:62,1,75.0000028610231
266,36,76383,5,0,0:0:0:0:
224,317,76526,1,0,0:0:0:0:
222,326,76669,1,0,0:0:0:0:
423,34,76812,5,0,0:0:0:0:
381,315,76955,1,0,0:0:0:0:
379,324,77098,1,0,0:0:0:0:
160,98,77241,5,0,0:0:0:0:
437,241,77383,1,0,0:0:0:0:
444,246,77526,1,0,0:0:0:0:
143,365,77669,6,0,B|135:329|135:329|146:249,1,100
293,101,77955,1,0,0:0:0:0:
349,207,78098,2,0,L|243:192,1,100
57,36,78383,2,0,B|142:17|114:70|219:47,1,150
302,27,78669,6,0,L|293:108,1,75.0000028610231
225,243,78955,2,0,L|216:168,1,75.0000028610231
305,16,79241,6,0,L|295:105,1,75.0000028610231
221,253,79526,2,0,L|212:171,1,75.0000028610231
430,152,79812,2,0,L|421:226,1,75.0000028610231
325,361,80098,5,0,0:0:0:0:
310,186,80241,1,0,0:0:0:0:
450,304,80383,2,0,P|410:306|366:292,1,75.0000028610231
221,253,80669,2,0,P|181:251|137:265,1,75.0000028610231
33,337,80955,6,0,L|36:242,1,75.0000028610231
118,102,81241,2,0,L|120:176,1,75.0000028610231
28,348,81526,6,0,L|32:244,1,75.0000028610231
122,90,81812,2,0,L|124:172,1,75.0000028610231
215,331,82098,2,0,L|217:256,1,75.0000028610231
279,100,82383,5,0,0:0:0:0:
325,252,82526,1,0,0:0:0:0:
469,90,82669,2,0,L|378:79,1,75.0000028610231
236,183,82955,2,0,L|327:172,1,75.0000028610231
133,54,83241,6,0,L|127:139,1,75.0000028610231
241,257,83526,2,0,L|235:182,1,75.0000028610231
127,43,83812,6,0,L|121:137,1,75.0000028610231
246,267,84098,2,0,L|240:184,1,75.0000028610231
352,29,84383,2,0,L|346:103,1,75.0000028610231
427,243,84669,1,0,0:0:0:0:
436,270,84811,1,0,0:0:0:0:
441,310,84955,6,0,L|366:312,1,75.0000028610231
233,362,85241,1,0,0:0:0:0:
194,335,85312,1,0,0:0:0:0:
149,327,85383,1,0,0:0:0:0:
104,338,85455,1,0,0:0:0:0:
68,368,85526,6,0,L|73:258,1,100
173,45,86669,6,0,L|177:144,1,100
369,244,87598,5,0,0:0:0:0:
369,244,87669,1,0,0:0:0:0:
369,244,87741,1,0,0:0:0:0:
369,244,87812,1,0,0:0:0:0:
256,192,87955,12,0,92383,0:0:0:0:
