osu file format v14

[General]
AudioFilename: audio.mp3
AudioLeadIn: 0
PreviewTime: 70710
Countdown: 0
SampleSet: Normal
StackLeniency: 0.7
Mode: 0
LetterboxInBreaks: 0
WidescreenStoryboard: 0

[Editor]
Bookmarks: 17999
DistanceSpacing: 1.1
BeatDivisor: 4
GridSize: 8
TimelineZoom: 1.4

[Metadata]
Title:Spring Day
TitleUnicode:봄날
Artist:BTS
ArtistUnicode:방탄소년단
Creator:Tae
Version:Firetruck's Normal
Source:
Tags:bangtan boys sonyeondan bangtansonyeondan beyond the scene bulletproof boy scouts bighit entertainment 빅히트엔터테인먼트 wings repackage you never walk alone 2nd special album 랩몬스터 슈가 진 제이홉 지민 뷔 정국 jungkook rap monster j-hope jimin v suga jin yoongi k-pop kpop short edit cut lapis aoki xiaolin firetruck
BeatmapID:1240368
BeatmapSetID:579173

[Difficulty]
HPDrainRate:4
CircleSize:3.5
OverallDifficulty:4
ApproachRate:5
SliderMultiplier:1.1
SliderTickRate:1

[Events]
//Background and Video events
0,0,"springday.jpg",0,0
//Break Periods
2,54087,61659
//Storyboard Layer 0 (Background)
//Storyboard Layer 1 (Fail)
//Storyboard Layer 2 (Pass)
//Storyboard Layer 3 (Foreground)
//Storyboard Sound Samples

[TimingPoints]
56,560.747663551402,4,2,1,50,1,0
17158,-100,4,2,1,50,0,0
17999,-100,4,1,2,50,0,0
35943,-100,4,1,3,50,0,0
53887,-100,4,2,1,50,0,0
62859,-100,4,1,2,50,0,0
71831,-100,4,1,2,70,0,1
89495,-100,4,1,2,70,0,0
89775,-100,4,1,2,70,0,1
107439,-100,4,1,2,70,0,0
107719,-100,4,1,3,70,0,1
110803,-100,4,1,3,65,0,1
125663,-100,4,1,0,50,0,0
127906,-100,4,2,0,5,0,0

[Colours]
Combo1 : 254,131,183
Combo2 : 141,208,241
Combo3 : 202,164,249
Combo4 : 142,244,186

[HitObjects]
256,192,13513,12,2,15756,0:0:0:0:
29,77,17158,6,0,L|24:7,2,55,0|0|0,0:0|0:0|0:0,0:0:0:0:
75,117,17999,6,0,P|129:124|195:104,1,110,4|8,0:0|0:0,0:0:0:0:
240,93,18841,1,0,0:0:0:0:
240,93,19121,2,0,L|244:157,2,55,0|0|8,0:0|0:0|0:0,0:0:0:0:
350,44,20242,6,0,L|485:41,2,110,0|8|0,0:0|0:0|0:0,0:0:0:0:
318,95,21644,2,0,P|333:145|317:203,1,110,0|0,0:0|0:0,0:0:0:0:
285,250,22485,6,0,L|417:244,1,110,0|8,0:0|0:0,0:0:0:0:
455,239,23327,1,0,0:0:0:0:
455,239,23607,2,0,L|451:164,2,55,0|0|8,0:0|0:0|0:0,0:0:0:0:
393,343,24728,6,0,L|261:339,1,110,0|8,0:0|0:0,0:0:0:0:
162,332,25850,1,0,0:0:0:0:
230,232,26411,1,0,0:0:0:0:
300,133,26971,6,0,L|421:132,1,110,4|8,0:0|0:0,0:0:0:0:
465,106,27813,2,0,L|454:168,1,55,0|0,0:0|0:0,0:0:0:0:
448,220,28373,1,0,0:0:0:0:
448,220,28654,2,0,L|431:291,1,55,0|0,0:0|0:0,0:0:0:0:
445,332,29214,6,0,L|324:333,1,110,4|8,0:0|0:0,0:0:0:0:
277,353,30056,2,0,L|273:288,1,55,0|0,0:0|0:0,0:0:0:0:
243,245,30616,2,0,L|239:180,1,55,0|0,0:0|0:0,0:0:0:0:
227,69,31457,6,0,L|294:72,1,55,4|0,0:0|0:0,0:0:0:0:
335,100,32018,2,8,L|402:103,1,55,8|0,0:0|0:0,0:0:0:0:
440,68,32579,2,0,P|429:131|448:187,1,110,0|0,0:0|0:0,0:0:0:0:
462,293,33700,6,0,P|409:281|347:290,1,110,4|8,0:0|0:0,0:0:0:0:
300,309,34541,1,0,0:0:0:0:
300,309,34822,2,0,P|247:321|185:312,1,110,0|0,0:0|0:0,0:0:0:0:
71,308,35943,6,0,B|87:252|87:252|77:180,1,110,4|8,0:0|0:0,0:0:0:0:
48,148,36784,1,0,0:0:0:0:
156,93,37345,2,0,L|227:88,2,55,0|8|0,0:0|0:0|0:0,0:0:0:0:
120,44,38186,6,0,L|121:173,1,110,4|8,0:0|0:0,0:0:0:0:
123,214,39027,1,0,0:0:0:0:
210,298,39588,2,0,B|270:306|270:306|331:296,1,110,0|0,0:0|0:0,0:0:0:0:
374,321,40429,6,0,L|378:210,1,110,4|8,0:0|0:0,0:0:0:0:
402,155,41270,2,0,L|331:153,1,55,0|0,0:0|0:0,0:0:0:0:
246,86,42112,1,0,0:0:0:0:
129,116,42672,6,0,L|125:195,1,55,4|0,0:0|0:0,0:0:0:0:
145,228,43233,2,0,L|141:307,1,55,8|0,0:0|0:0,0:0:0:0:
142,343,43794,2,0,P|177:329|210:327,1,55,0|0,0:0|0:0,0:0:0:0:
251,346,44355,1,8,0:0:0:0:
355,284,44915,6,0,P|343:232|361:169,1,110,4|8,0:0|0:0,0:0:0:0:
398,134,45756,1,0,0:0:0:0:
398,134,46037,2,0,L|265:129,1,110,0|8,0:0|0:0,0:0:0:0:
236,98,46878,1,0,0:0:0:0:
236,98,47158,6,0,L|228:194,2,82.5,4|0|0,0:0|0:0|0:0,0:0:0:0:
121,138,48560,2,0,L|112:208,2,55,0|8|0,0:0|0:0|0:0,0:0:0:0:
92,84,49401,6,0,L|211:82,1,110,4|8,0:0|0:0,0:0:0:0:
254,51,50242,1,0,0:0:0:0:
254,51,50523,2,0,B|244:108|244:108|260:173,1,110,0|8,0:0|0:0,0:0:0:0:
369,114,51644,5,4,0:0:0:0:
434,216,52205,1,8,0:0:0:0:
347,300,52766,2,0,L|277:295,1,55,8|8,0:0|0:0,0:0:0:0:
235,316,53327,2,0,L|160:312,1,55,8|0,0:0|0:0,0:0:0:0:
122,332,53887,5,4,0:0:0:0:
88,108,62859,6,0,P|141:115|209:98,1,110,4|8,0:0|0:0,0:0:0:0:
313,73,63981,2,2,P|366:66|434:83,1,110,2|8,0:0|0:0,0:0:0:0:
472,45,64822,6,0,L|474:170,1,110,0|0,0:0|0:0,0:0:0:0:
377,227,65943,2,0,L|302:217,2,55,0|0|2,0:0|0:0|0:0,0:0:0:0:
435,241,66784,1,8,0:0:0:0:
435,241,67065,6,0,B|436:286|454:315|454:315|423:355,1,110,0|0,0:0|0:0,0:0:0:0:
377,362,67906,2,8,L|248:358,1,110,8|2,0:0|0:0,0:0:0:0:
146,354,69027,1,0,0:0:0:0:
86,248,69588,6,8,L|85:171,1,55,4|8,0:0|0:0,0:0:0:0:
111,138,70149,2,8,L|110:61,1,55,8|0,0:0|0:0,0:0:0:0:
88,26,70710,2,8,P|138:35|198:23,1,110,8|8,0:0|0:0,0:0:0:0:
315,6,71831,6,0,L|318:142,1,110,4|8,0:0|0:0,0:0:0:0:
321,176,72672,1,0,0:0:0:0:
321,176,72953,2,0,P|267:168|209:176,1,110,0|8,0:0|0:0,0:0:0:0:
91,185,74074,6,0,P|100:244|88:298,1,110,0|8,0:0|0:0,0:0:0:0:
86,353,74915,1,0,0:0:0:0:
86,353,75196,2,0,L|222:355,1,110,0|8,0:0|0:0,0:0:0:0:
295,285,76317,6,0,P|280:233|297:180,1,110,0|8,0:0|0:0,0:0:0:0:
337,136,77158,1,0,0:0:0:0:
337,136,77439,2,0,L|201:132,1,110,0|8,0:0|0:0,0:0:0:0:
132,56,78560,6,0,B|154:116|121:115|142:178,1,110,0|8,0:0|0:0,0:0:0:0:
148,224,79401,2,0,L|217:209,1,55,0|0,0:0|0:0,0:0:0:0:
318,181,80242,1,8,0:0:0:0:
275,67,80803,6,0,L|151:61,1,110,0|8,0:0|0:0,0:0:0:0:
104,67,81644,1,0,0:0:0:0:
104,67,81925,2,0,P|115:124|94:179,1,110,0|8,0:0|0:0,0:0:0:0:
66,288,83046,6,0,L|192:284,1,110,0|8,0:0|0:0,0:0:0:0:
225,319,83887,2,0,L|237:245,1,55,0|0,0:0|0:0,0:0:0:0:
257,146,84728,1,8,0:0:0:0:
299,32,85289,6,0,P|352:22|412:31,1,110,0|8,0:0|0:0,0:0:0:0:
464,48,86130,1,0,0:0:0:0:
464,48,86411,2,0,P|454:108|471:163,1,110,0|8,0:0|0:0,0:0:0:0:
447,274,87532,5,0,0:0:0:0:
335,227,88093,1,8,0:0:0:0:
225,280,88654,2,0,L|148:272,1,55,0|0,0:0|0:0,0:0:0:0:
111,289,89214,2,8,L|34:281,1,55,8|0,0:0|0:0,0:0:0:0:
8,320,89775,6,0,L|10:187,1,110,4|8,0:0|0:0,0:0:0:0:
14,149,90616,1,0,0:0:0:0:
14,149,90897,2,0,P|67:160|125:148,1,110,0|8,0:0|0:0,0:0:0:0:
240,127,92018,6,0,B|280:134|309:122|309:122|312:144|306:180,1,110,0|8,0:0|0:0,0:0:0:0:
303,221,92859,1,0,0:0:0:0:
303,221,93140,2,0,L|431:217,1,110,0|8,0:0|0:0,0:0:0:0:
481,118,94261,6,0,L|466:-16,1,110,0|8,0:0|0:0,0:0:0:0:
413,33,95102,1,0,0:0:0:0:
413,33,95383,2,0,P|362:47|304:34,1,110,0|8,0:0|0:0,0:0:0:0:
186,25,96504,6,0,B|200:81|175:82|193:134,1,110,0|8,0:0|0:0,0:0:0:0:
213,190,97345,2,0,L|279:167,2,55,0|0|0,0:0|0:0|0:0,0:0:0:0:
160,219,98186,1,8,0:0:0:0:
50,167,98747,6,4,P|39:228|56:279,1,110,4|8,0:0|0:0,0:0:0:0:
162,324,99869,2,0,P|173:263|156:212,1,110,0|8,0:0|0:0,0:0:0:0:
214,110,100990,5,0,0:0:0:0:
329,147,101551,1,8,0:0:0:0:
329,147,101831,2,0,L|330:218,2,55,0|0|0,0:0|0:0|0:0,0:0:0:0:
327,86,102672,1,8,0:0:0:0:
233,162,103233,6,0,L|234:287,1,110,0|8,0:0|0:0,0:0:0:0:
249,330,104074,1,0,0:0:0:0:
249,330,104355,2,0,P|192:320|136:332,1,110,0|8,0:0|0:0,0:0:0:0:
29,284,105476,6,0,L|35:158,1,110,0|0,0:0|0:0,0:0:0:0:
39,113,106317,1,0,0:0:0:0:
39,113,106598,2,0,L|109:109,1,55,0|0,0:0|0:0,0:0:0:0:
149,133,107158,2,8,L|219:129,1,55,8|0,0:0|0:0,0:0:0:0:
260,107,107719,6,0,P|253:168|273:219,1,110,4|8,0:0|0:0,0:0:0:0:
390,204,108841,2,0,P|397:143|377:92,1,110,0|8,0:0|0:0,0:0:0:0:
362,40,109682,1,0,0:0:0:0:
362,40,109962,6,0,L|226:39,1,110,0|8,0:0|0:0,0:0:0:0:
194,19,110803,2,0,P|205:77|190:125,1,110,0|0,0:0|0:0,0:0:0:0:
171,182,111644,1,8,0:0:0:0:
243,278,112205,6,0,L|369:275,1,110,0|8,0:0|0:0,0:0:0:0:
413,275,113046,1,0,0:0:0:0:
413,275,113327,2,0,P|401:219|420:160,1,110,0|8,0:0|0:0,0:0:0:0:
477,65,114448,6,0,L|361:56,1,110,0|8,0:0|0:0,0:0:0:0:
314,85,115289,2,0,L|198:76,1,110,0|0,0:0|0:0,0:0:0:0:
145,61,116130,2,8,L|139:133,1,55,8|0,0:0|0:0,0:0:0:0:
94,154,116691,6,0,L|89:271,1,110,0|8,0:0|0:0,0:0:0:0:
57,316,117532,2,0,P|130:300|221:321,1,165,0|0,0:0|0:0,0:0:0:0:
305,236,118934,5,0,0:0:0:0:
340,355,119495,1,8,0:0:0:0:
340,355,119775,2,0,L|405:346,2,55,0|4|0,0:0|0:0|0:0,0:0:0:0:
280,367,120616,1,8,0:0:0:0:
207,270,121177,5,4,0:0:0:0:
288,180,121738,2,0,P|278:125|292:70,1,110,8|0,0:0|0:0,0:0:0:0:
392,137,122859,2,8,P|402:192|388:247,1,110,8|0,0:0|0:0,0:0:0:0:
311,336,123981,5,8,0:0:0:0:
215,262,124541,1,0,0:0:0:0:
121,339,125102,1,0,0:0:0:0:
256,192,125663,12,0,127906,0:0:0:0:
