osu file format v14

[General]
AudioFilename: audio.mp3
AudioLeadIn: 0
PreviewTime: 70710
Countdown: 0
SampleSet: Normal
StackLeniency: 0.7
Mode: 0
LetterboxInBreaks: 0
WidescreenStoryboard: 0

[Editor]
DistanceSpacing: 1.5
BeatDivisor: 4
GridSize: 4
TimelineZoom: 5.299998

[Metadata]
Title:Spring Day
TitleUnicode:봄날
Artist:BTS
ArtistUnicode:방탄소년단
Creator:Tae
Version:Xiaolin's Hard
Source:
Tags:bangtan boys sonyeondan bangtansonyeondan beyond the scene bulletproof boy scouts bighit entertainment 빅히트엔터테인먼트 wings repackage you never walk alone 2nd special album 랩몬스터 슈가 진 제이홉 지민 뷔 정국 jungkook rap monster j-hope jimin v suga jin yoongi k-pop kpop short edit cut lapis aoki xiaolin firetruck
BeatmapID:1244096
BeatmapSetID:579173

[Difficulty]
HPDrainRate:5
CircleSize:3.5
OverallDifficulty:5
ApproachRate:6.5
SliderMultiplier:1.28
SliderTickRate:1

[Events]
//Background and Video events
0,0,"springday.jpg",0,0
//Break Periods
2,54087,61604
//Storyboard Layer 0 (Background)
//Storyboard Layer 1 (Fail)
//Storyboard Layer 2 (Pass)
//Storyboard Layer 3 (Foreground)
//Storyboard Sound Samples

[TimingPoints]
56,560.747663551402,4,2,1,50,1,0
17999,-100,4,1,2,50,0,0
35943,-100,4,1,3,50,0,0
53887,-100,4,2,1,50,0,0
62859,-100,4,1,2,50,0,0
71831,-90.9090909090909,4,1,2,70,0,1
89635,-90.9090909090909,4,1,2,70,0,0
89775,-90.9090909090909,4,1,2,70,0,1
107579,-90.9090909090909,4,1,2,70,0,0
107719,-90.9090909090909,4,1,3,70,0,1
110803,-90.9090909090909,4,1,3,65,0,1
125663,-100,4,1,0,50,0,0
125803,-100,4,1,0,50,0,0
126084,-100,4,1,0,50,0,0
126224,-100,4,1,0,50,0,0
127906,-100,4,2,0,5,0,0

[Colours]
Combo1 : 254,131,183
Combo2 : 141,208,241
Combo3 : 202,164,249
Combo4 : 142,244,186

[HitObjects]
328,84,17158,6,0,P|380:72|416:72,1,64,0|0,0:0|0:0,0:0:0:0:
312,164,17719,2,0,P|296:160|281:154,1,32,0|0,0:0|0:0,0:0:0:0:
236,136,17999,6,0,B|208:176|208:176|220:256,1,128,4|8,0:0|0:0,0:0:0:0:
172,336,18841,1,0,0:0:0:0:
104,268,19121,2,0,L|92:188,1,64,0|0,0:0|0:0,0:0:0:0:
140,120,19682,2,8,L|130:56,1,64,8|0,0:0|0:0,0:0:0:0:
224,76,20242,6,0,P|280:60|360:52,1,128,0|8,0:0|0:0,0:0:0:0:
404,132,21084,2,0,P|374:141|343:147,1,64,0|0,0:0|0:0,0:0:0:0:
256,192,21644,2,0,P|224:197|193:207,1,64,0|8,0:0|0:0,0:0:0:0:
140,288,22205,2,0,L|136:340,1,32,0|0,0:0|0:0,0:0:0:0:
164,360,22485,6,0,B|268:364|268:364|244:336,1,128,0|8,0:0|0:0,0:0:0:0:
312,268,23327,2,0,P|356:280|392:276,1,64,0|0,0:0|0:0,0:0:0:0:
360,184,23887,2,0,P|316:172|280:176,1,64,0|8,0:0|0:0,0:0:0:0:
220,232,24448,1,0,0:0:0:0:
152,164,24728,6,0,P|159:101|183:42,1,128,0|8,0:0|0:0,0:0:0:0:
276,76,25570,2,0,L|340:88,1,64,0|0,0:0|0:0,0:0:0:0:
376,176,26130,2,0,L|364:248,1,64,0|0,0:0|0:0,0:0:0:0:
272,268,26691,2,0,L|268:232,1,32,0|0,0:0|0:0,0:0:0:0:
260,188,26971,6,0,B|196:172|196:204|124:188,1,128,4|8,0:0|0:0,0:0:0:0:
44,156,27813,2,0,P|40:108|48:76,1,64,0|0,0:0|0:0,0:0:0:0:
135,126,28373,2,0,P|138:157|133:189,1,64,0|0,0:0|0:0,0:0:0:0:
180,272,28934,2,0,L|240:276,1,32,0|0,0:0|0:0,0:0:0:0:
256,292,29214,6,0,L|383:284,1,128,4|8,0:0|0:0,0:0:0:0:
416,192,30056,2,0,L|328:184,1,64,0|0,0:0|0:0,0:0:0:0:
336,92,30616,2,0,L|399:97,1,64,0|0,0:0|0:0,0:0:0:0:
488,136,31177,1,0,0:0:0:0:
504,232,31457,6,0,P|511:271|500:312,1,64,4|0,0:0|0:0,0:0:0:0:
412,304,32018,2,8,P|405:335|408:366,1,64,8|0,0:0|0:0,0:0:0:0:
304,356,32579,2,0,P|248:344|164:364,1,128,0|0,0:0|0:0,0:0:0:0:
92,316,33420,1,0,0:0:0:0:
52,228,33700,6,0,P|56:184|56:140,1,64,4|0,0:0|0:0,0:0:0:0:
116,88,34261,2,8,P|160:84|203:76,1,64,8|0,0:0|0:0,0:0:0:0:
252,20,34822,1,0,0:0:0:0:
332,76,35102,1,0,0:0:0:0:
332,76,35242,1,0,0:0:0:0:
360,116,35383,2,0,L|391:113,2,32
348,164,35943,6,0,B|344:264|344:264|304:236,1,128,4|8,0:0|0:0,0:0:0:0:
236,200,36784,1,0,0:0:0:0:
228,300,37065,1,0,0:0:0:0:
362,351,37345,2,0,P|398:335|418:315,1,64,0|8,0:0|0:0,0:0:0:0:
456,232,37906,2,0,P|448:196|448:180,1,32,0|0,0:0|0:0,0:0:0:0:
448,152,38186,6,0,B|396:152|396:152|368:164|368:164|296:164,1,128,4|8,0:0|0:0,0:0:0:0:
276,80,39027,2,0,L|360:80,1,64,0|0,0:0|0:0,0:0:0:0:
344,252,39588,2,0,L|260:252,1,64,0|0,0:0|0:0,0:0:0:0:
196,204,40149,1,0,0:0:0:0:
148,120,40429,6,0,B|121:107|97:110|97:110|112:58|80:28,1,128,4|8,0:0|0:0,0:0:0:0:
3,81,41270,1,0,0:0:0:0:
20,176,41551,1,0,0:0:0:0:
108,216,41831,2,0,P|146:223|191:213,1,64,0|0,0:0|0:0,0:0:0:0:
252,168,42392,2,0,P|275:164|308:164,1,32,0|0,0:0|0:0,0:0:0:0:
332,176,42672,6,0,B|348:140|340:92|340:92|392:100,1,128,4|8,0:0|0:0,0:0:0:0:
428,184,43513,1,0,0:0:0:0:
368,256,43794,1,0,0:0:0:0:
272,272,44074,2,0,L|184:268,1,64,0|8,0:0|0:0,0:0:0:0:
116,296,44635,2,0,L|72:296,1,32,0|0,0:0|0:0,0:0:0:0:
36,296,44915,6,0,B|44:232|44:232|44:164,1,128,4|8,0:0|0:0,0:0:0:0:
76,76,45756,1,0,0:0:0:0:
148,140,46037,2,0,L|240:144,1,64,0|0,0:0|0:0,0:0:0:0:
292,92,46598,2,8,L|355:89,1,64,8|0,0:0|0:0,0:0:0:0:
332,180,47158,6,0,B|336:264|336:264|360:272|396:260,1,128,4|8,0:0|0:0,0:0:0:0:
476,264,47999,2,0,P|464:324|468:344,1,64,0|0,0:0|0:0,0:0:0:0:
376,364,48560,1,0,0:0:0:0:
284,344,48841,2,0,P|275:313|260:285,1,64,8|0,0:0|0:0,0:0:0:0:
244,192,49401,6,0,B|230:153|197:135|197:135|200:101|169:63,1,128,4|8,0:0|0:0,0:0:0:0:
100,128,50242,1,0,0:0:0:0:
8,156,50523,2,0,B|21:194|54:212|54:212|51:246|82:284,1,128,0|8,0:0|0:0,0:0:0:0:
160,288,51364,1,0,0:0:0:0:
256,272,51644,6,0,B|309:281|309:281|360:271|389:243,1,128,4|8,0:0|0:0,0:0:0:0:
412,164,52485,1,0,0:0:0:0:
328,120,52766,2,0,L|271:117,3,32,8|8|8|8,0:0|0:0|0:0|0:0,0:0:0:0:
258,151,53327,2,0,L|201:148,3,32,8|0|0|0,0:0|0:0|0:0|0:0,0:0:0:0:
184,172,53887,5,4,0:0:0:0:
256,360,62579,6,0,L|300:352,1,32,0|0,0:0|0:0,0:0:0:0:
336,344,62859,6,0,L|340:260,1,64,4|0,0:0|0:0,0:0:0:0:
340,232,63280,1,0,0:0:0:0:
340,232,63420,1,8,0:0:0:0:
272,164,63700,1,0,0:0:0:0:
366,148,63981,2,2,P|406:172|418:192,1,64,2|0,0:0|0:0,0:0:0:0:
432,280,64541,1,8,0:0:0:0:
432,280,64682,2,2,P|462:271|486:251,1,64,0|0,0:0|0:0,0:0:0:0:
500,204,65102,6,2,B|504:136,1,64,4|0,0:0|0:0,0:0:0:0:
484,96,65523,1,0,0:0:0:0:
484,96,65663,1,8,0:0:0:0:
392,68,65943,1,0,0:0:0:0:
359,227,66224,2,0,P|360:195|364:164,1,64,0|2,0:0|0:0,0:0:0:0:
300,96,66784,1,8,0:0:0:0:
300,96,66925,1,0,0:0:0:0:
268,188,67205,1,0,0:0:0:0:
268,188,67345,6,0,P|212:177|197:175,1,64,4|0,0:0|0:0,0:0:0:0:
156,180,67766,1,0,0:0:0:0:
156,180,67906,1,8,0:0:0:0:
120,268,68186,1,0,0:0:0:0:
60,192,68467,1,2,0:0:0:0:
96,104,68747,1,0,0:0:0:0:
192,88,69027,1,0,0:0:0:0:
192,88,69168,1,0,0:0:0:0:
284,120,69448,1,0,0:0:0:0:
284,120,69588,6,8,L|296:168,3,32,4|8|8|0,0:0|0:0|0:0|0:0,0:0:0:0:
336,172,70149,2,8,L|348:220,3,32,8|0|0|0,0:0|0:0|0:0|0:0,0:0:0:0:
388,224,70710,2,8,L|396:252,6,16,8|0|0|0|0|0|0,0:0|0:0|0:0|0:0|0:0|0:0|0:0,0:0:0:0:
436,280,71270,2,8,L|444:308,6,16,8|0|0|0|0|0|0,0:0|0:0|0:0|0:0|0:0|0:0|0:0,0:0:0:0:
428,332,71831,6,0,L|348:332,1,70.4000021484376,4|0,0:0|0:0,0:0:0:0:
260,296,72392,2,8,P|248:252|248:220,1,70.4000021484376,8|0,0:0|0:0,0:0:0:0:
352,99,72953,2,0,P|350:134|340:168,1,70.4000021484376,0|0,0:0|0:0,0:0:0:0:
295,38,73513,2,8,P|335:18|411:38,1,105.600003222656,8|0,0:0|0:0,0:0:0:0:
428,64,74074,5,0,0:0:0:0:
216,68,74635,1,8,0:0:0:0:
136,136,74915,1,0,0:0:0:0:
240,164,75196,2,0,P|276:168|320:168,1,70.4000021484376,0|0,0:0|0:0,0:0:0:0:
192,252,75756,2,8,P|156:248|112:248,1,70.4000021484376,8|0,0:0|0:0,0:0:0:0:
16,256,76317,6,0,B|12:206|48:172|48:172|20:120,1,140.800004296875,0|8,0:0|0:0,0:0:0:0:
36,24,77158,1,0,0:0:0:0:
132,64,77439,2,0,L|176:124,1,70.4000021484376,0|0,0:0|0:0,0:0:0:0:
232,208,77999,2,8,L|273:151,1,70.4000021484376,8|0,0:0|0:0,0:0:0:0:
380,148,78560,6,0,B|344:216|344:216|384:208|424:228,1,140.800004296875,0|8,0:0|0:0,0:0:0:0:
366,318,79401,1,0,0:0:0:0:
260,332,79682,2,0,P|244:292|244:248,1,70.4000021484376,0|0,0:0|0:0,0:0:0:0:
214,105,80242,2,8,P|210:139|196:172,1,70.4000021484376,8|0,0:0|0:0,0:0:0:0:
76,104,80803,6,0,B|55:65|60:26|60:26|12:61,1,140.800004296875,0|8,0:0|0:0,0:0:0:0:
8,168,81644,1,0,0:0:0:0:
76,252,81925,2,0,L|164:256,1,70.4000021484376,0|0,0:0|0:0,0:0:0:0:
310,204,82485,2,8,L|240:208,1,70.4000021484376,8|0,0:0|0:0,0:0:0:0:
404,332,83046,6,0,B|376:272|376:272|412:224|404:176,1,140.800004296875,0|8,0:0|0:0,0:0:0:0:
352,112,83887,1,0,0:0:0:0:
256,152,84168,2,0,P|249:101|256:65,1,70.4000021484376,0|0,0:0|0:0,0:0:0:0:
141,168,84728,2,8,P|146:202|142:237,1,70.4000021484376,8|0,0:0|0:0,0:0:0:0:
284,336,85289,6,0,B|307:317|355:325|355:325|360:284|391:269,1,140.800004296875,0|8,0:0|0:0,0:0:0:0:
420,168,86130,1,0,0:0:0:0:
340,100,86411,2,0,L|348:16,1,70.4000021484376,0|0,0:0|0:0,0:0:0:0:
216,96,86971,2,8,L|222:166,1,70.4000021484376,8|0,0:0|0:0,0:0:0:0:
304,272,87532,6,0,B|344:284|384:272|384:272|356:332,1,140.800004296875,0|8,0:0|0:0,0:0:0:0:
232,336,88373,1,0,0:0:0:0:
136,288,88654,2,0,L|132:252,3,35.2000010742188,0|0|0|0,0:0|0:0|0:0|0:0,0:0:0:0:
156,208,89214,2,8,L|152:168,3,35.2000010742188,8|0|0|0,0:0|0:0|0:0|0:0,0:0:0:0:
152,120,89775,6,0,P|136:56|136:40,1,70.4000021484376,4|0,0:0|0:0,0:0:0:0:
260,116,90336,2,0,P|255:150|243:184,1,70.4000021484376,8|0,0:0|0:0,0:0:0:0:
316,260,90897,2,0,L|404:264,1,70.4000021484376,0|0,0:0|0:0,0:0:0:0:
472,324,91457,2,8,P|492:280|480:220,1,105.600003222656,8|0,0:0|0:0,0:0:0:0:
448,184,92018,5,0,0:0:0:0:
240,140,92579,1,8,0:0:0:0:
320,212,92859,1,0,0:0:0:0:
220,248,93140,2,0,L|228:328,1,70.4000021484376,0|0,0:0|0:0,0:0:0:0:
328,352,93700,2,8,L|412:344,1,70.4000021484376,8|0,0:0|0:0,0:0:0:0:
344,256,94261,6,0,B|324:208|332:164|332:164|372:172|396:200,1,140.800004296875,0|8,0:0|0:0,0:0:0:0:
452,252,95102,1,0,0:0:0:0:
484,152,95383,2,0,P|444:116|432:88,1,70.4000021484376,0|0,0:0|0:0,0:0:0:0:
356,32,95943,2,8,P|326:51|293:61,1,70.4000021484376,8|0,0:0|0:0,0:0:0:0:
196,100,96504,6,0,B|228:124|224:172|224:172|264:176|284:204,1,140.800004296875,0|8,0:0|0:0,0:0:0:0:
280,300,97345,1,0,0:0:0:0:
384,312,97626,2,0,P|420:280|440:248,1,70.4000021484376,0|0,0:0|0:0,0:0:0:0:
452,116,98186,2,8,P|431:144|404:167,1,70.4000021484376,8|0,0:0|0:0,0:0:0:0:
302,40,98747,6,4,B|320:60|360:72|360:72|332:92|308:124,1,140.800004296875,4|8,0:0|0:0,0:0:0:0:
212,96,99588,1,0,0:0:0:0:
140,172,99869,2,0,L|132:256,1,70.4000021484376,0|0,0:0|0:0,0:0:0:0:
236,336,100429,2,8,L|248:252,1,70.4000021484376,8|0,0:0|0:0,0:0:0:0:
411,212,100990,6,0,B|344:200|344:200|352:272,1,140.800004296875,0|8,0:0|0:0,0:0:0:0:
444,312,101831,1,0,0:0:0:0:
508,228,102112,2,0,P|496:184|496:156,1,70.4000021484376,0|0,0:0|0:0,0:0:0:0:
416,44,102672,2,8,P|414:79|403:112,1,70.4000021484376,8|0,0:0|0:0,0:0:0:0:
352,271,103233,6,0,B|316:303|280:299|280:299|280:219,1,140.800004296875,0|8,0:0|0:0,0:0:0:0:
224,148,104074,1,0,0:0:0:0:
124,176,104355,2,0,L|124:260,1,70.4000021484376,0|0,0:0|0:0,0:0:0:0:
216,352,104915,2,8,L|308:344,1,70.4000021484376,8|0,0:0|0:0,0:0:0:0:
368,276,105476,6,0,B|408:284|432:280|432:280|448:244|436:196,1,140.800004296875,0|0,0:0|0:0,0:0:0:0:
336,172,106317,1,0,0:0:0:0:
380,76,106598,2,0,L|424:72,3,35.2000010742188,0|0|0|0,0:0|0:0|0:0|0:0,0:0:0:0:
452,32,107158,2,8,L|500:28,3,35.2000010742188,8|0|0|0,0:0|0:0|0:0|0:0,0:0:0:0:
504,80,107719,6,0,P|496:124|496:156,1,70.4000021484376,4|0,0:0|0:0,0:0:0:0:
372,260,108280,2,8,P|371:225|364:191,1,70.4000021484376,8|0,0:0|0:0,0:0:0:0:
260,164,108841,2,0,B|212:184|164:164|164:164|132:188|140:224,1,140.800004296875,0|8,0:0|0:0,0:0:0:0:
216,268,109682,1,0,0:0:0:0:
212,84,109962,6,0,L|204:4,1,70.4000021484376,0|0,0:0|0:0,0:0:0:0:
108,64,110523,2,8,P|64:96|40:104,1,70.4000021484376,8|0,0:0|0:0,0:0:0:0:
16,200,111084,2,0,B|96:212|96:212|68:244|68:276,1,140.800004296875,0|8,0:0|0:0,0:0:0:0:
260,352,112205,6,0,L|268:252,1,70.4000021484376,0|0,0:0|0:0,0:0:0:0:
344,208,112766,2,8,L|336:108,1,70.4000021484376,8|0,0:0|0:0,0:0:0:0:
228,52,113327,2,0,B|236:152|236:152|208:144|188:148,1,140.800004296875,0|8,0:0|0:0,0:0:0:0:
124,224,114168,1,0,0:0:0:0:
280,268,114448,6,0,P|324:236|340:220,1,70.4000021484376,0|0,0:0|0:0,0:0:0:0:
495,172,115009,2,8,P|466:192|440:216,1,70.4000021484376,8|0,0:0|0:0,0:0:0:0:
404,316,115570,1,0,0:0:0:0:
416,104,116130,1,8,0:0:0:0:
320,64,116411,1,0,0:0:0:0:
244,216,116691,6,0,B|204:216|168:200|168:200|176:272,1,140.800004296875,0|8,0:0|0:0,0:0:0:0:
268,312,117532,1,0,0:0:0:0:
360,256,117813,2,0,B|356:220|380:164|380:164|336:168|312:140,1,140.800004296875,0|0,0:0|0:0,0:0:0:0:
380,364,118934,6,0,P|328:344|300:344,1,70.4000021484376,0|0,0:0|0:0,0:0:0:0:
208,344,119495,2,0,P|173:349|141:364,1,70.4000021484376,8|0,0:0|0:0,0:0:0:0:
52,312,120056,1,4,0:0:0:0:
72,208,120336,1,0,0:0:0:0:
96,104,120616,2,8,L|180:112,1,70.4000021484376,8|0,0:0|0:0,0:0:0:0:
264,204,121177,6,0,B|232:240|232:264|232:264|304:284,1,140.800004296875,4|8,0:0|0:0,0:0:0:0:
368,200,122018,1,0,0:0:0:0:
464,160,122298,2,0,B|468:200|500:228|500:228|484:260|436:252,1,140.800004296875,0|8,0:0|0:0,0:0:0:0:
384,336,123140,1,0,0:0:0:0:
368,200,123420,6,0,P|376:152|368:112,1,70.4000021484376,0|0,0:0|0:0,0:0:0:0:
276,96,123981,1,8,0:0:0:0:
232,192,124261,1,0,0:0:0:0:
276,288,124541,2,0,L|340:296,3,35.2000010742188,0|0|0|0,0:0|0:0|0:0|0:0,0:0:0:0:
349,331,125102,2,0,L|413:339,3,35.2000010742188,0|0|0|0,0:0|0:0|0:0|0:0,0:0:0:0:
432,344,125663,6,0,B|424:308|440:280|440:280|420:236|444:204,1,128,0|0,0:0|0:0,0:0:0:0:
