osu file format v14

[General]
AudioFilename: audio.mp3
AudioLeadIn: 0
PreviewTime: 70710
Countdown: 0
SampleSet: Normal
StackLeniency: 0.3
Mode: 0
LetterboxInBreaks: 0
WidescreenStoryboard: 0

[Editor]
Bookmarks: 117532,119214
DistanceSpacing: 1.4
BeatDivisor: 4
GridSize: 4
TimelineZoom: 1.4

[Metadata]
Title:Spring Day
TitleUnicode:봄날
Artist:BTS
ArtistUnicode:방탄소년단
Creator:Tae
Version:I Miss You
Source:
Tags:bangtan boys sonyeondan bangtansonyeondan beyond the scene bulletproof boy scouts bighit entertainment 빅히트엔터테인먼트 wings repackage you never walk alone 2nd special album 랩몬스터 슈가 진 제이홉 지민 뷔 정국 jungkook rap monster j-hope jimin v suga jin yoongi k-pop kpop short edit cut lapis aoki xiaolin firetruck
BeatmapID:1226410
BeatmapSetID:579173

[Difficulty]
HPDrainRate:6
CircleSize:4
OverallDifficulty:6
ApproachRate:7.5
SliderMultiplier:1.4
SliderTickRate:1

[Events]
//Background and Video events
0,0,"springday.jpg",0,0
//Break Periods
//Storyboard Layer 0 (Background)
//Storyboard Layer 1 (Fail)
//Storyboard Layer 2 (Pass)
//Storyboard Layer 3 (Foreground)
//Storyboard Sound Samples

[TimingPoints]
56,560.747663551402,4,2,1,50,1,0
15756,-133.333333333333,4,2,1,50,0,0
17999,-100,4,1,2,50,0,0
35943,-83.3333333333333,4,1,3,50,0,0
53887,-100,4,2,1,50,0,0
62859,-76.9230769230769,4,1,2,50,0,0
71831,-66.6666666666667,4,1,2,70,0,1
89495,-66.6666666666667,4,1,2,70,0,0
89775,-66.6666666666667,4,1,2,70,0,1
107579,-66.6666666666667,4,1,2,70,0,0
107719,-76.9230769230769,4,1,3,70,0,1
110803,-100,4,1,3,65,0,1
111644,-83.3333333333333,4,1,3,65,0,1
125663,-100,4,1,0,50,0,0
127906,-100,4,2,0,5,0,0

[Colours]
Combo1 : 254,131,183
Combo2 : 141,208,241
Combo3 : 202,164,249
Combo4 : 142,244,186

[HitObjects]
256,192,13513,12,2,15756,0:0:0:0:
211,199,16878,5,0,0:0:0:0:
247,301,17158,1,0,0:0:0:0:
276,286,17298,1,0,0:0:0:0:
298,262,17439,1,0,0:0:0:0:
312,233,17579,1,0,0:0:0:0:
320,200,17720,1,0,0:0:0:0:
365,83,17999,6,0,P|312:72|281:79,1,70,4|0,0:0|0:0,0:0:0:0:
222,152,18560,1,8,0:0:0:0:
164,63,18841,1,0,0:0:0:0:
141,165,19121,1,0,0:0:0:0:
76,82,19401,1,0,0:0:0:0:
61,186,19682,1,8,0:0:0:0:
96,285,19962,6,0,L|88:338,2,35
218,265,20523,2,0,L|226:212,2,35,0|0|8,0:0|0:0|0:0,0:0:0:0:
315,349,21084,1,0,0:0:0:0:
315,349,21224,2,0,B|329:314|329:285,1,35
330,203,21644,1,0,0:0:0:0:
314,172,21784,1,0,0:0:0:0:
306,138,21924,1,8,0:0:0:0:
308,103,22064,1,0,0:0:0:0:
324,72,22204,1,0,0:0:0:0:
425,73,22485,6,0,P|420:108|402:138,1,70
308,103,23046,1,8,0:0:0:0:
219,55,23327,1,0,0:0:0:0:
147,125,23607,1,0,0:0:0:0:
191,215,23887,1,0,0:0:0:0:
232,308,24168,1,8,0:0:0:0:
199,321,24308,1,0,0:0:0:0:
165,320,24448,1,0,0:0:0:0:
133,307,24588,1,0,0:0:0:0:
108,282,24728,6,0,L|82:224,1,35
152,180,25009,2,0,L|171:218,2,35,0|0|8,0:0|0:0|0:0,0:0:0:0:
100,48,25570,2,0,L|85:79,1,35
6,205,26130,1,0,0:0:0:0:
4,240,26270,1,0,0:0:0:0:
13,274,26410,1,0,0:0:0:0:
30,305,26550,1,0,0:0:0:0:
55,330,26690,1,0,0:0:0:0:
112,264,26971,6,0,P|97:230|102:193,1,70,4|0,0:0|0:0,0:0:0:0:
135,118,27532,1,8,0:0:0:0:
192,52,27813,2,0,P|175:21|159:0,2,35
279,59,28373,1,0,0:0:0:0:
320,76,28513,1,0,0:0:0:0:
298,157,28793,1,0,0:0:0:0:
265,184,28934,1,0,0:0:0:0:
250,223,29074,1,0,0:0:0:0:
253,265,29214,6,0,L|307:309,1,70,4|0,0:0|0:0,0:0:0:0:
387,281,29775,1,8,0:0:0:0:
445,220,30056,2,0,P|467:193|486:174,2,35
363,204,30616,1,0,0:0:0:0:
336,172,30756,1,0,0:0:0:0:
255,124,31037,1,0,0:0:0:0:
228,155,31178,1,0,0:0:0:0:
201,187,31318,1,0,0:0:0:0:
164,205,31457,6,0,P|144:176|140:136,1,70,4|0,0:0|0:0,0:0:0:0:
142,100,31878,1,0,0:0:0:0:
127,61,32018,1,8,0:0:0:0:
88,46,32158,1,0,0:0:0:0:
48,59,32298,1,0,0:0:0:0:
22,92,32438,1,0,0:0:0:0:
19,134,32579,6,0,L|29:184,1,35
68,236,32859,1,0,0:0:0:0:
68,236,32999,2,0,P|91:210|105:176,1,70
111,143,33420,1,0,0:0:0:0:
111,143,33700,6,0,P|129:124|169:105,1,70,4|0,0:0|0:0,0:0:0:0:
204,103,34121,1,0,0:0:0:0:
240,107,34261,1,8,0:0:0:0:
268,87,34401,1,0,0:0:0:0:
281,55,34541,1,0,0:0:0:0:
281,55,34822,6,0,P|311:81|361:92,1,70
380,99,35242,1,0,0:0:0:0:
420,111,35382,1,0,0:0:0:0:
451,138,35522,1,0,0:0:0:0:
470,175,35662,1,0,0:0:0:0:
341,255,35943,6,0,L|384:183,1,83.9999974365235,4|0,0:0|0:0,0:0:0:0:
268,300,36504,2,0,P|300:330|347:344,2,83.9999974365235,8|0|0,0:0|0:0|0:0,0:0:0:0:
262,211,37345,1,0,0:0:0:0:
178,240,37626,2,0,P|157:252|122:256,1,41.9999987182618,8|0,0:0|0:0,0:0:0:0:
105,232,37906,2,0,P|84:237|66:249,1,41.9999987182618
32,272,38186,6,0,P|40:312|72:344,1,83.9999974365235,4|0,0:0|0:0,0:0:0:0:
204,380,38747,2,0,P|244:370|285:378,2,83.9999974365235,8|0|0,0:0|0:0|0:0,0:0:0:0:
139,199,39588,2,0,P|82:203|27:171,2,83.9999974365235
296,132,40430,5,4,0:0:0:0:
292,174,40570,1,0,0:0:0:0:
301,215,40710,2,0,P|358:219|413:187,2,83.9999974365235,0|8|0,0:0|0:0|0:0,0:0:0:0:
260,204,41411,1,0,0:0:0:0:
219,213,41551,1,0,0:0:0:0:
104,184,41831,2,0,P|88:156|88:132,1,41.9999987182618
160,136,42111,2,0,P|181:133|202:138,1,41.9999987182618
268,189,42391,1,0,0:0:0:0:
301,215,42531,1,0,0:0:0:0:
332,244,42672,6,0,P|376:256|418:246,1,83.9999974365235,4|0,0:0|0:0,0:0:0:0:
509,178,43233,1,8,0:0:0:0:
439,132,43513,2,0,P|398:124|358:136,1,83.9999974365235
286,207,44074,2,0,P|258:211|230:207,1,41.9999987182618
198,210,44355,2,0,P|148:205|100:213,1,83.9999974365235,8|0,0:0|0:0,0:0:0:0:
75,233,44775,1,0,0:0:0:0:
44,268,44915,6,0,P|60:312|92:332,1,83.9999974365235,4|0,0:0|0:0,0:0:0:0:
161,312,45336,1,0,0:0:0:0:
170,239,45476,2,0,P|214:259|234:308,1,83.9999974365235,8|0,0:0|0:0,0:0:0:0:
261,356,45897,1,0,0:0:0:0:
333,369,46037,2,0,P|373:377|421:369,1,83.9999974365235
470,321,46457,1,0,0:0:0:0:
400,297,46598,2,0,P|389:255|391:210,1,83.9999974365235,8|0,0:0|0:0,0:0:0:0:
452,175,47018,1,0,0:0:0:0:
394,129,47158,6,0,P|352:120|304:128,1,83.9999974365235,4|0,0:0|0:0,0:0:0:0:
279,153,47579,1,0,0:0:0:0:
252,185,47719,1,8,0:0:0:0:
152,288,47999,2,0,P|128:248|125:199,1,83.9999974365235
170,122,48560,1,0,0:0:0:0:
129,113,48700,1,0,0:0:0:0:
87,119,48841,2,0,P|50:145|29:185,1,83.9999974365235,8|0,0:0|0:0,0:0:0:0:
27,257,49261,1,0,0:0:0:0:
27,257,49401,6,0,L|71:312,1,41.9999987182618,4|0,0:0|0:0,0:0:0:0:
112,338,49682,1,0,0:0:0:0:
153,347,49822,1,0,0:0:0:0:
194,338,49962,2,0,L|241:329,1,41.9999987182618,8|0,0:0|0:0,0:0:0:0:
284,275,50242,1,0,0:0:0:0:
245,259,50383,1,0,0:0:0:0:
202,261,50523,2,0,P|182:262|161:258,1,41.9999987182618
107,209,50803,2,0,P|144:188|192:192,1,83.9999974365235,0|8,0:0|0:0,0:0:0:0:
245,259,51364,1,0,0:0:0:0:
383,332,51644,6,0,P|411:326|436:315,1,41.9999987182618,4|0,0:0|0:0,0:0:0:0:
458,297,51925,1,0,0:0:0:0:
478,260,52065,1,0,0:0:0:0:
476,218,52205,1,8,0:0:0:0:
380,148,52485,2,0,L|323:135,1,41.9999987182618
294,117,52766,5,8,0:0:0:0:
259,80,52906,1,8,0:0:0:0:
210,68,53046,1,8,0:0:0:0:
164,88,53186,1,8,0:0:0:0:
132,127,53327,2,0,P|132:169|150:206,1,83.9999974365235,8|0,0:0|0:0,0:0:0:0:
204,274,53747,1,0,0:0:0:0:
204,274,53887,6,0,P|236:214|208:142,2,139.999995727539,4|0|2,0:0|0:0|0:0,0:0:0:0:
99,325,55429,1,0,0:0:0:0:
76,297,55570,2,0,P|71:263|74:244,1,35
99,242,55850,2,0,P|98:207|91:190,1,35
77,180,56130,5,0,0:0:0:0:
192,80,56691,2,0,P|240:72|280:80,1,70
328,168,57252,2,0,P|280:176|240:168,1,70,2|0,0:0|0:0,0:0:0:0:
225,163,57672,1,0,0:0:0:0:
190,154,57813,2,0,P|148:152|104:168,1,70
88,175,58233,1,0,0:0:0:0:
68,208,58373,5,2,0:0:0:0:
68,208,58934,2,0,P|88:232|128:240,1,70
158,229,59355,1,0,0:0:0:0:
187,209,59495,2,0,B|234:197|236:224|280:206,1,70,2|0,0:0|0:0,0:0:0:0:
290,204,59915,1,0,0:0:0:0:
324,194,60056,2,0,P|373:169|394:141,1,70
401,129,60476,1,0,0:0:0:0:
440,114,60616,6,0,B|478:162|437:221|437:221|394:276|426:331,1,210,2|0,0:0|0:0,0:0:0:0:
372,380,61738,1,0,0:0:0:0:
336,304,62018,1,0,0:0:0:0:
350,221,62298,1,0,0:0:0:0:
269,244,62579,1,0,0:0:0:0:
240,264,62719,1,0,0:0:0:0:
208,278,62859,6,0,P|146:286|88:263,1,90.9999958343508,4|0,0:0|0:0,0:0:0:0:
76,262,63280,1,0,0:0:0:0:
48,226,63420,2,0,L|69:110,1,90.9999958343508,8|0,0:0|0:0,0:0:0:0:
115,39,63981,2,0,P|60:28|8:40,2,90.9999958343508,2|0|8,0:0|0:0|0:0,0:0:0:0:
158,54,64682,1,0,0:0:0:0:
193,82,64822,1,0,0:0:0:0:
214,122,64962,1,0,0:0:0:0:
216,167,65102,6,0,B|197:257,1,90.9999958343508,4|0,0:0|0:0,0:0:0:0:
190,301,65523,1,0,0:0:0:0:
216,338,65663,1,8,0:0:0:0:
278,270,65943,2,0,P|323:255|350:230,1,45.4999979171754
278,194,66224,2,0,L|178:218,1,90.9999958343508,0|2,0:0|0:0,0:0:0:0:
145,221,66644,1,0,0:0:0:0:
100,216,66784,2,0,P|62:220|48:234,1,45.4999979171754,8|0,0:0|0:0,0:0:0:0:
1,140,67065,2,0,P|22:149|45:147,1,45.4999979171754
88,124,67345,5,4,0:0:0:0:
225,84,67766,1,0,0:0:0:0:
209,126,67906,1,8,0:0:0:0:
215,171,68046,1,0,0:0:0:0:
243,207,68186,2,0,L|289:202,1,45.4999979171754
379,198,68467,6,0,P|408:260|348:360,1,181.999991668702,2|0,0:0|0:0,0:0:0:0:
284,344,69168,2,0,L|232:336,2,45.4999979171754
312,268,69588,6,0,L|269:245,2,45.4999979171754,4|8|8,0:0|0:0|0:0,0:0:0:0:
384,292,70009,1,0,0:0:0:0:
376,210,70149,2,0,L|340:180,2,45.4999979171754,8|0|0,0:0|0:0|0:0,0:0:0:0:
452,256,70570,1,0,0:0:0:0:
456,184,70710,6,0,P|432:148|389:125,1,90.9999958343508,8|0,0:0|0:0,0:0:0:0:
376,210,71270,2,0,P|352:210|288:154,1,90.9999958343508,8|0,0:0|0:0,0:0:0:0:
249,35,71831,6,0,L|147:13,1,105.000004005432,4|0,0:0|0:0,0:0:0:0:
29,102,72392,1,8,0:0:0:0:
130,208,72672,2,0,P|150:240|152:278,1,52.5000020027161
90,295,72953,2,0,P|128:325|200:313,1,105.000004005432
288,221,73513,2,0,L|315:119,1,105.000004005432,8|0,0:0|0:0,0:0:0:0:
198,29,74074,6,0,L|167:136,1,105.000004005432
132,272,74635,1,8,0:0:0:0:
276,243,74915,1,0,0:0:0:0:
278,96,75196,2,0,L|193:24,1,105.000004005432
195,176,75756,2,0,L|276:243,1,105.000004005432,8|0,0:0|0:0,0:0:0:0:
370,356,76317,6,0,P|404:312|420:248,1,105.000004005432
316,159,76878,1,8,0:0:0:0:
428,64,77158,1,0,0:0:0:0:
281,59,77439,2,0,L|317:163,1,105.000004005432
462,163,77999,2,0,L|427:63,1,105.000004005432,8|0,0:0|0:0,0:0:0:0:
287,18,78560,6,0,P|280:80|296:128,1,105.000004005432
252,262,79121,1,8,0:0:0:0:
252,262,79401,2,0,L|196:245,1,52.5000020027161
159,185,79682,2,0,P|127:244|158:303,1,105.000004005432
264,347,80242,2,0,L|366:370,1,105.000004005432,8|0,0:0|0:0,0:0:0:0:
498,305,80803,6,0,P|464:260|416:232,2,105.000004005432,0|0|8,0:0|0:0|0:0,0:0:0:0:
366,370,81644,1,0,0:0:0:0:
252,276,81925,2,0,L|270:172,1,105.000004005432
175,60,82485,2,0,L|155:172,1,105.000004005432,8|0,0:0|0:0,0:0:0:0:
26,231,83046,6,0,L|44:127,2,105.000004005432,0|0|8,0:0|0:0|0:0,0:0:0:0:
156,163,83887,2,0,P|197:164|224:153,1,52.5000020027161
259,106,84168,2,0,P|281:147|265:211,1,105.000004005432
187,323,84728,2,0,P|236:352|303:351,1,105.000004005432,8|0,0:0|0:0,0:0:0:0:
272,204,85289,6,0,L|396:187,2,105.000004005432,0|0|8,0:0|0:0|0:0,0:0:0:0:
144,136,86130,1,0,0:0:0:0:
276,73,86411,2,0,L|380:59,1,105.000004005432
464,179,86971,2,0,L|360:193,1,105.000004005432,8|0,0:0|0:0,0:0:0:0:
215,222,87532,6,0,P|230:273|271:307,2,105.000004005432,0|0|8,0:0|0:0|0:0,0:0:0:0:
359,193,88373,1,0,0:0:0:0:
478,279,88654,2,0,P|493:249|495:219,3,52.5000020027161
492,188,89214,1,8,0:0:0:0:
465,155,89354,1,0,0:0:0:0:
426,139,89494,1,0,0:0:0:0:
385,148,89634,1,0,0:0:0:0:
349,170,89775,6,0,P|296:192|248:188,1,105.000004005432,4|0,0:0|0:0,0:0:0:0:
110,140,90336,1,8,0:0:0:0:
172,6,90616,2,0,P|212:32|248:80,2,105.000004005432
110,140,91457,2,0,L|179:218,1,105.000004005432,8|0,0:0|0:0,0:0:0:0:
264,340,92018,6,0,P|200:364|144:360,1,105.000004005432
56,264,92579,1,8,0:0:0:0:
140,144,92859,2,0,P|188:123|239:129,2,105.000004005432
204,276,93700,2,0,L|187:391,1,105.000004005432,8|0,0:0|0:0,0:0:0:0:
332,348,94261,6,0,L|346:244,1,105.000004005432
362,97,94822,1,8,0:0:0:0:
227,155,95102,1,0,0:0:0:0:
346,243,95383,2,0,P|300:284|256:300,1,105.000004005432
227,155,95943,2,0,P|264:118|312:96,1,105.000004005432,8|0,0:0|0:0,0:0:0:0:
346,243,96504,6,0,L|411:340,1,105.000004005432
492,212,97065,1,8,0:0:0:0:
364,140,97345,2,0,P|338:134|316:119,1,52.5000020027161
276,57,97626,2,0,P|254:42|226:34,1,52.5000020027161
157,17,97906,1,0,0:0:0:0:
32,92,98186,2,0,P|29:149|49:191,1,105.000004005432,8|0,0:0|0:0,0:0:0:0:
120,320,98747,6,0,B|181:282|229:312|229:312|284:347|337:305,1,210.000008010865,4|8,0:0|0:0,0:0:0:0:
428,220,99588,1,0,0:0:0:0:
460,76,99869,2,0,P|433:33|388:5,1,105.000004005432
252,60,100429,2,0,P|275:106|317:136,1,105.000004005432,8|0,0:0|0:0,0:0:0:0:
432,228,100990,6,0,L|477:322,1,105.000004005432
336,368,101551,1,8,0:0:0:0:
353,221,101831,1,0,0:0:0:0:
453,114,102112,2,0,L|338:69,1,105.000004005432
254,183,102672,2,0,L|352:220,1,105.000004005432,8|0,0:0|0:0,0:0:0:0:
483,287,103233,6,0,P|444:338|397:357,1,105.000004005432
262,330,103794,1,8,0:0:0:0:
254,183,104074,1,0,0:0:0:0:
359,286,104355,2,0,P|416:240|424:200,1,105.000004005432
360,80,104915,2,0,L|249:48,1,105.000004005432,8|0,0:0|0:0,0:0:0:0:
153,153,105476,6,0,L|253:182,1,105.000004005432
393,230,106037,1,0,0:0:0:0:
275,318,106317,1,0,0:0:0:0:
376,346,106598,2,0,P|409:348|437:336,3,52.5000020027161
450,316,107158,1,8,0:0:0:0:
471,288,107298,1,0,0:0:0:0:
485,256,107438,1,0,0:0:0:0:
489,222,107578,1,0,0:0:0:0:
489,191,107719,6,0,L|436:107,1,90.9999958343508,4|0,0:0|0:0,0:0:0:0:
364,64,108280,2,0,P|309:65|276:82,1,90.9999958343508,8|0,0:0|0:0,0:0:0:0:
208,144,108841,2,0,L|246:330,1,181.999991668702,0|8,0:0|0:0,0:0:0:0:
331,350,109682,1,0,0:0:0:0:
317,260,109962,6,0,P|275:242|230:248,1,90.9999958343508
152,292,110522,1,8,0:0:0:0:
80,348,110803,2,0,P|64:272|120:208,1,140
172,188,111644,1,8,0:0:0:0:
212,112,111925,1,0,0:0:0:0:
188,32,112205,6,0,L|290:23,1,83.9999974365235
356,24,112766,1,8,0:0:0:0:
328,104,113046,1,0,0:0:0:0:
416,84,113327,2,0,P|415:132|379:176,1,83.9999974365235
318,191,113887,1,8,0:0:0:0:
367,259,114168,1,0,0:0:0:0:
284,271,114448,6,0,L|196:246,1,83.9999974365235
131,204,115009,1,8,0:0:0:0:
122,287,115289,1,0,0:0:0:0:
54,237,115570,2,0,P|51:184|71:144,1,83.9999974365235
125,100,116130,1,8,0:0:0:0:
49,63,116411,1,0,0:0:0:0:
120,18,116691,6,0,P|171:32|195:60,1,83.9999974365235
224,131,117252,1,8,0:0:0:0:
252,210,117532,6,0,B|176:183|171:274|219:293|283:337|283:337|325:280|363:254|341:166|265:193,1,419.999987182618
278,189,119495,5,8,0:0:0:0:
235,81,119775,2,0,L|196:65,1,41.9999987182618
156,52,120056,2,0,P|114:52|77:70,1,83.9999974365235,4|0,0:0|0:0,0:0:0:0:
52,184,120616,2,0,P|76:188|96:184,1,41.9999987182618,8|0,0:0|0:0,0:0:0:0:
143,278,120897,2,0,P|125:267|104:263,1,41.9999987182618
26,293,121177,5,4,0:0:0:0:
318,69,121738,1,8,0:0:0:0:
392,120,122018,2,0,P|362:150|322:161,1,83.9999974365235
232,140,122579,1,0,0:0:0:0:
256,228,122859,2,0,P|292:252|332:256,1,83.9999974365235,8|0,0:0|0:0,0:0:0:0:
420,224,123420,5,0,0:0:0:0:
263,316,123981,1,8,0:0:0:0:
193,273,124261,2,0,P|165:241|155:201,1,83.9999974365235
256,192,125102,5,0,0:0:0:0:
256,192,125383,1,0,0:0:0:0:
256,192,125663,12,0,127906,0:0:0:0:
