osu file format v14

[General]
AudioFilename: audio.mp3
AudioLeadIn: 0
PreviewTime: 70710
Countdown: 0
SampleSet: Soft
StackLeniency: 0.7
Mode: 0
LetterboxInBreaks: 0
WidescreenStoryboard: 0

[Editor]
DistanceSpacing: 1
BeatDivisor: 1
GridSize: 4
TimelineZoom: 1.4

[Metadata]
Title:Spring Day
TitleUnicode:봄날
Artist:BTS
ArtistUnicode:방탄소년단
Creator:Tae
Version:Easy
Source:
Tags:bangtan boys sonyeondan bangtansonyeondan beyond the scene bulletproof boy scouts bighit entertainment 빅히트엔터테인먼트 wings repackage you never walk alone 2nd special album 랩몬스터 슈가 진 제이홉 지민 뷔 정국 jungkook rap monster j-hope jimin v suga jin yoongi k-pop kpop short edit cut lapis aoki xiaolin firetruck
BeatmapID:1241054
BeatmapSetID:579173

[Difficulty]
HPDrainRate:2
CircleSize:3
OverallDifficulty:2
ApproachRate:3
SliderMultiplier:0.8
SliderTickRate:1

[Events]
//Background and Video events
0,0,"springday.jpg",0,0
//Break Periods
2,54087,61419
//Storyboard Layer 0 (Background)
//Storyboard Layer 1 (Fail)
//Storyboard Layer 2 (Pass)
//Storyboard Layer 3 (Foreground)
//Storyboard Sound Samples

[TimingPoints]
56,560.747663551402,4,2,1,50,1,0
13513,-133.333333333333,4,2,1,50,0,0
17999,-100,4,1,2,50,0,0
35943,-100,4,1,3,50,0,0
53887,-100,4,2,1,50,0,0
62859,-100,4,1,2,50,0,0
71831,-100,4,1,2,70,0,1
89214,-100,4,1,2,70,0,0
89775,-100,4,1,2,70,0,1
107158,-100,4,1,2,70,0,0
107719,-100,4,1,3,70,0,1
110803,-100,4,1,3,65,0,1
125663,-100,4,1,0,50,0,0
127906,-100,4,2,0,5,0,0

[Colours]
Combo1 : 254,131,183
Combo2 : 141,208,241
Combo3 : 202,164,249
Combo4 : 142,244,186

[HitObjects]
256,192,13513,12,2,15756,0:0:0:0:
227,90,17999,6,0,L|320:96,1,80,4|8,0:0|0:0,0:0:0:0:
448,288,20242,2,0,L|336:280,1,80,0|8,0:0|0:0,0:0:0:0:
288,277,21364,1,0,0:0:0:0:
246,345,21925,1,8,0:0:0:0:
184,294,22485,6,0,B|144:296|144:296|104:288,1,80,0|8,0:0|0:0,0:0:0:0:
12,169,24168,1,8,0:0:0:0:
73,118,24728,2,0,B|113:110|113:110|153:112,1,80,0|8,0:0|0:0,0:0:0:0:
230,130,25850,1,0,0:0:0:0:
177,190,26411,1,0,0:0:0:0:
254,210,26971,6,0,P|294:203|334:199,2,80,4|8|0,0:0|0:0|0:0,0:0:0:0:
200,269,28654,1,0,0:0:0:0:
277,289,29214,2,0,P|317:282|357:278,2,80,4|8|0,0:0|0:0|0:0,0:0:0:0:
226,351,30897,1,0,0:0:0:0:
304,368,31457,6,0,L|384:360,1,80,4|8,0:0|0:0,0:0:0:0:
463,351,32579,1,0,0:0:0:0:
416,286,33140,1,0,0:0:0:0:
464,222,33700,2,0,L|475:142,1,80,4|8,0:0|0:0,0:0:0:0:
490,64,34822,1,0,0:0:0:0:
411,78,35383,1,0,0:0:0:0:
338,45,35943,6,0,L|237:25,2,80,4|8|0,0:0|0:0|0:0,0:0:0:0:
341,125,37626,1,8,0:0:0:0:
418,145,38186,2,0,L|519:165,2,80,4|8|0,0:0|0:0|0:0,0:0:0:0:
374,212,39869,1,0,0:0:0:0:
296,194,40429,6,0,L|195:174,2,80,4|8|0,0:0|0:0|0:0,0:0:0:0:
313,272,42112,1,0,0:0:0:0:
391,289,42672,2,0,P|443:294|486:316,1,80,4|8,0:0|0:0,0:0:0:0:
502,377,43794,1,0,0:0:0:0:
422,377,44355,1,8,0:0:0:0:
342,371,44915,6,0,L|262:366,1,80,4|8,0:0|0:0,0:0:0:0:
184,344,46037,2,0,P|176:296|170:248,1,80,0|8,0:0|0:0,0:0:0:0:
163,185,47158,2,0,P|216:196|248:232,2,80,4|8|0,0:0|0:0|0:0,0:0:0:0:
83,193,48841,1,8,0:0:0:0:
113,119,49401,6,0,P|168:104|224:120,1,80,4|8,0:0|0:0,0:0:0:0:
263,139,50523,2,0,P|318:154|374:138,1,80,0|8,0:0|0:0,0:0:0:0:
406,106,51644,2,0,L|466:34,2,80,4|8|8,0:0|0:0|0:0,0:0:0:0:
409,186,53327,1,8,0:0:0:0:
343,231,53887,5,4,0:0:0:0:
291,187,62859,6,0,L|196:180,1,80,4|8,0:0|0:0,0:0:0:0:
131,174,63981,1,2,0:0:0:0:
178,109,64541,1,8,0:0:0:0:
128,46,65102,2,2,P|88:32|16:56,1,80,4|8,0:0|0:0,0:0:0:0:
3,100,66224,1,0,0:0:0:0:
76,132,66784,1,8,0:0:0:0:
18,187,67345,6,0,P|63:213|105:209,1,80,4|8,0:0|0:0,0:0:0:0:
163,180,68467,1,2,0:0:0:0:
233,218,69027,1,0,0:0:0:0:
312,204,69588,2,8,L|337:127,1,80,4|8,0:0|0:0,0:0:0:0:
366,53,70710,1,8,0:0:0:0:
417,114,71270,1,8,0:0:0:0:
400,192,71831,6,0,L|372:280,1,80,4|8,0:0|0:0,0:0:0:0:
347,343,72953,1,0,0:0:0:0:
295,282,73513,1,8,0:0:0:0:
309,203,74074,2,0,L|223:195,1,80,0|8,0:0|0:0,0:0:0:0:
149,195,75196,1,0,0:0:0:0:
183,267,75756,1,8,0:0:0:0:
106,289,76317,6,0,L|67:214,1,80,0|8,0:0|0:0,0:0:0:0:
26,150,77439,1,0,0:0:0:0:
70,83,77999,1,8,0:0:0:0:
112,151,78560,2,0,P|146:111|151:79,1,80,0|8,0:0|0:0,0:0:0:0:
147,5,79682,1,0,0:0:0:0:
220,37,80242,1,8,0:0:0:0:
237,115,80803,6,0,L|199:185,1,80,0|8,0:0|0:0,0:0:0:0:
160,255,81925,1,0,0:0:0:0:
239,264,82485,1,8,0:0:0:0:
286,199,83046,2,0,L|372:244,1,80,0|8,0:0|0:0,0:0:0:0:
429,271,84168,1,0,0:0:0:0:
457,195,84728,1,8,0:0:0:0:
385,158,85289,6,0,L|311:119,1,80,0|8,0:0|0:0,0:0:0:0:
241,86,86411,1,0,0:0:0:0:
280,16,86971,1,8,0:0:0:0:
349,56,87532,2,0,L|418:98,1,80,0|8,0:0|0:0,0:0:0:0:
474,154,88654,2,0,P|429:176|377:164,1,80,0|8,0:0|0:0,0:0:0:0:
336,126,89775,6,0,P|321:176|341:228,1,80,4|8,0:0|0:0,0:0:0:0:
383,258,90897,1,0,0:0:0:0:
310,289,91457,1,8,0:0:0:0:
249,237,92018,2,0,L|217:163,1,80,0|8,0:0|0:0,0:0:0:0:
177,94,93140,1,0,0:0:0:0:
101,119,93700,1,8,0:0:0:0:
128,194,94261,6,0,L|161:285,1,80,0|8,0:0|0:0,0:0:0:0:
181,345,95383,1,0,0:0:0:0:
102,332,95943,1,8,0:0:0:0:
41,279,96504,2,0,P|27:228|42:182,1,80,0|8,0:0|0:0,0:0:0:0:
79,137,97626,2,0,P|109:180|110:228,1,80,0|8,0:0|0:0,0:0:0:0:
131,284,98747,6,4,L|217:252,1,80,4|8,0:0|0:0,0:0:0:0:
281,228,99869,1,0,0:0:0:0:
265,306,100429,1,8,0:0:0:0:
341,282,100990,2,0,P|361:236|345:180,1,80,0|8,0:0|0:0,0:0:0:0:
319,137,102112,1,0,0:0:0:0:
398,128,102672,1,8,0:0:0:0:
448,65,103233,6,0,P|386:48|350:64,1,80,0|8,0:0|0:0,0:0:0:0:
303,91,104355,1,0,0:0:0:0:
231,56,104915,1,8,0:0:0:0:
156,83,105476,2,0,P|185:123|233:139,1,80,0|0,0:0|0:0,0:0:0:0:
291,148,106598,2,0,L|371:156,1,80,0|8,0:0|0:0,0:0:0:0:
450,163,107719,5,4,0:0:0:0:
408,231,108280,1,8,0:0:0:0:
327,229,108841,2,0,P|287:228|253:248,1,80,0|8,0:0|0:0,0:0:0:0:
308,307,109962,2,0,P|273:327|234:326,1,80,0|8,0:0|0:0,0:0:0:0:
171,278,111084,2,0,L|120:197,1,80,0|8,0:0|0:0,0:0:0:0:
92,139,112205,5,0,0:0:0:0:
79,60,112766,2,8,P|128:68|168:117,1,80,8|0,0:0|0:0,0:0:0:0:
193,156,113887,1,8,0:0:0:0:
235,88,114448,2,0,P|281:79|329:87,1,80,0|8,0:0|0:0,0:0:0:0:
392,99,115570,1,0,0:0:0:0:
461,140,116130,1,8,0:0:0:0:
391,178,116691,6,0,L|366:288,1,80,0|8,0:0|0:0,0:0:0:0:
346,331,117813,2,0,P|393:336|425:320,2,80,0|0|0,0:0|0:0|0:0,0:0:0:0:
283,281,119495,1,8,0:0:0:0:
311,206,120056,2,0,P|253:207|221:231,1,80,4|8,0:0|0:0,0:0:0:0:
167,260,121177,5,4,0:0:0:0:
153,181,121738,2,0,L|138:102,1,80,8|0,0:0|0:0,0:0:0:0:
126,23,122859,1,8,0:0:0:0:
46,31,123420,1,0,0:0:0:0:
58,110,123981,2,0,L|73:189,1,80,8|0,0:0|0:0,0:0:0:0:
89,267,125102,1,0,0:0:0:0:
256,192,125663,12,0,127906,0:0:0:0:
