osu file format v14

[General]
AudioFilename: audio.mp3
AudioLeadIn: 0
PreviewTime: 53607
Countdown: 0
SampleSet: Normal
StackLeniency: 0.7
Mode: 2
LetterboxInBreaks: 0
WidescreenStoryboard: 0

[Editor]
DistanceSpacing: 1.4
BeatDivisor: 4
GridSize: 8
TimelineZoom: 1

[Metadata]
Title:Spring Day
TitleUnicode:봄날
Artist:BTS
ArtistUnicode:방탄소년단
Creator:- Magic Bomb -
Version:Salad
Source:
Tags:MBomb bangtan boys sonyeondan bangtansonyeondan beyond the scene bulletproof scouts bighit entertainment 빅히트엔터테인먼트 wings repackage you never walk alone 2nd special album 랩몬스터 슈가 진 제이홉 지민 뷔 정국 jungkook rap monster j-hope jimin v suga jin yoongi k-pop kpop short edit cut
BeatmapID:1380854
BeatmapSetID:651075

[Difficulty]
HPDrainRate:4
CircleSize:3.5
OverallDifficulty:6.5
ApproachRate:6.5
SliderMultiplier:1.9
SliderTickRate:1

[Events]
//Background and Video events
0,0,"thanks firetruck.jpg",0,0
//Break Periods
2,54087,61884
//Storyboard Layer 0 (Background)
//Storyboard Layer 1 (Fail)
//Storyboard Layer 2 (Pass)
//Storyboard Layer 3 (Foreground)
//Storyboard Sound Samples

[TimingPoints]
56,560.747663551402,4,2,1,50,1,0
17999,-100,4,1,2,50,0,0
35943,-100,4,1,3,40,0,0
53887,-100,4,2,1,50,0,0
62859,-100,4,1,2,50,0,0
71831,-100,4,1,2,70,0,1
106037,-100,4,1,2,70,0,0
107719,-100,4,1,3,60,0,1
125663,-100,4,2,0,15,0,0

[Colours]
Combo1 : 255,255,128
Combo2 : 255,47,47
Combo3 : 0,187,187

[HitObjects]
256,192,13513,12,0,17439,0:0:0:0:
176,192,17999,5,4,0:0:0:0:
384,192,18560,1,8,0:0:0:0:
256,192,18841,2,0,L|464:192,1,190,0|0,0:0|0:0,0:0:0:0:
304,192,19682,1,8,0:0:0:0:
416,192,19962,1,0,0:0:0:0:
256,192,20242,6,0,L|136:192,2,95,0|0|8,0:0|0:0|0:0,0:0:0:0:
400,192,21084,1,0,0:0:0:0:
208,192,21644,1,0,0:0:0:0:
424,192,22205,1,0,0:0:0:0:
176,192,22485,5,0,0:0:0:0:
376,192,23046,1,8,0:0:0:0:
248,192,23327,2,0,L|56:192,1,190,0|0,0:0|0:0,0:0:0:0:
200,192,24168,1,8,0:0:0:0:
88,192,24448,1,0,0:0:0:0:
248,192,24728,6,0,L|344:192,2,95,0|0|8,0:0|0:0|0:0,0:0:0:0:
104,192,25570,1,0,0:0:0:0:
296,192,26130,1,0,0:0:0:0:
80,192,26691,1,0,0:0:0:0:
328,192,26971,5,4,0:0:0:0:
120,192,27532,1,8,0:0:0:0:
248,192,27813,1,0,0:0:0:0:
440,192,28373,1,0,0:0:0:0:
224,192,28934,1,0,0:0:0:0:
472,192,29214,5,4,0:0:0:0:
264,192,29775,1,8,0:0:0:0:
136,192,30056,2,0,P|216:128|320:120,1,190
496,192,31177,1,0,0:0:0:0:
248,192,31457,6,0,L|152:192,1,95,4|0,0:0|0:0,0:0:0:0:
272,192,32018,1,8,0:0:0:0:
376,192,32298,1,0,0:0:0:0:
240,192,32579,2,0,L|344:192,2,95,0|0|8,0:0|0:0|0:0,0:0:0:0:
104,192,33420,1,0,0:0:0:0:
256,192,33700,6,0,L|360:192,2,95,4|0|8,0:0|0:0|0:0,0:0:0:0:
144,192,34541,1,0,0:0:0:0:
392,192,34822,1,0,0:0:0:0:
280,192,35102,1,0,0:0:0:0:
392,192,35383,1,8,0:0:0:0:
488,192,35663,1,0,0:0:0:0:
240,192,35943,6,0,P|168:160|248:128,1,190,4|8,0:0|0:0,0:0:0:0:
384,192,36784,1,0,0:0:0:0:
176,192,37345,2,0,L|80:192,2,95,0|8|0,0:0|0:0|0:0,0:0:0:0:
432,192,38186,6,0,P|496:160|424:120,1,190,4|8,0:0|0:0,0:0:0:0:
288,192,39027,1,0,0:0:0:0:
64,192,39588,2,0,L|168:192,2,95,0|8|0,0:0|0:0|0:0,0:0:0:0:
320,192,40429,5,4,0:0:0:0:
152,192,40850,1,0,0:0:0:0:
320,192,41270,2,0,L|424:192,1,95,0|0,0:0|0:0,0:0:0:0:
288,192,41831,2,0,L|408:192,2,95,0|8|0,0:0|0:0|0:0,0:0:0:0:
32,192,42672,6,0,P|16:160|64:144,1,95,4|0,0:0|0:0,0:0:0:0:
192,192,43233,1,8,0:0:0:0:
88,192,43513,1,0,0:0:0:0:
304,192,44074,2,0,L|424:192,2,95,0|8|0,0:0|0:0|0:0,0:0:0:0:
56,192,44915,5,4,0:0:0:0:
216,192,45336,1,0,0:0:0:0:
32,192,45756,1,0,0:0:0:0:
288,192,46037,1,0,0:0:0:0:
488,192,46457,1,0,0:0:0:0:
360,192,46878,1,0,0:0:0:0:
224,192,47158,5,4,0:0:0:0:
88,192,47579,1,0,0:0:0:0:
312,192,47999,1,0,0:0:0:0:
104,192,48560,2,0,L|8:192,2,95,0|8|0,0:0|0:0|0:0,0:0:0:0:
360,192,49401,6,0,L|472:192,2,95,4|0|8,0:0|0:0|0:0,0:0:0:0:
256,192,50242,1,0,0:0:0:0:
400,192,50523,2,0,L|256:192,1,142.5
448,192,51364,1,0,0:0:0:0:
200,192,51644,6,0,L|88:192,2,95,4|0|8,0:0|0:0|0:0,0:0:0:0:
352,192,52485,1,0,0:0:0:0:
224,192,52766,2,0,L|128:192,1,95,8|8,0:0|0:0,0:0:0:0:
264,192,53327,1,8,0:0:0:0:
120,192,53607,1,8,0:0:0:0:
368,192,53887,5,4,0:0:0:0:
144,192,62859,5,4,0:0:0:0:
336,192,63420,2,0,L|224:192,1,95,8|0,0:0|0:0,0:0:0:0:
376,192,63981,2,0,L|480:192,2,95,2|0|8,0:0|0:0|0:0,0:0:0:0:
240,192,64822,1,0,0:0:0:0:
376,192,65102,6,0,L|480:192,1,95,4|0,0:0|0:0,0:0:0:0:
224,192,65943,1,0,0:0:0:0:
104,192,66224,2,0,L|184:136,1,95,2|0,0:0|0:0,0:0:0:0:
48,192,66784,1,8,0:0:0:0:
192,192,67065,1,0,0:0:0:0:
440,192,67345,5,4,0:0:0:0:
192,192,67906,2,0,L|96:192,1,95,8|0,0:0|0:0,0:0:0:0:
352,192,68467,2,0,L|504:192,2,142.5,2|0|0,0:0|0:0|0:0,0:0:0:0:
216,192,69588,6,0,L|312:192,2,95,4|8|8,0:0|0:0|0:0,0:0:0:0:
416,192,70710,2,0,P|456:168|416:136,1,95,8|0,0:0|0:0,0:0:0:0:
288,192,71270,2,0,L|400:192,1,95,8|0,0:0|0:0,0:0:0:0:
128,192,71831,6,0,P|64:152|144:120,1,190,4|8,0:0|0:0,0:0:0:0:
256,192,72672,1,0,0:0:0:0:
112,192,72953,2,0,P|48:152|120:112,1,190,0|8,0:0|0:0,0:0:0:0:
352,192,74074,6,0,P|464:176|488:112,1,190,0|8,0:0|0:0,0:0:0:0:
352,192,74915,1,0,0:0:0:0:
192,192,75196,1,0,0:0:0:0:
456,192,75756,1,8,0:0:0:0:
72,192,76317,6,0,P|16:152|96:120,1,190,0|8,0:0|0:0,0:0:0:0:
216,192,77158,1,0,0:0:0:0:
376,192,77439,2,0,P|448:152|360:120,1,190,0|8,0:0|0:0,0:0:0:0:
160,192,78560,6,0,L|360:192,1,190,0|8,0:0|0:0,0:0:0:0:
232,192,79401,1,0,0:0:0:0:
360,192,79682,1,0,0:0:0:0:
96,192,80242,1,8,0:0:0:0:
488,192,80803,6,0,P|448:136|328:112,1,190,0|8,0:0|0:0,0:0:0:0:
208,192,81644,1,0,0:0:0:0:
80,192,81925,1,0,0:0:0:0:
320,192,82485,1,8,0:0:0:0:
80,192,83046,6,0,P|56:144|160:112,1,190,0|8,0:0|0:0,0:0:0:0:
280,192,83887,1,0,0:0:0:0:
152,192,84168,1,0,0:0:0:0:
416,192,84728,1,8,0:0:0:0:
24,192,85289,6,0,P|56:144|184:112,1,190,0|8,0:0|0:0,0:0:0:0:
304,192,86130,1,0,0:0:0:0:
432,192,86411,1,0,0:0:0:0:
208,192,86971,1,8,0:0:0:0:
432,192,87532,6,0,P|488:152|408:120,1,190,0|8,0:0|0:0,0:0:0:0:
296,192,88373,1,0,0:0:0:0:
416,192,88654,2,0,P|444:168|400:152,1,95,8|8,0:0|0:0,0:0:0:0:
256,192,89214,2,0,L|144:192,1,95,8|8,0:0|0:0,0:0:0:0:
416,192,89775,6,0,P|488:160|408:128,1,190,4|8,0:0|0:0,0:0:0:0:
304,192,90616,1,0,0:0:0:0:
440,192,90897,2,0,P|360:128|272:128,1,190,0|8,0:0|0:0,0:0:0:0:
48,192,92018,6,0,P|120:136|232:128,1,190,0|8,0:0|0:0,0:0:0:0:
336,192,92859,1,0,0:0:0:0:
208,192,93140,1,0,0:0:0:0:
432,192,93700,1,8,0:0:0:0:
48,192,94261,6,0,P|16:152|120:96,1,190,0|8,0:0|0:0,0:0:0:0:
232,192,95102,1,0,0:0:0:0:
96,192,95383,2,0,L|312:192,1,190,0|8,0:0|0:0,0:0:0:0:
64,192,96504,6,0,P|24:160|128:120,1,190,0|8,0:0|0:0,0:0:0:0:
232,192,97345,1,0,0:0:0:0:
352,192,97626,2,0,L|248:192,1,95,0|0,0:0|0:0,0:0:0:0:
112,192,98186,1,8,0:0:0:0:
496,192,98747,6,0,P|448:120|328:104,1,190,4|8,0:0|0:0,0:0:0:0:
216,192,99588,1,0,0:0:0:0:
352,192,99869,2,0,P|411:185|432:144,1,95,0|0,0:0|0:0,0:0:0:0:
288,192,100429,1,8,0:0:0:0:
496,192,100990,6,0,P|448:120|328:104,1,190,0|8,0:0|0:0,0:0:0:0:
472,192,101831,1,0,0:0:0:0:
352,192,102112,2,0,L|240:192,1,95,0|0,0:0|0:0,0:0:0:0:
400,192,102672,1,8,0:0:0:0:
16,192,103233,6,0,P|64:128|184:112,1,190,0|8,0:0|0:0,0:0:0:0:
296,192,104074,1,0,0:0:0:0:
416,192,104355,2,0,L|320:192,1,95,0|0,0:0|0:0,0:0:0:0:
448,192,104915,1,8,0:0:0:0:
176,192,105476,5,0,0:0:0:0:
400,192,106037,2,0,L|504:192,1,95,8|0,0:0|0:0,0:0:0:0:
240,192,106598,2,0,L|144:192,1,95,8|8,0:0|0:0,0:0:0:0:
272,192,107158,2,0,L|368:192,1,95,8|8,0:0|0:0,0:0:0:0:
112,192,107719,6,0,P|48:144|128:112,1,190,4|8,0:0|0:0,0:0:0:0:
240,192,108560,1,0,0:0:0:0:
376,192,108841,2,0,L|160:192,1,190,0|8,0:0|0:0,0:0:0:0:
320,192,109682,1,0,0:0:0:0:
168,192,109962,6,0,L|64:192,2,95,0|0|8,0:0|0:0|0:0,0:0:0:0:
424,192,110803,2,0,P|464:144|368:120,1,190,0|0,0:0|0:0,0:0:0:0:
240,192,111644,2,0,L|136:192,1,95,8|0,0:0|0:0,0:0:0:0:
280,192,112205,5,0,0:0:0:0:
50,192,112766,2,0,L|146:192,1,95,8|0,0:0|0:0,0:0:0:0:
280,192,113327,2,0,P|344:160|336:120,1,95,0|0,0:0|0:0,0:0:0:0:
216,192,113887,1,8,0:0:0:0:
336,192,114168,1,0,0:0:0:0:
192,192,114448,6,0,L|88:192,2,95,0|0|8,0:0|0:0|0:0,0:0:0:0:
320,192,115289,2,0,L|104:192,1,190,0|0,0:0|0:0,0:0:0:0:
256,192,116130,1,8,0:0:0:0:
384,192,116411,1,0,0:0:0:0:
130,192,116691,6,0,L|34:192,2,95,0|0|8,0:0|0:0|0:0,0:0:0:0:
272,192,117532,2,0,P|408:168|448:128,1,190,0|0,0:0|0:0,0:0:0:0:
296,192,118373,2,0,L|416:192,1,95,8|0,0:0|0:0,0:0:0:0:
248,192,118934,5,0,0:0:0:0:
480,192,119495,1,8,0:0:0:0:
344,192,119775,1,0,0:0:0:0:
232,192,120056,2,0,L|328:192,2,95,4|0|8,0:0|0:0|0:0,0:0:0:0:
368,192,120897,1,0,0:0:0:0:
496,192,121177,5,4,0:0:0:0:
296,192,121738,1,8,0:0:0:0:
160,192,122018,1,0,0:0:0:0:
416,192,122298,2,0,L|320:192,1,95
176,192,122859,2,0,L|64:192,1,95,8|0,0:0|0:0,0:0:0:0:
336,192,123420,6,0,L|432:192,1,95
288,192,123981,1,8,0:0:0:0:
408,192,124261,2,0,L|312:192,2,95
240,192,125102,1,8,0:0:0:0:
496,192,125383,2,0,P|408:128|136:192,1,380,0|0,0:0|0:0,0:0:0:0:
