osu file format v14

[General]
AudioFilename: audio.mp3
AudioLeadIn: 0
PreviewTime: 53607
Countdown: 0
SampleSet: Normal
StackLeniency: 0.7
Mode: 2
LetterboxInBreaks: 0
WidescreenStoryboard: 0

[Editor]
DistanceSpacing: 1.4
BeatDivisor: 4
GridSize: 8
TimelineZoom: 1

[Metadata]
Title:Spring Day
TitleUnicode:봄날
Artist:BTS
ArtistUnicode:방탄소년단
Creator:- Magic Bomb -
Version:Cup
Source:
Tags:MBomb bangtan boys sonyeondan bangtansonyeondan beyond the scene bulletproof scouts bighit entertainment 빅히트엔터테인먼트 wings repackage you never walk alone 2nd special album 랩몬스터 슈가 진 제이홉 지민 뷔 정국 jungkook rap monster j-hope jimin v suga jin yoongi k-pop kpop short edit cut
BeatmapID:1382466
BeatmapSetID:651075

[Difficulty]
HPDrainRate:3
CircleSize:2.5
OverallDifficulty:5.5
ApproachRate:5.5
SliderMultiplier:1.7
SliderTickRate:1

[Events]
//Background and Video events
0,0,"thanks firetruck.jpg",0,0
//Break Periods
2,54087,61734
//Storyboard Layer 0 (Background)
//Storyboard Layer 1 (Fail)
//Storyboard Layer 2 (Pass)
//Storyboard Layer 3 (Foreground)
//Storyboard Sound Samples

[TimingPoints]
56,560.747663551402,4,2,1,50,1,0
17999,-100,4,1,2,50,0,0
35943,-100,4,1,3,40,0,0
53887,-100,4,2,1,50,0,0
62859,-100,4,1,2,50,0,0
71831,-100,4,1,2,70,0,1
106037,-100,4,1,2,70,0,0
107719,-100,4,1,3,60,0,1
125663,-100,4,2,0,15,0,0

[Colours]
Combo1 : 255,255,128
Combo2 : 255,47,47
Combo3 : 0,187,187

[HitObjects]
256,192,13513,12,0,17439,0:0:0:0:
200,192,17999,5,4,0:0:0:0:
384,192,18560,2,0,L|288:192,1,85,8|0,0:0|0:0,0:0:0:0:
136,192,19401,1,0,0:0:0:0:
248,192,19682,1,8,0:0:0:0:
48,192,20242,5,0,0:0:0:0:
232,192,20803,1,8,0:0:0:0:
112,192,21084,2,0,P|56:152|128:120,1,170
232,192,21925,1,8,0:0:0:0:
408,192,22485,5,0,0:0:0:0:
224,192,23046,2,0,L|320:192,1,85,8|0,0:0|0:0,0:0:0:0:
128,192,23887,1,0,0:0:0:0:
16,192,24168,1,8,0:0:0:0:
232,192,24728,5,0,0:0:0:0:
32,192,25289,1,8,0:0:0:0:
152,192,25570,2,0,P|208:152|136:128,1,170
32,192,26411,1,0,0:0:0:0:
208,192,26971,5,4,0:0:0:0:
472,192,27813,1,0,0:0:0:0:
302,192,28373,2,0,L|478:192,1,170,0|0,0:0|0:0,0:0:0:0:
344,192,29214,5,4,0:0:0:0:
72,192,30056,1,0,0:0:0:0:
242,192,30616,2,0,L|66:192,1,170
200,192,31457,5,4,0:0:0:0:
384,192,32018,2,0,L|472:192,1,85,8|0,0:0|0:0,0:0:0:0:
288,192,32859,1,0,0:0:0:0:
400,192,33140,1,8,0:0:0:0:
192,192,33700,5,4,0:0:0:0:
32,192,34261,1,8,0:0:0:0:
144,192,34541,2,0,L|320:192,1,170,0|0,0:0|0:0,0:0:0:0:
208,192,35383,1,8,0:0:0:0:
312,192,35663,1,0,0:0:0:0:
432,192,35943,6,0,P|472:152|392:112,1,170,4|8,0:0|0:0,0:0:0:0:
288,192,36784,1,0,0:0:0:0:
118,192,37345,2,0,L|318:192,1,170
160,192,38186,6,0,P|96:152|160:112,1,170,4|8,0:0|0:0,0:0:0:0:
264,192,39027,1,0,0:0:0:0:
88,192,39588,2,0,L|8:160,2,85
216,192,40429,6,0,L|360:192,2,127.5,4|0|0,0:0|0:0|0:0,0:0:0:0:
104,192,41551,1,0,0:0:0:0:
216,192,41831,2,0,P|280:144|208:128,1,170
96,192,42672,6,0,P|32:168|88:112,1,170,4|8,0:0|0:0,0:0:0:0:
200,192,43513,1,0,0:0:0:0:
384,192,44074,2,0,L|480:192,2,85
264,192,44915,6,0,L|128:192,2,127.5,4|0|0,0:0|0:0|0:0,0:0:0:0:
392,192,46037,2,0,L|224:192,2,127.5
240,192,47158,6,0,L|104:192,1,127.5,4|0,0:0|0:0,0:0:0:0:
264,192,47999,1,0,0:0:0:0:
72,192,48560,2,0,P|24:160|96:112,1,170,0|0,0:0|0:0,0:0:0:0:
208,192,49401,6,0,L|400:192,1,170,4|8,0:0|0:0,0:0:0:0:
280,192,50242,1,0,0:0:0:0:
168,192,50523,2,0,L|32:192,1,127.5
232,192,51364,1,0,0:0:0:0:
352,192,51644,6,0,P|408:136|352:120,1,170,4|8,0:0|0:0,0:0:0:0:
240,192,52485,1,0,0:0:0:0:
360,192,52766,1,8,0:0:0:0:
440,192,53046,1,8,0:0:0:0:
360,192,53326,1,8,0:0:0:0:
240,192,53607,1,8,0:0:0:0:
96,192,53887,5,4,0:0:0:0:
176,192,62859,5,4,0:0:0:0:
360,192,63420,1,8,0:0:0:0:
160,192,63981,2,0,P|96:152|160:128,1,170,2|0,0:0|0:0,0:0:0:0:
296,192,64822,6,0,P|352:128|304:112,1,170
104,192,65943,1,2,0:0:0:0:
200,192,66224,1,0,0:0:0:0:
288,192,66504,1,0,0:0:0:0:
176,192,66784,1,8,0:0:0:0:
40,192,67065,6,0,P|16:152|112:104,1,170
208,192,67906,1,8,0:0:0:0:
416,192,68467,2,0,L|288:192,2,127.5,2|0|0,0:0|0:0|0:0,0:0:0:0:
288,192,69588,5,4,0:0:0:0:
480,192,70149,1,8,0:0:0:0:
264,192,70710,2,0,L|160:192,1,85,8|0,0:0|0:0,0:0:0:0:
304,192,71270,2,0,L|408:192,1,85,8|0,0:0|0:0,0:0:0:0:
240,192,71831,6,0,P|176:136|224:104,1,170,4|8,0:0|0:0,0:0:0:0:
352,192,72672,1,0,0:0:0:0:
240,192,72953,1,0,0:0:0:0:
32,192,73513,1,8,0:0:0:0:
240,192,74074,5,0,0:0:0:0:
16,192,74915,1,0,0:0:0:0:
144,192,75196,2,0,P|240:168|272:88,1,170,0|8,0:0|0:0,0:0:0:0:
56,192,76317,5,0,0:0:0:0:
328,192,77158,1,0,0:0:0:0:
208,192,77439,1,0,0:0:0:0:
416,192,77999,1,8,0:0:0:0:
208,192,78560,5,0,0:0:0:0:
480,192,79401,1,0,0:0:0:0:
376,192,79682,1,0,0:0:0:0:
144,192,80242,1,8,0:0:0:0:
376,192,80803,6,0,P|448:136|384:104,1,170,0|8,0:0|0:0,0:0:0:0:
304,192,81644,1,0,0:0:0:0:
416,192,81925,1,0,0:0:0:0:
224,192,82485,1,8,0:0:0:0:
32,192,83046,6,0,P|48:144|168:128,1,170
256,192,83887,1,0,0:0:0:0:
360,192,84168,1,0,0:0:0:0:
128,192,84728,1,8,0:0:0:0:
360,192,85289,6,0,L|184:192,1,170,0|8,0:0|0:0,0:0:0:0:
296,192,86130,1,0,0:0:0:0:
176,192,86411,1,0,0:0:0:0:
368,192,86971,1,8,0:0:0:0:
176,192,87532,6,0,L|360:192,1,170,0|8,0:0|0:0,0:0:0:0:
144,192,88654,2,0,L|232:192,1,85,8|8,0:0|0:0,0:0:0:0:
352,192,89214,2,0,L|264:192,1,85,8|8,0:0|0:0,0:0:0:0:
120,192,89775,6,0,P|56:152|120:112,1,170,4|8,0:0|0:0,0:0:0:0:
248,192,90616,1,0,0:0:0:0:
376,192,90897,1,0,0:0:0:0:
176,192,91457,1,8,0:0:0:0:
400,192,92018,5,0,0:0:0:0:
128,192,92859,1,0,0:0:0:0:
16,192,93140,1,0,0:0:0:0:
232,192,93700,1,8,0:0:0:0:
456,192,94261,5,0,0:0:0:0:
184,192,95102,1,0,0:0:0:0:
312,192,95383,2,0,P|376:152|312:136,1,170,0|8,0:0|0:0,0:0:0:0:
120,192,96504,5,0,0:0:0:0:
368,192,97345,1,0,0:0:0:0:
256,192,97626,2,0,L|168:192,1,85,0|0,0:0|0:0,0:0:0:0:
304,192,98186,1,8,0:0:0:0:
88,192,98747,6,0,P|40:160|128:136,1,170,4|8,0:0|0:0,0:0:0:0:
216,192,99588,1,0,0:0:0:0:
328,192,99869,2,0,L|232:192,1,85,0|0,0:0|0:0,0:0:0:0:
112,192,100429,1,8,0:0:0:0:
320,192,100990,5,0,0:0:0:0:
96,192,101831,1,0,0:0:0:0:
208,192,102112,2,0,L|296:192,1,85,0|0,0:0|0:0,0:0:0:0:
160,192,102672,1,8,0:0:0:0:
384,192,103233,6,0,P|432:160|344:136,1,170,0|8,0:0|0:0,0:0:0:0:
256,192,104074,1,0,0:0:0:0:
376,192,104355,2,0,L|472:192,1,85
336,192,104915,1,8,0:0:0:0:
112,192,105476,5,0,0:0:0:0:
344,192,106037,1,8,0:0:0:0:
128,192,106598,2,0,L|40:192,1,85,8|8,0:0|0:0,0:0:0:0:
160,192,107158,2,0,L|56:192,1,85,8|8,0:0|0:0,0:0:0:0:
224,192,107719,5,4,0:0:0:0:
440,192,108280,2,0,L|264:192,1,170,8|0,0:0|0:0,0:0:0:0:
456,192,109401,2,0,L|352:192,1,85,8|0,0:0|0:0,0:0:0:0:
240,192,109962,5,0,0:0:0:0:
48,192,110523,1,8,0:0:0:0:
184,192,110803,2,0,B|368:192|400:112|264:104,1,255,0|8,0:0|0:0,0:0:0:0:
104,192,112205,5,0,0:0:0:0:
304,192,112766,2,0,L|208:192,1,85,8|0,0:0|0:0,0:0:0:0:
360,192,113327,2,0,P|440:160|456:80,1,170,0|8,0:0|0:0,0:0:0:0:
256,192,114448,6,0,L|160:192,2,85,0|0|8,0:0|0:0|0:0,0:0:0:0:
368,192,115289,2,0,L|112:192,1,255,0|8,0:0|0:0,0:0:0:0:
320,192,116691,5,0,0:0:0:0:
120,192,117252,1,8,0:0:0:0:
256,192,117532,2,0,P|320:144|248:120,1,170,0|0,0:0|0:0,0:0:0:0:
144,192,118373,2,0,L|48:192,1,85,8|0,0:0|0:0,0:0:0:0:
168,192,118934,5,0,0:0:0:0:
384,192,119775,1,0,0:0:0:0:
272,192,120056,2,0,L|456:192,1,170,4|8,0:0|0:0,0:0:0:0:
312,192,120897,5,0,0:0:0:0:
80,192,121738,1,8,0:0:0:0:
208,192,122018,1,0,0:0:0:0:
456,192,122859,2,0,L|352:192,1,85,8|0,0:0|0:0,0:0:0:0:
112,192,123981,6,0,L|16:192,1,85,8|0,0:0|0:0,0:0:0:0:
312,192,125102,1,8,0:0:0:0:
432,192,125383,2,0,B|496:168|490:149|479:131|192:120,1,340,0|0,0:0|0:0,0:0:0:0:
