osu file format v14

[General]
AudioFilename: audio.mp3
AudioLeadIn: 0
PreviewTime: 53607
Countdown: 0
SampleSet: Normal
StackLeniency: 0.7
Mode: 2
LetterboxInBreaks: 0
WidescreenStoryboard: 0

[Editor]
DistanceSpacing: 1.4
BeatDivisor: 4
GridSize: 8
TimelineZoom: 1

[Metadata]
Title:Spring Day
TitleUnicode:봄날
Artist:BTS
ArtistUnicode:방탄소년단
Creator:- Magic Bomb -
Version:After Winter
Source:
Tags:MBomb bangtan boys sonyeondan bangtansonyeondan beyond the scene bulletproof scouts bighit entertainment 빅히트엔터테인먼트 wings repackage you never walk alone 2nd special album 랩몬스터 슈가 진 제이홉 지민 뷔 정국 jungkook rap monster j-hope jimin v suga jin yoongi k-pop kpop short edit cut
BeatmapID:1379469
BeatmapSetID:651075

[Difficulty]
HPDrainRate:6
CircleSize:5.5
OverallDifficulty:8.5
ApproachRate:8.5
SliderMultiplier:2.3
SliderTickRate:2

[Events]
//Background and Video events
0,0,"thanks firetruck.jpg",0,0
//Break Periods
2,54087,62184
//Storyboard Layer 0 (Background)
//Storyboard Layer 1 (Fail)
//Storyboard Layer 2 (Pass)
//Storyboard Layer 3 (Foreground)
//Storyboard Sound Samples

[TimingPoints]
56,560.747663551402,4,2,1,50,1,0
17999,-100,4,1,2,50,0,0
35943,-100,4,1,3,40,0,0
53887,-100,4,2,1,50,0,0
62859,-100,4,1,2,50,0,0
71831,-100,4,1,2,70,0,1
106037,-100,4,1,2,70,0,0
107719,-100,4,1,3,60,0,1
125663,-100,4,2,0,15,0,0

[Colours]
Combo1 : 255,255,128
Combo2 : 255,47,47
Combo3 : 0,187,187

[HitObjects]
256,192,13513,12,0,17439,0:0:0:0:
200,192,17999,6,0,L|80:192,1,115,4|0,0:0|0:0,0:0:0:0:
312,192,18560,1,8,0:0:0:0:
85,192,18841,2,0,L|205:192,1,115
424,192,19401,1,0,0:0:0:0:
232,192,19682,1,8,0:0:0:0:
168,184,19822,1,0,0:0:0:0:
162,131,19962,1,0,0:0:0:0:
223,108,20102,1,0,0:0:0:0:
424,192,20242,6,0,P|480:152|456:120,1,115
352,192,20663,1,0,0:0:0:0:
224,192,20803,1,8,0:0:0:0:
464,192,21084,2,0,L|400:192,1,57.5,0|0,0:0|0:0,0:0:0:0:
136,192,21644,2,0,L|200:192,1,57.5,0|0,0:0|0:0,0:0:0:0:
336,192,21925,2,0,L|416:192,2,57.5,8|0|0,0:0|0:0|0:0,0:0:0:0:
256,192,22345,1,0,0:0:0:0:
56,192,22485,6,0,P|24:144|80:136,1,115,0|0,0:0|0:0,0:0:0:0:
288,192,23046,1,8,0:0:0:0:
64,192,23327,2,0,P|32:144|72:128,1,115,0|0,0:0|0:0,0:0:0:0:
288,192,23887,1,0,0:0:0:0:
488,192,24168,2,0,L|416:192,3,57.5,8|0|0|0,0:0|0:0|0:0|0:0,0:0:0:0:
216,192,24728,6,0,L|136:192,1,57.5,0|0,0:0|0:0,0:0:0:0:
296,192,25009,2,0,L|376:192,1,57.5
216,192,25289,1,8,0:0:0:0:
411,192,25570,2,0,L|347:192,1,57.5
72,192,26130,2,0,L|8:192,1,57.5,0|0,0:0|0:0,0:0:0:0:
152,192,26411,1,8,0:0:0:0:
204,186,26551,1,0,0:0:0:0:
211,133,26691,1,0,0:0:0:0:
161,115,26831,1,0,0:0:0:0:
368,192,26971,6,0,P|424:168|424:120,1,115,4|0,0:0|0:0,0:0:0:0:
208,192,27532,1,8,0:0:0:0:
432,192,27813,2,0,L|368:192,1,57.5,0|0,0:0|0:0,0:0:0:0:
216,192,28373,2,0,L|280:192,1,57.5,0|0,0:0|0:0,0:0:0:0:
136,192,28654,1,8,0:0:0:0:
87,168,28794,1,0,0:0:0:0:
97,116,28934,1,0,0:0:0:0:
150,111,29074,1,0,0:0:0:0:
368,192,29214,6,0,P|400:136|368:128,1,115,4|0,0:0|0:0,0:0:0:0:
160,192,29775,1,8,0:0:0:0:
368,192,30056,2,0,L|440:192,1,57.5,0|0,0:0|0:0,0:0:0:0:
256,192,30616,2,0,L|184:192,1,57.5
344,192,30897,1,8,0:0:0:0:
399,179,31037,1,0,0:0:0:0:
448,144,31177,1,0,0:0:0:0:
464,80,31317,1,0,0:0:0:0:
184,192,31457,6,0,P|128:136|160:104,1,115,4|0,0:0|0:0,0:0:0:0:
256,192,31878,1,0,0:0:0:0:
368,192,32018,2,0,L|312:160,1,57.5,8|0,0:0|0:0,0:0:0:0:
240,192,32298,2,0,L|176:192,1,57.5
448,192,32579,1,0,0:0:0:0:
496,192,32719,1,0,0:0:0:0:
448,192,32859,1,0,0:0:0:0:
304,192,32999,1,0,0:0:0:0:
136,192,33280,2,0,L|72:192,2,57.5
368,192,33700,6,0,P|336:128|272:120,1,115,4|0,0:0|0:0,0:0:0:0:
208,192,34121,1,0,0:0:0:0:
64,192,34261,2,0,L|8:184,2,57.5,8|0|0,0:0|0:0|0:0,0:0:0:0:
288,192,34822,1,0,0:0:0:0:
80,192,35102,2,0,L|168:192,1,57.5,0|0,0:0|0:0,0:0:0:0:
272,192,35383,2,0,L|208:192,1,57.5,8|0,0:0|0:0,0:0:0:0:
80,192,35663,2,0,L|152:192,1,57.5,0|0,0:0|0:0,0:0:0:0:
416,192,35943,6,0,P|464:160|416:136,1,115,4|0,0:0|0:0,0:0:0:0:
216,192,36504,1,8,0:0:0:0:
432,192,36784,2,0,L|312:192,1,115,0|0,0:0|0:0,0:0:0:0:
104,192,37345,1,0,0:0:0:0:
320,192,37626,2,0,P|392:152|360:112,1,115,8|0,0:0|0:0,0:0:0:0:
312,192,38046,1,0,0:0:0:0:
64,192,38186,6,0,P|8:144|112:104,1,230,4|8,0:0|0:0,0:0:0:0:
328,192,39027,2,0,L|208:192,1,115,0|0,0:0|0:0,0:0:0:0:
424,192,39588,2,0,L|296:192,1,115,0|8,0:0|0:0,0:0:0:0:
368,192,40009,1,0,0:0:0:0:
400,192,40149,1,0,0:0:0:0:
368,192,40289,1,0,0:0:0:0:
144,192,40429,6,0,P|104:152|144:128,1,115,4|0,0:0|0:0,0:0:0:0:
288,192,40850,2,0,P|328:144|288:136,1,115
160,192,41270,2,0,L|280:192,1,115
72,192,41831,2,0,L|8:192,1,57.5,0|0,0:0|0:0,0:0:0:0:
160,192,42112,1,8,0:0:0:0:
376,192,42392,2,0,L|440:192,1,57.5,0|0,0:0|0:0,0:0:0:0:
208,192,42672,6,0,P|168:128|192:120,1,115,4|0,0:0|0:0,0:0:0:0:
384,192,43233,1,8,0:0:0:0:
168,192,43513,2,0,L|288:192,1,115,0|0,0:0|0:0,0:0:0:0:
72,192,44074,2,0,L|192:192,1,115,0|8,0:0|0:0,0:0:0:0:
64,192,44635,2,0,L|16:160,1,57.5,0|0,0:0|0:0,0:0:0:0:
280,192,44915,6,0,P|312:152|264:136,1,115,4|0,0:0|0:0,0:0:0:0:
128,192,45336,2,0,P|56:160|80:104,1,115
136,192,45756,1,0,0:0:0:0:
472,192,46037,2,0,P|501:146|456:136,1,115,0|0,0:0|0:0,0:0:0:0:
256,192,46457,2,0,P|216:152|256:128,1,115,0|0,0:0|0:0,0:0:0:0:
392,192,46878,2,0,L|456:192,1,57.5,0|0,0:0|0:0,0:0:0:0:
224,192,47158,6,0,P|288:144|336:144,1,115,4|0,0:0|0:0,0:0:0:0:
449,192,47579,2,0,P|385:144|337:144,1,115,0|0,0:0|0:0,0:0:0:0:
216,192,47999,2,0,L|88:192,1,115,0|0,0:0|0:0,0:0:0:0:
248,192,48560,2,0,L|312:192,2,57.5,0|0|8,0:0|0:0|0:0,0:0:0:0:
104,192,49121,2,0,L|176:192,1,57.5,0|0,0:0|0:0,0:0:0:0:
400,192,49401,6,0,P|440:136|400:128,1,115,4|0,0:0|0:0,0:0:0:0:
344,192,49822,1,0,0:0:0:0:
208,192,49962,1,8,0:0:0:0:
408,192,50242,2,0,L|472:192,1,57.5,0|0,0:0|0:0,0:0:0:0:
320,192,50523,2,0,P|248:160|264:128,1,115
304,192,50943,1,0,0:0:0:0:
160,192,51084,1,8,0:0:0:0:
400,192,51364,1,0,0:0:0:0:
64,192,51644,6,0,P|32:144|72:128,1,115,4|0,0:0|0:0,0:0:0:0:
144,192,52065,1,0,0:0:0:0:
280,192,52205,1,8,0:0:0:0:
64,192,52485,1,0,0:0:0:0:
280,192,52766,1,8,0:0:0:0:
352,192,52906,1,8,0:0:0:0:
280,192,53046,1,8,0:0:0:0:
352,192,53186,1,8,0:0:0:0:
112,192,53327,2,0,L|40:192,1,57.5,8|0,0:0|0:0,0:0:0:0:
280,192,53607,2,0,L|360:192,1,57.5,8|0,0:0|0:0,0:0:0:0:
16,192,53887,5,4,0:0:0:0:
128,192,62859,6,0,B|40:192|40:192|136:192,1,172.5,4|0,0:0|0:0,0:0:0:0:
256,192,63420,2,0,L|136:192,1,115,8|0,0:0|0:0,0:0:0:0:
272,192,63981,2,0,L|392:192,2,115,2|0|8,0:0|0:0|0:0,0:0:0:0:
168,192,64682,1,0,0:0:0:0:
40,192,64822,1,0,0:0:0:0:
248,192,65102,6,0,B|336:192|304:144|256:120,1,115,4|0,0:0|0:0,0:0:0:0:
216,192,65523,2,0,L|288:192,1,57.5,0|8,0:0|0:0,0:0:0:0:
400,192,65943,2,0,L|272:192,1,115,0|2,0:0|0:0,0:0:0:0:
488,192,66504,1,0,0:0:0:0:
285,192,66784,2,0,L|352:192,1,57.5,8|0,0:0|0:0,0:0:0:0:
488,192,67065,2,0,L|416:192,1,57.5,0|0,0:0|0:0,0:0:0:0:
208,192,67345,6,0,P|152:144|224:120,1,172.5,4|0,0:0|0:0,0:0:0:0:
368,192,67906,2,0,P|408:144|368:136,1,115,8|0,0:0|0:0,0:0:0:0:
168,192,68467,2,0,P|256:160|344:152,2,172.5,2|0|0,0:0|0:0|0:0,0:0:0:0:
384,192,69588,5,4,0:0:0:0:
435,179,69728,1,8,0:0:0:0:
428,127,69868,1,8,0:0:0:0:
376,127,70008,1,0,0:0:0:0:
128,192,70149,1,8,0:0:0:0:
77,173,70289,1,0,0:0:0:0:
84,120,70429,1,0,0:0:0:0:
136,114,70569,1,0,0:0:0:0:
368,192,70710,5,8,0:0:0:0:
395,199,70780,1,0,0:0:0:0:
423,196,70850,1,0,0:0:0:0:
448,181,70920,1,0,0:0:0:0:
464,158,70990,1,0,0:0:0:0:
470,130,71060,1,0,0:0:0:0:
464,102,71130,1,0,0:0:0:0:
448,78,71200,1,0,0:0:0:0:
272,192,71270,1,8,0:0:0:0:
232,192,71340,1,0,0:0:0:0:
200,192,71410,1,0,0:0:0:0:
176,192,71480,1,0,0:0:0:0:
176,192,71550,1,0,0:0:0:0:
200,192,71620,1,0,0:0:0:0:
232,192,71690,1,0,0:0:0:0:
272,192,71760,1,0,0:0:0:0:
432,192,71831,6,0,P|496:136|392:112,1,230,4|8,0:0|0:0,0:0:0:0:
184,192,72672,1,0,0:0:0:0:
400,192,72953,2,0,L|272:192,1,115
496,192,73513,2,0,L|368:192,1,115,8|0,0:0|0:0,0:0:0:0:
32,192,74074,6,0,P|82:154|144:152,1,115,0|0,0:0|0:0,0:0:0:0:
344,192,74635,1,8,0:0:0:0:
216,192,74915,1,0,0:0:0:0:
424,192,75196,2,0,P|480:144|416:128,1,172.5
264,192,75756,2,0,P|200:152|264:128,1,172.5,8|0,0:0|0:0,0:0:0:0:
488,192,76317,6,0,P|448:144|392:136,1,115,0|0,0:0|0:0,0:0:0:0:
176,192,76878,1,8,0:0:0:0:
392,192,77158,1,0,0:0:0:0:
176,192,77439,2,0,L|296:192,1,115
61,192,77999,2,0,P|86:142|160:120,1,115,8|0,0:0|0:0,0:0:0:0:
496,192,78560,6,0,P|464:144|392:136,1,115,0|0,0:0|0:0,0:0:0:0:
192,192,79121,1,8,0:0:0:0:
320,192,79401,1,0,0:0:0:0:
96,192,79682,2,0,P|48:152|128:112,1,172.5
384,192,80242,2,0,P|448:152|376:112,1,172.5,8|0,0:0|0:0,0:0:0:0:
88,192,80803,6,0,P|48:160|104:136,1,115,0|0,0:0|0:0,0:0:0:0:
304,192,81364,1,8,0:0:0:0:
496,192,81644,1,0,0:0:0:0:
272,192,81925,2,0,P|192:160|184:128,1,115,0|0,0:0|0:0,0:0:0:0:
408,192,82485,2,0,P|488:160|496:128,1,115,8|0,0:0|0:0,0:0:0:0:
120,192,83046,6,0,P|64:144|88:112,1,115
288,192,83607,1,8,0:0:0:0:
88,192,83887,1,0,0:0:0:0:
312,192,84168,2,0,P|376:160|320:112,1,172.5,0|0,0:0|0:0,0:0:0:0:
72,192,84728,2,0,P|8:160|64:112,1,172.5,8|0,0:0|0:0,0:0:0:0:
384,192,85289,6,0,P|416:144|376:128,1,115,0|0,0:0|0:0,0:0:0:0:
168,192,85850,1,8,0:0:0:0:
16,192,86130,1,0,0:0:0:0:
240,192,86411,2,0,P|304:152|304:112,1,115,0|0,0:0|0:0,0:0:0:0:
88,192,86971,2,0,P|24:152|24:112,1,115,8|0,0:0|0:0,0:0:0:0:
432,192,87532,6,0,P|480:152|448:128,1,115
232,192,88093,1,8,0:0:0:0:
456,192,88373,1,0,0:0:0:0:
128,192,88654,1,8,0:0:0:0:
75,184,88794,1,0,0:0:0:0:
71,131,88934,1,8,0:0:0:0:
122,117,89074,1,0,0:0:0:0:
344,192,89214,2,0,L|408:192,1,57.5,8|0,0:0|0:0,0:0:0:0:
312,192,89495,2,0,L|376:192,1,57.5
88,192,89775,6,0,P|32:160|56:128,1,115,4|0,0:0|0:0,0:0:0:0:
272,192,90336,1,8,0:0:0:0:
480,192,90616,1,0,0:0:0:0:
256,192,90897,2,0,L|128:192,1,115,0|0,0:0|0:0,0:0:0:0:
368,192,91457,2,0,L|488:192,1,115,8|0,0:0|0:0,0:0:0:0:
96,192,92018,6,0,P|56:144|88:136,1,115,0|0,0:0|0:0,0:0:0:0:
288,192,92579,1,8,0:0:0:0:
408,192,92859,1,0,0:0:0:0:
184,192,93140,2,0,P|208:152|328:128,1,172.5,0|0,0:0|0:0,0:0:0:0:
472,200,93700,2,0,P|448:160|328:136,1,172.5,8|0,0:0|0:0,0:0:0:0:
104,192,94261,6,0,P|24:160|32:112,1,115,0|0,0:0|0:0,0:0:0:0:
240,192,94822,1,8,0:0:0:0:
112,192,95102,1,0,0:0:0:0:
336,192,95383,2,0,L|208:192,1,115
8,192,95943,2,0,L|136:192,1,115,8|0,0:0|0:0,0:0:0:0:
496,192,96504,6,0,P|488:152|416:136,1,115
200,192,97065,1,8,0:0:0:0:
336,192,97345,1,0,0:0:0:0:
112,192,97626,1,0,0:0:0:0:
8,192,97906,1,0,0:0:0:0:
376,192,98186,2,0,P|472:160|448:88,1,172.5,8|0,0:0|0:0,0:0:0:0:
176,192,98747,6,0,P|176:160|248:136,1,115,4|0,0:0|0:0,0:0:0:0:
32,192,99308,1,8,0:0:0:0:
160,192,99588,1,0,0:0:0:0:
368,192,99869,1,0,0:0:0:0:
240,192,100149,1,0,0:0:0:0:
456,192,100429,2,0,P|496:136|464:128,1,115,8|0,0:0|0:0,0:0:0:0:
112,192,100990,6,0,P|112:144|184:128,1,115,0|0,0:0|0:0,0:0:0:0:
392,192,101551,1,8,0:0:0:0:
272,192,101831,1,0,0:0:0:0:
48,192,102112,1,0,0:0:0:0:
152,192,102392,1,0,0:0:0:0:
496,192,102672,2,0,P|464:144|352:128,1,172.5,8|0,0:0|0:0,0:0:0:0:
120,192,103233,6,0,P|80:136|120:128,1,115,0|0,0:0|0:0,0:0:0:0:
312,192,103794,1,8,0:0:0:0:
184,192,104074,1,0,0:0:0:0:
400,192,104355,1,0,0:0:0:0:
272,192,104635,1,0,0:0:0:0:
56,192,104915,2,0,P|16:144|64:128,1,115,8|0,0:0|0:0,0:0:0:0:
416,192,105476,6,0,P|488:160|496:128,1,115
272,192,106037,1,8,0:0:0:0:
64,192,106317,1,0,0:0:0:0:
416,192,106598,1,8,0:0:0:0:
466,173,106738,1,0,0:0:0:0:
460,119,106878,1,8,0:0:0:0:
407,112,107018,1,0,0:0:0:0:
192,192,107158,2,0,L|128:192,1,57.5,8|0,0:0|0:0,0:0:0:0:
224,192,107439,2,0,L|160:192,1,57.5
448,192,107719,6,0,P|496:152|448:128,1,115,4|0,0:0|0:0,0:0:0:0:
248,192,108280,1,8,0:0:0:0:
128,192,108560,1,0,0:0:0:0:
456,192,108841,2,0,P|496:152|448:136,1,115,0|0,0:0|0:0,0:0:0:0:
240,192,109401,1,8,0:0:0:0:
368,192,109682,1,0,0:0:0:0:
24,192,109962,6,0,L|144:192,2,115,0|0|8,0:0|0:0|0:0,0:0:0:0:
352,192,110803,1,0,0:0:0:0:
24,192,111084,2,0,P|72:152|176:120,1,172.5,0|0,0:0|0:0,0:0:0:0:
320,192,111644,2,0,P|384:168|328:112,1,172.5,8|0,0:0|0:0,0:0:0:0:
48,192,112205,6,0,P|16:152|64:136,1,115
280,192,112766,1,8,0:0:0:0:
152,192,113046,1,0,0:0:0:0:
488,192,113327,2,0,P|448:144|392:128,1,115,0|0,0:0|0:0,0:0:0:0:
176,192,113887,2,0,P|120:152|144:120,1,115,8|0,0:0|0:0,0:0:0:0:
480,192,114448,6,0,L|352:192,2,115,0|0|8,0:0|0:0|0:0,0:0:0:0:
136,192,115289,1,0,0:0:0:0:
328,192,115570,2,0,P|384:136|320:120,1,172.5
176,192,116130,1,8,0:0:0:0:
392,192,116411,1,0,0:0:0:0:
32,192,116691,5,0,0:0:0:0:
120,192,116971,1,0,0:0:0:0:
344,192,117252,1,8,0:0:0:0:
120,192,117532,1,0,0:0:0:0:
456,192,117813,2,0,P|488:152|432:144,1,115
112,192,118373,2,0,P|48:168|32:128,1,115,8|0,0:0|0:0,0:0:0:0:
360,192,118934,6,0,L|224:192,1,115,0|0,0:0|0:0,0:0:0:0:
464,192,119495,1,8,0:0:0:0:
344,192,119775,1,0,0:0:0:0:
16,192,120056,1,4,0:0:0:0:
136,192,120336,1,0,0:0:0:0:
256,192,120616,1,8,0:0:0:0:
32,192,120897,1,0,0:0:0:0:
400,192,121177,6,0,P|424:152|368:136,1,115,4|0,0:0|0:0,0:0:0:0:
152,192,121738,1,8,0:0:0:0:
488,192,122018,1,0,0:0:0:0:
152,192,122298,2,0,P|88:160|56:112,1,115,0|0,0:0|0:0,0:0:0:0:
400,192,122859,2,0,P|464:160|496:112,1,115,8|0,0:0|0:0,0:0:0:0:
152,192,123420,6,0,L|272:192,1,115
40,192,123981,1,8,0:0:0:0:
160,192,124261,1,0,0:0:0:0:
496,192,124541,2,0,L|360:192,1,115,0|0,0:0|0:0,0:0:0:0:
160,192,125102,1,8,0:0:0:0:
496,192,125383,2,0,L|24:192,1,460,0|0,0:0|0:0,0:0:0:0:
