osu file format v14

[General]
AudioFilename: audio.mp3
AudioLeadIn: 0
PreviewTime: -1
Countdown: 1
SampleSet: Normal
StackLeniency: 0.7
Mode: 0
LetterboxInBreaks: 0
WidescreenStoryboard: 0

[Editor]
DistanceSpacing: 1.5
BeatDivisor: 4
GridSize: 4
TimelineZoom: 1

[Metadata]
Title:Serendipity
TitleUnicode:Serendipity
Artist:BTS
ArtistUnicode:BTS
Creator:JaviWaii
Version:Let me love you
Source:
Tags:
BeatmapID:1410928
BeatmapSetID:666692

[Difficulty]
HPDrainRate:5
CircleSize:4
OverallDifficulty:5
ApproachRate:5
SliderMultiplier:1.4
SliderTickRate:1

[Events]
//Background and Video events
Video,0,"BTS (방탄소년단) LOVE YOURSELF 承 Her 'Serendipity' Comeback Trailer.mp4"
0,0,"seren.jpg",0,0
//Break Periods
2,88378,95190
//Storyboard Layer 0 (Background)
//Storyboard Layer 1 (Fail)
//Storyboard Layer 2 (Pass)
//Storyboard Layer 3 (Foreground)
//Storyboard Sound Samples

[TimingPoints]
54439.5352937018,487.80487804878,4,1,0,100,1,0

[Colours]
Combo1 : 140,19,104
Combo2 : 255,128,64
Combo3 : 0,128,255
Combo4 : 255,255,128
Combo5 : 255,128,128
Combo6 : 255,74,255
Combo7 : 128,128,0
Combo8 : 150,250,152

[HitObjects]
256,192,12081,12,0,13829,0:0:0:0:
104,144,16756,5,0,0:0:0:0:
152,100,17285,1,0,0:0:0:0:
192,215,17854,1,0,0:0:0:0:
100,56,19927,1,0,0:0:0:0:
176,116,20293,2,0,L|176:200,1,70
176,208,20780,6,0,L|264:208,1,70
312,148,22163,2,0,L|368:100,1,70
420,192,23098,2,0,L|420:280,2,70
344,364,24033,1,0,0:0:0:0:
264,240,24276,6,0,L|340:140,1,116.666666666667
196,176,25008,1,0,0:0:0:0:
128,64,25171,1,0,0:0:0:0:
280,36,25415,1,0,0:0:0:0:
48,328,27366,1,0,0:0:0:0:
48,272,27732,2,0,L|48:184,1,70
52,152,28220,6,0,L|128:152,1,70
176,148,29724,2,0,P|320:96|348:140,1,233.333333333333
304,268,30780,1,0,0:0:0:0:
168,204,31431,2,0,L|188:188,12,23.3333333333333
228,224,33138,2,0,P|308:168|336:140,1,105
408,164,33829,2,0,P|464:112|424:68,1,140
120,248,35089,1,0,0:0:0:0:
180,112,35659,1,0,0:0:0:0:
276,204,36228,1,0,0:0:0:0:
376,108,37122,6,0,L|412:164,1,46.6666666666667
392,236,37366,1,0,0:0:0:0:
304,236,37610,2,0,L|272:192,2,35
192,256,38098,1,0,0:0:0:0:
108,124,38911,2,0,B|264:164|264:164|260:164,2,163.333333333333
108,124,40293,1,0,0:0:0:0:
156,152,40943,2,0,L|212:164,7,46.6666666666667
192,104,42488,1,0,0:0:0:0:
188,256,42732,1,0,0:0:0:0:
316,104,42976,1,0,0:0:0:0:
324,264,43220,1,0,0:0:0:0:
104,128,44358,6,0,L|136:136,15,23.3333333333333
40,320,45902,2,8,P|136:320|156:312,1,116.666666666667
180,268,46634,2,8,P|276:244|292:256,1,116.666666666667
260,132,47488,1,0,0:0:0:0:
184,196,48423,1,0,0:0:0:0:
184,276,48667,2,0,P|308:272|328:256,1,140
328,176,49561,6,0,L|464:128,2,140
232,168,50943,1,0,0:0:0:0:
80,184,51431,5,0,0:0:0:0:
148,296,51878,1,0,0:0:0:0:
264,176,52366,1,0,0:0:0:0:
48,116,53220,1,0,0:0:0:0:
108,256,53707,1,0,0:0:0:0:
240,92,54114,1,0,0:0:0:0:
284,224,54683,1,0,0:0:0:0:
164,144,55171,6,0,P|180:148|244:164,2,70
116,236,56309,2,0,L|120:292,7,46.6666666666667
288,248,58098,2,0,L|276:304,7,46.6666666666667
96,176,60618,1,0,0:0:0:0:
140,160,60862,2,0,P|232:112|252:136,1,140
392,224,61756,2,0,P|320:312|272:296,1,163.333333333333
88,344,62488,1,0,0:0:0:0:
208,304,62813,1,0,0:0:0:0:
288,312,63138,5,0,0:0:0:0:
408,252,63382,2,0,P|304:244|296:260,1,140
152,196,64358,2,0,P|276:192|296:176,1,140
276,116,65293,2,0,L|388:76,3,116.666666666667
348,208,67122,1,0,0:0:0:0:
140,272,68098,2,0,P|104:148|128:132,1,186.666666666667
196,120,68992,1,0,0:0:0:0:
288,120,69398,1,0,0:0:0:0:
340,116,69967,2,0,P|376:296|308:296,1,326.666666666667
88,256,71594,5,0,0:0:0:0:
160,132,71919,1,0,0:0:0:0:
96,208,72732,1,0,0:0:0:0:
96,136,73220,2,0,P|204:136|216:140,2,116.666666666667
140,292,74561,1,0,0:0:0:0:
152,176,75008,1,0,0:0:0:0:
40,192,75496,2,8,P|84:136|124:144,2,116.666666666667
172,300,76756,5,8,0:0:0:0:
216,152,77203,1,8,0:0:0:0:
116,72,77610,2,0,L|120:156,4,70
48,144,79886,1,0,0:0:0:0:
92,96,80537,2,0,P|204:108|224:152,1,163.333333333333
372,148,81756,1,0,0:0:0:0:
236,80,82163,1,0,0:0:0:0:
96,160,82813,2,0,L|128:160,21,23.3333333333333
164,148,85537,5,0,0:0:0:0:
256,228,86065,1,0,0:0:0:0:
276,152,86634,2,0,L|312:152,19,23.3333333333333
28,324,96390,5,0,0:0:0:0:
40,192,96634,2,8,P|84:136|124:144,1,116.666666666667
168,256,97366,2,0,L|220:256,11,46.6666666666667
164,148,100211,1,0,0:0:0:0:
296,176,100618,1,0,0:0:0:0:
368,232,101187,2,0,L|372:288,10,46.6666666666667
116,264,104927,2,8,P|128:148|164:148,1,163.333333333333
128,72,105821,1,0,0:0:0:0:
144,224,106553,2,2,P|248:152|300:196,1,210
248,256,107610,5,10,0:0:0:0:
88,248,108667,6,0,L|88:196,3,35
172,340,109927,1,0,0:0:0:0:
200,256,110537,2,0,L|200:180,2,70
148,104,111268,1,0,0:0:0:0:
80,256,111634,1,0,0:0:0:0:
284,308,111919,2,8,L|288:188,1,116.666666666667
200,256,113138,1,2,0:0:0:0:
260,240,113951,2,0,L|272:152,4,70
284,104,115171,2,0,L|256:240,1,116.666666666667
204,88,116146,1,0,0:0:0:0:
208,204,116553,5,0,0:0:0:0:
48,272,116878,2,0,L|136:272,1,70
136,208,117448,1,0,0:0:0:0:
136,152,117691,2,0,L|40:152,1,93.3333333333333
42,152,118423,1,0,0:0:0:0:
88,128,119561,1,0,0:0:0:0:
184,116,119805,2,0,L|180:228,2,93.3333333333333
268,112,120699,1,0,0:0:0:0:
184,116,120943,2,0,L|184:228,2,93.3333333333333
144,312,122081,1,0,0:0:0:0:
360,256,122488,1,0,0:0:0:0:
104,168,123463,6,0,L|180:208,8,70
92,112,126228,1,0,0:0:0:0:
200,168,126715,1,0,0:0:0:0:
200,80,127203,2,0,P|320:84|344:152,1,175
336,212,128179,1,0,0:0:0:0:
168,296,128667,2,0,P|56:172|84:148,1,256.666666666667
148,216,129967,1,0,0:0:0:0:
252,240,131106,2,0,L|232:180,3,46.6666666666667
80,196,132000,2,0,L|92:144,4,46.6666666666667
136,248,133057,1,0,0:0:0:0:
224,136,134520,2,2,L|256:152,10,23.3333333333333
36,60,137691,1,0,0:0:0:0:
148,152,137935,1,0,0:0:0:0:
224,60,138260,2,0,L|260:100,2,46.6666666666667
192,92,141837,6,8,L|216:136,6,46.6666666666667
96,120,145984,1,8,0:0:0:0:
168,260,146553,1,8,0:0:0:0:
264,96,146959,1,8,0:0:0:0:
348,240,147447,1,8,0:0:0:0:
228,192,148016,1,10,0:0:0:0:
