osu file format v14

[General]
AudioFilename: Save ME.mp3
AudioLeadIn: 0
PreviewTime: 67152
Countdown: 0
SampleSet: Soft
StackLeniency: 0.7
Mode: 0
LetterboxInBreaks: 0
WidescreenStoryboard: 0

[Editor]
DistanceSpacing: 1.2
BeatDivisor: 4
GridSize: 4
TimelineZoom: 1

[Metadata]
Title:Save ME
TitleUnicode:Save ME
Artist:BTS
ArtistUnicode:방탄소년단
Creator:wasinkingspeedq
Version:Advanced
Source:
Tags:big hit.entertainment kpop bantansoyeondan rapmonster suga jin jhope jimin v jungkook 화양연화 Young Forever
BeatmapID:969038
BeatmapSetID:450917

[Difficulty]
HPDrainRate:4
CircleSize:3.5
OverallDifficulty:4
ApproachRate:5
SliderMultiplier:1.35
SliderTickRate:1

[Events]
//Background and Video events
0,0,"BG2.jpg",0,0
//Break Periods
2,41423,53678
2,123709,135963
//Storyboard Layer 0 (Background)
//Storyboard Layer 1 (Fail)
//Storyboard Layer 2 (Pass)
//Storyboard Layer 3 (Foreground)
//Storyboard Sound Samples

[TimingPoints]
81,428.571428571429,4,2,0,65,1,0
13795,-100,4,2,1,65,0,0
54938,-100,4,2,0,65,0,0
68652,-100,4,2,0,80,0,1
81509,-100,4,2,0,70,0,0
82366,-100,4,2,1,80,0,1
96081,-100,4,2,0,65,0,0
150938,-100,4,2,0,80,0,1
163795,-100,4,2,0,70,0,0
164652,-100,4,2,1,80,0,1
178366,-100,4,2,0,50,0,0

[Colours]
Combo1 : 255,170,85
Combo2 : 192,192,192
Combo3 : 255,255,128
Combo4 : 128,255,255

[HitObjects]
88,44,13795,6,0,B|92:112|92:112|88:188,1,135,0|0,0:0|0:0,0:0:0:0:
140,332,14652,1,2,0:0:0:0:
256,216,15081,2,0,B|296:228|324:216|324:216|348:204|396:216,1,135,0|0,0:0|0:0,0:0:0:0:
480,348,15938,1,0,0:0:0:0:
388,214,16366,2,0,L|412:54,1,135,2|0,0:0|0:0,0:0:0:0:
256,28,17223,6,0,L|232:188,1,135,0|0,0:0|0:0,0:0:0:0:
204,320,18081,1,2,0:0:0:0:
84,212,18509,1,0,0:0:0:0:
236,160,18938,2,0,B|288:156|288:156|316:160|316:160|384:156,1,135,0|0,0:0|0:0,0:0:0:0:
464,288,19795,1,2,0:0:0:0:
308,336,20223,1,0,0:0:0:0:
184,228,20652,6,0,L|168:72,1,135,0|0,0:0|0:0,0:0:0:0:
320,32,21509,1,2,0:0:0:0:
464,104,21938,2,0,L|477:238,1,135,0|0,0:0|0:0,0:0:0:0:
336,332,22795,1,0,0:0:0:0:
208,232,23223,2,0,B|200:144|200:144|172:92,1,135,2|0,0:0|0:0,0:0:0:0:
44,196,24081,6,0,B|52:284|52:284|80:336,1,135,0|0,0:0|0:0,0:0:0:0:
236,352,24938,1,2,0:0:0:0:
320,212,25366,2,0,B|372:208|372:208|400:212|400:212|468:208,2,135,0|0|0,0:0|0:0|0:0,0:0:0:0:
160,220,26652,1,2,0:0:0:0:
232,76,27081,1,0,0:0:0:0:
320,212,27509,6,0,B|312:264|312:264|316:324,2,101.25,0|0|0,3:0|3:0|3:0,3:0:0:0:
380,156,28366,2,0,B|315:172|315:172|247:164,1,135,2|0,0:0|0:0,0:0:0:0:
96,112,29223,2,0,B|104:60|104:60|100:0,2,101.25,0|0|0,0:0|0:0|0:0,0:0:0:0:
20,88,30081,2,0,L|96:208,1,135,2|0,0:0|0:0,0:0:0:0:
256,192,30938,6,0,L|320:292,2,101.25,0|0|0,3:0|3:0|3:0,3:0:0:0:
180,220,31795,2,0,B|224:168|224:168|244:84,1,135,2|0,0:0|0:0,0:0:0:0:
400,84,32652,2,0,L|368:204,2,101.25,0|0|0,0:0|0:0|0:0,0:0:0:0:
472,124,33509,2,0,B|452:192|452:192|460:268,1,135,2|0,0:0|0:0,0:0:0:0:
312,328,34366,6,0,P|244:328|188:352,2,101.25,0|0|0,3:0|3:0|3:0,3:0:0:0:
320,248,35223,2,0,P|228:248|168:272,1,135,2|0,0:0|0:0,0:0:0:0:
124,312,35866,1,0,0:0:0:0:
64,256,36081,2,0,L|60:184,1,67.5,0|0,0:0|0:0,0:0:0:0:
96,116,36509,1,0,0:0:0:0:
168,152,36723,1,0,0:0:0:0:
228,96,36938,2,0,L|304:92,2,67.5,2|0|0,0:0|0:0|0:0,0:0:0:0:
340,212,37795,6,0,B|384:208|384:208|400:212|400:212|460:208,2,101.25,0|0|0,3:0|3:0|3:0,3:0:0:0:
296,280,38652,2,0,L|228:283,2,67.5,2|0|0,0:0|0:0|0:0,0:0:0:0:
256,192,39509,12,4,41223,0:0:0:0:
376,360,54938,6,0,B|368:322|376:294|376:294|384:266|376:226,1,135,12|8,0:0|0:0,0:0:0:0:
440,76,55795,2,0,B|380:88|380:88|280:72,1,135,8|8,0:0|0:0,0:0:0:0:
148,48,56652,1,8,0:0:0:0:
96,112,56866,1,0,0:0:0:0:
96,112,57081,2,0,L|8:104,1,67.5,8|0,0:0|0:0,0:0:0:0:
32,188,57509,2,0,L|112:196,1,67.5,8|0,0:0|0:0,0:0:0:0:
180,212,57938,1,8,0:0:0:0:
244,160,58152,1,0,0:0:0:0:
312,204,58366,6,0,B|316:260|316:260|312:284|312:284|316:352,1,135,8|8,0:0|0:0,0:0:0:0:
468,284,59223,2,0,B|464:228|464:228|468:204|468:204|464:136,1,135,8|8,0:0|0:0,0:0:0:0:
328,60,60081,1,8,0:0:0:0:
256,96,60295,1,0,0:0:0:0:
256,96,60509,2,0,L|260:164,1,67.5,8|0,0:0|0:0,0:0:0:0:
212,228,60938,2,0,P|160:232|132:228,2,67.5,8|0|8,0:0|0:0|0:0,0:0:0:0:
256,296,61581,1,0,0:0:0:0:
308,232,61795,6,0,P|376:224|452:228,1,135,8|8,0:0|0:0,0:0:0:0:
368,84,62652,2,0,P|300:92|224:88,1,135,8|8,0:0|0:0,0:0:0:0:
120,204,63509,2,0,L|124:284,1,67.5,8|0,0:0|0:0,0:0:0:0:
196,308,63938,1,8,0:0:0:0:
276,280,64152,1,0,0:0:0:0:
276,280,64366,2,0,L|328:328,1,67.5,8|0,0:0|0:0,0:0:0:0:
368,256,64795,2,0,L|304:196,1,67.5,8|0,0:0|0:0,0:0:0:0:
392,172,65223,6,0,B|428:208|428:208|440:236|440:236|480:272,1,135,8|8,0:0|0:0,0:0:0:0:
504,112,66081,2,0,B|468:76|468:76|456:48|456:48|416:12,1,135,8|8,0:0|0:0,0:0:0:0:
280,100,66938,2,0,B|241:118|228:140|228:140|214:161|176:183,2,135,2|2|0,3:0|3:0|3:0,0:0:0:0:
356,128,68009,1,0,3:0:0:0:
316,200,68223,2,0,L|365:246,1,67.5,0|0,3:0|3:0,0:0:0:0:
444,224,68652,6,0,P|392:260|352:348,1,135,4|0,0:0|0:0,0:0:0:0:
200,356,69509,2,0,L|88:252,1,135,8|0,0:0|3:0,0:0:0:0:
188,128,70366,2,0,L|104:52,2,101.25,0|0|0,0:0|0:0|3:0,0:0:0:0:
188,208,71223,2,0,B|220:168|220:168|276:140,2,101.25,8|0|0,0:0|0:0|0:0,0:0:0:0:
200,288,72081,6,0,L|88:188,1,135,4|0,0:0|0:0,0:0:0:0:
212,80,72938,2,0,L|284:44,1,67.5,8|0,0:0|0:0,0:0:0:0:
336,100,73366,2,0,B|372:136|372:136|384:164|384:164|424:200,1,135,0|0,3:0|0:0,0:0:0:0:
424,280,74009,1,0,0:0:0:0:
348,256,74223,2,0,L|288:200,1,67.5,0|0,0:0|3:0,0:0:0:0:
220,196,74652,2,0,P|184:232|144:252,1,67.5,8|0,0:0|0:0,0:0:0:0:
120,176,75081,2,0,P|156:140|196:120,1,67.5,0|0,0:0|0:0,0:0:0:0:
248,116,75509,6,0,B|286:94|300:73|300:73|313:51|352:33,1,135,4|0,0:0|0:0,0:0:0:0:
480,132,76366,2,0,B|441:150|428:172|428:172|414:193|376:215,1,135,8|0,0:0|3:0,0:0:0:0:
248,116,77223,2,0,B|224:72|224:72|172:40,2,101.25,0|0|0,0:0|0:0|3:0,0:0:0:0:
168,136,78081,2,0,B|124:109|124:109|100:65,2,101.25,8|0|0,0:0|0:0|0:0,0:0:0:0:
232,188,78938,6,0,B|192:224|192:224|180:252|180:252|144:288,1,135,4|0,0:0|0:0,0:0:0:0:
300,336,79795,2,0,L|368:268,2,67.5,8|0|0,0:0|0:0|3:0,0:0:0:0:
276,124,81509,6,0,L|352:48,2,101.25,2|2|2,3:0|3:0|3:0,0:0:0:0:
204,164,82366,6,0,B|164:128|164:128|152:100|152:100|116:64,1,135,12|8,0:0|0:0,0:0:0:0:
36,204,83223,2,0,L|100:264,2,67.5,8|0|8,0:0|0:0|0:0,0:0:0:0:
100,352,84081,2,0,P|160:320|184:256,1,135,8|8,0:0|0:0,0:0:0:0:
172,100,84938,2,0,B|200:76|200:76|236:64,1,67.5,8|0,0:0|0:0,0:0:0:0:
288,124,85366,2,0,B|317:114|317:114|345:90,1,67.5,8|0,0:0|0:0,0:0:0:0:
392,24,85795,6,0,B|428:60|428:60|440:88|440:88|480:124,1,135,8|8,0:0|0:0,0:0:0:0:
480,288,86652,2,0,P|436:284|400:292,1,67.5,8|0,0:0|0:0,0:0:0:0:
408,368,87081,2,0,B|368:332|368:332|356:304|356:304|320:268,1,135,8|8,0:0|0:0,0:0:0:0:
256,220,87723,1,0,0:0:0:0:
192,268,87938,2,0,B|156:304|156:304|144:332|144:332|104:368,1,135,8|2,0:0|3:0,0:0:0:0:
36,320,88581,1,0,0:0:0:0:
80,252,88795,2,0,P|84:212|76:176,1,67.5,8|0,0:0|0:0,0:0:0:0:
40,116,89223,6,0,P|128:144|180:120,1,135,4|8,0:0|0:0,0:0:0:0:
324,104,90081,2,0,P|318:70|323:37,1,67.5,8|0,0:0|0:0,0:0:0:0:
404,36,90509,2,0,B|412:80|404:104|404:104|396:132|404:176,1,135,8|8,0:0|0:0,0:0:0:0:
436,244,91152,1,0,0:0:0:0:
436,244,91366,2,0,B|384:200|384:200|300:180,1,135,8|8,0:0|0:0,0:0:0:0:
256,136,92009,1,0,0:0:0:0:
256,136,92223,2,0,L|256:64,1,67.5,8|0,0:0|0:0,0:0:0:0:
188,24,92652,6,0,B|144:16|120:24|120:24|96:32|48:24,1,135,8|8,0:0|0:0,0:0:0:0:
16,184,93509,2,0,B|60:192|84:184|84:184|108:176|156:184,1,135,8|8,0:0|0:0,0:0:0:0:
296,252,94366,2,0,B|300:304|300:304|296:364,2,101.25,8|8|8,0:0|0:0|0:0,0:0:0:0:
232,200,95223,2,0,B|228:148|228:148|232:88,2,101.25,8|8|8,0:0|0:0|0:0,0:0:0:0:
192,272,96081,6,0,B|143:275|143:275|91:271,2,101.25,4|0|0,0:0|0:0|3:0,0:0:0:0:
256,324,96938,2,0,B|324:316|324:316|416:328,1,135,2|0,3:0|3:0,0:0:0:0:
452,176,97795,2,0,B|452:132|452:132|448:120|448:120|448:56,2,101.25,0|0|0,0:0|0:0|3:0,0:0:0:0:
380,216,98652,2,0,B|312:224|312:224|220:212,1,135,2|0,3:0|0:0,0:0:0:0:
92,260,99509,6,0,P|100:304|88:368,2,101.25,0|0|0,3:0|0:0|3:0,0:0:0:0:
28,212,100366,2,0,P|112:212|160:176,1,135,2|0,3:0|3:0,0:0:0:0:
108,28,101223,2,0,P|52:28|0:60,2,101.25,0|0|0,0:0|0:0|3:0,0:0:0:0:
148,100,102081,2,0,B|200:96|200:96|228:100|228:100|296:96,1,135,2|0,3:0|0:0,0:0:0:0:
352,140,102723,1,0,0:0:0:0:
352,140,102938,6,0,B|392:136|392:136|412:140|412:140|468:136,2,101.25,0|0|0,3:0|0:0|3:0,0:0:0:0:
288,192,103795,1,2,3:0:0:0:
344,252,104009,2,0,L|424:248,2,67.5,0|0|0,0:0|3:0|0:0,0:0:0:0:
300,320,104652,2,0,B|245:323|245:323|217:319|217:319|165:323,1,135,0|0,0:0|0:0,0:0:0:0:
84,328,105295,1,0,3:0:0:0:
84,328,105509,2,0,P|76:260|92:180,1,135,2|0,3:0|0:0,0:0:0:0:
204,80,106366,6,0,B|244:76|244:76|264:80|264:80|320:76,2,101.25,0|0|0,3:0|0:0|3:0,0:0:0:0:
220,160,107223,2,0,L|372:152,1,135,2|0,3:0|3:0,0:0:0:0:
384,76,107866,1,0,0:0:0:0:
384,76,108081,2,0,B|380:144|380:144|408:228,1,135,2|2,0:0|0:0,0:0:0:0:
288,324,108938,2,0,B|292:256|292:256|264:172,1,135,2|2,3:0|0:0,0:0:0:0:
184,56,109795,6,0,B|145:74|132:96|132:96|118:117|80:139,1,135,4|0,0:0|0:0,0:0:0:0:
84,300,110652,2,0,B|123:282|136:260|136:260|150:239|188:217,1,135,2|0,3:0|0:0,0:0:0:0:
256,168,111295,1,0,0:0:0:0:
320,216,111509,2,0,P|376:152|432:120,1,135,0|2,0:0|3:0,0:0:0:0:
500,264,112366,2,0,P|444:328|388:360,1,135,2|0,3:0|0:0,0:0:0:0:
256,284,113223,6,0,B|237:244|237:244|234:223|234:223|215:183,2,101.25,0|0|0,3:0|0:0|3:0,0:0:0:0:
180,312,114081,2,0,L|120:172,1,135,2|0,3:0|3:0,0:0:0:0:
60,140,114723,1,0,0:0:0:0:
60,140,114938,2,0,B|108:160|108:160|188:124,1,135,0|0,0:0|0:0,0:0:0:0:
336,180,115795,1,2,3:0:0:0:
368,108,116009,1,0,0:0:0:0:
368,108,116223,2,0,L|432:80,1,67.5,0|0,0:0|0:0,0:0:0:0:
468,152,116652,6,0,B|483:185|483:185|486:205|486:205|505:245,2,101.25,4|0|0,0:0|0:0|3:0,0:0:0:0:
400,196,117509,2,0,B|436:276|436:276|432:328,1,135,2|0,3:0|3:0,0:0:0:0:
360,360,118152,1,0,0:0:0:0:
280,356,118366,2,0,B|244:276|244:276|247:228,1,135,0|2,0:0|3:0,0:0:0:0:
292,72,119223,1,2,3:0:0:0:
400,196,119652,2,0,L|316:224,1,67.5,0|0,0:0|0:0,0:0:0:0:
276,164,120081,6,0,B|240:176|240:176|216:176|216:176|156:192,2,101.25,0|0|0,3:0|0:0|3:0,0:0:0:0:
236,92,120938,2,0,L|92:128,1,135,2|0,3:0|3:0,0:0:0:0:
40,76,121581,1,0,0:0:0:0:
16,152,121795,2,0,B|44:216|44:216|36:300,1,135,0|0,0:0|0:0,0:0:0:0:
256,192,122438,12,4,123509,0:0:0:0:
88,176,137223,6,0,B|119:201|131:228|131:228|143:254|174:278,1,135,12|8,0:0|0:0,0:0:0:0:
324,344,138081,2,0,L|344:192,1,135,8|8,0:0|0:0,0:0:0:0:
252,76,138938,1,8,0:0:0:0:
172,92,139152,1,0,0:0:0:0:
172,92,139366,2,0,L|180:25,1,67.5,8|0,0:0|0:0,0:0:0:0:
100,36,139795,2,0,L|91:102,1,67.5,8|0,0:0|0:0,0:0:0:0:
136,172,140223,1,8,0:0:0:0:
72,220,140438,1,0,0:0:0:0:
148,252,140652,6,0,B|184:288|184:288|196:316|196:316|236:352,1,135,8|8,0:0|0:0,0:0:0:0:
356,240,141509,2,0,B|316:204|316:204|304:176|304:176|268:140,1,135,8|8,0:0|0:0,0:0:0:0:
404,52,142366,1,8,0:0:0:0:
420,132,142581,1,0,0:0:0:0:
420,132,142795,2,0,L|476:180,1,67.5,8|0,0:0|0:0,0:0:0:0:
436,248,143223,1,8,0:0:0:0:
356,240,143438,1,0,0:0:0:0:
288,288,143652,2,0,L|236:244,1,67.5,8|0,0:0|0:0,0:0:0:0:
176,188,144081,6,0,B|188:252|188:252|180:324,1,135,8|8,0:0|0:0,0:0:0:0:
32,252,144938,2,0,B|20:188|20:188|28:116,1,135,8|8,0:0|0:0,0:0:0:0:
164,32,145795,1,8,0:0:0:0:
216,92,146009,1,0,0:0:0:0:
216,92,146223,2,0,L|296:48,1,67.5,8|0,0:0|0:0,0:0:0:0:
336,112,146652,2,0,L|416:68,2,67.5,8|0|8,0:0|0:0|0:0,0:0:0:0:
296,180,147295,1,0,0:0:0:0:
216,176,147509,6,0,B|170:200|170:200|150:224|150:224|106:252,1,135,8|8,0:0|0:0,0:0:0:0:
220,368,148366,2,0,B|264:340|264:340|284:316|284:316|329:291,1,135,8|8,0:0|0:0,0:0:0:0:
448,184,149223,2,0,B|448:128|448:128|444:104|444:104|444:40,2,135,2|2|0,3:0|3:0|3:0,0:0:0:0:
380,228,150295,1,0,3:0:0:0:
332,292,150509,2,0,P|300:244|300:228,1,67.5,0|0,3:0|3:0,0:0:0:0:
308,156,150938,6,0,L|209:248,1,135,4|0,0:0|0:0,0:0:0:0:
56,192,151795,2,0,L|154:99,1,135,8|0,0:0|3:0,0:0:0:0:
308,156,152652,2,0,L|388:84,2,101.25,0|0|0,0:0|0:0|3:0,0:0:0:0:
316,236,153509,2,0,P|248:184|216:184,2,101.25,8|0|0,0:0|0:0|0:0,0:0:0:0:
312,316,154366,6,0,L|432:208,1,135,4|0,0:0|0:0,0:0:0:0:
316,96,155223,2,0,P|264:76|224:76,1,67.5,8|0,0:0|0:0,0:0:0:0:
188,24,155652,2,0,B|200:96|200:96|184:188,1,135,0|0,3:0|0:0,0:0:0:0:
128,208,156295,1,0,0:0:0:0:
128,208,156509,2,0,P|94:201|64:187,2,67.5,0|0|8,0:0|3:0|0:0,0:0:0:0:
164,280,157152,1,0,0:0:0:0:
228,232,157366,2,0,P|261:238|291:252,1,67.5,0|0,0:0|0:0,0:0:0:0:
336,320,157795,6,0,B|324:248|324:248|340:156,1,135,4|0,0:0|0:0,0:0:0:0:
408,40,158652,2,0,B|364:32|340:40|340:40|316:48|272:40,1,135,8|0,0:0|3:0,0:0:0:0:
144,136,159509,2,0,B|112:128|96:136|96:136|76:144|40:136,2,101.25,0|0|0,0:0|0:0|3:0,0:0:0:0:
200,196,160366,2,0,P|224:144|216:96,2,101.25,8|0|0,0:0|0:0|0:0,0:0:0:0:
120,216,161223,6,0,L|256:292,1,135,4|0,0:0|0:0,0:0:0:0:
400,280,162081,2,0,L|468:316,2,67.5,8|0|0,0:0|0:0|3:0,0:0:0:0:
176,336,163795,6,0,L|76:280,2,101.25,2|2|2,3:0|3:0|3:0,3:0:0:0:
237,281,164652,6,0,L|120:216,1,135,12|8,0:0|0:0,0:0:0:0:
136,136,165295,1,0,0:0:0:0:
216,120,165509,2,0,P|240:80|240:44,2,67.5,8|0|8,0:0|0:0|0:0,0:0:0:0:
256,192,166152,1,0,0:0:0:0:
336,172,166366,2,0,B|383:196|383:196|402:220|402:220|446:245,1,135,8|8,0:0|0:0,0:0:0:0:
480,320,167009,1,0,0:0:0:0:
400,324,167223,2,0,L|320:284,1,67.5,8|0,0:0|0:0,0:0:0:0:
264,324,167652,1,8,0:0:0:0:
264,324,167866,1,0,0:0:0:0:
252,244,168081,6,0,P|148:192|108:184,1,135,8|8,0:0|0:0,0:0:0:0:
56,220,168723,1,0,0:0:0:0:
80,296,168938,2,0,P|120:320|144:328,1,67.5,8|0,0:0|0:0,0:0:0:0:
216,356,169366,1,8,0:0:0:0:
288,320,169581,1,0,0:0:0:0:
360,352,169795,2,0,P|408:288|472:264,1,135,8|8,0:0|0:0,0:0:0:0:
440,188,170438,1,0,0:0:0:0:
440,188,170652,2,0,P|400:180|372:164,2,67.5,8|0|8,0:0|0:0|0:0,0:0:0:0:
284,236,171509,6,0,P|220:200|160:184,1,135,8|8,0:0|0:0,0:0:0:0:
84,204,172152,1,0,0:0:0:0:
44,132,172366,2,0,B|40:96|40:96|44:60,1,67.5,8|0,0:0|0:0,0:0:0:0:
116,28,172795,2,0,B|120:64|120:64|116:100,1,67.5,8|0,0:0|0:0,0:0:0:0:
176,152,173223,2,0,B|204:168|204:168|240:176,1,67.5,8|0,0:0|0:0,0:0:0:0:
316,152,173652,2,0,B|350:159|350:159|378:175,1,67.5,8|0,0:0|0:0,0:0:0:0:
376,256,174081,2,0,B|341:248|341:248|313:232,2,67.5,8|0|8,0:0|0:0|0:0,0:0:0:0:
448,220,174723,1,0,0:0:0:0:
448,220,174938,6,0,P|440:304|384:336,1,135,8|8,0:0|0:0,0:0:0:0:
324,328,175581,1,0,0:0:0:0:
256,284,175795,2,0,B|212:259|212:259|175:251|175:251|126:223,1,135,8|8,0:0|0:0,0:0:0:0:
92,296,176438,1,0,0:0:0:0:
92,296,176652,2,0,L|92:136,1,135,8|8,0:0|0:0,0:0:0:0:
148,104,177295,1,0,0:0:0:0:
224,132,177509,2,0,L|304:176,1,67.5,8|0,0:0|0:0,0:0:0:0:
356,132,177938,6,0,B|312:188|312:188|312:260,1,135,8|0,0:0|0:0,0:0:0:0:
256,192,178581,12,0,180134,0:0:0:0:
