osu file format v14

[General]
AudioFilename: Save ME.mp3
AudioLeadIn: 0
PreviewTime: 67152
Countdown: 0
SampleSet: Soft
StackLeniency: 0.7
Mode: 0
LetterboxInBreaks: 0
WidescreenStoryboard: 0

[Editor]
DistanceSpacing: 1
BeatDivisor: 4
GridSize: 4
TimelineZoom: 1

[Metadata]
Title:Save ME
TitleUnicode:Save ME
Artist:BTS
ArtistUnicode:방탄소년단
Creator:wasinkingspeedq
Version:Normal
Source:
Tags:big hit.entertainment kpop bantansoyeondan rapmonster suga jin jhope jimin v jungkook 화양연화 Young Forever
BeatmapID:1167477
BeatmapSetID:450917

[Difficulty]
HPDrainRate:3
CircleSize:3
OverallDifficulty:3.5
ApproachRate:3.5
SliderMultiplier:1.2
SliderTickRate:1

[Events]
//Background and Video events
0,0,"BG.jpg",0,0
//Break Periods
2,41423,53558
2,123709,135843
//Storyboard Layer 0 (Background)
//Storyboard Layer 1 (Fail)
//Storyboard Layer 2 (Pass)
//Storyboard Layer 3 (Foreground)
//Storyboard Sound Samples

[TimingPoints]
81,428.571428571429,4,2,0,65,1,0
13795,-100,4,2,1,65,0,0
54938,-100,4,2,0,65,0,0
68652,-100,4,2,0,80,0,1
81509,-100,4,2,0,70,0,0
82366,-100,4,2,1,80,0,1
96081,-100,4,2,0,65,0,0
150938,-100,4,2,0,80,0,1
163795,-100,4,2,0,70,0,0
164652,-100,4,2,1,80,0,1
178366,-100,4,2,1,50,0,0

[Colours]
Combo1 : 255,170,85
Combo2 : 192,192,192
Combo3 : 255,255,128
Combo4 : 128,255,255

[HitObjects]
28,308,13795,6,0,B|80:284|148:308|148:308|212:332|264:316,1,240,0|2,0:0|0:0,0:0:0:0:
360,244,15081,1,0,0:0:0:0:
460,312,15509,2,0,P|472:200|376:128,1,240,0|2,0:0|0:0,0:0:0:0:
280,60,16795,1,0,0:0:0:0:
256,176,17223,6,0,B|180:208|180:208|0:160,1,240,0|2,0:0|0:0,0:0:0:0:
60,52,18509,1,0,0:0:0:0:
180,52,18938,2,0,L|420:116,1,240,0|2,0:0|0:0,0:0:0:0:
464,220,20223,1,0,0:0:0:0:
368,292,20652,6,0,B|294:270|294:270|210:264|210:264|129:241,1,240,0|2,0:0|0:0,0:0:0:0:
60,148,21938,1,0,0:0:0:0:
180,128,22366,2,0,B|356:176|356:176|328:120,1,240,0|2,0:0|0:0,0:0:0:0:
256,32,23652,1,0,0:0:0:0:
136,44,24081,6,0,P|84:124|176:228,1,240,0|2,0:0|0:0,0:0:0:0:
256,148,25366,1,0,0:0:0:0:
324,48,25795,2,0,B|380:92|376:152|376:152|480:228,1,240,0|2,0:0|0:0,0:0:0:0:
476,344,27081,1,0,0:0:0:0:
372,284,27509,6,0,B|300:232|300:232|252:216,1,120,0|0,3:0|3:0,3:0:0:0:
228,264,28152,1,0,0:0:0:0:
228,264,28366,2,0,P|228:192|196:124,1,120,2|0,0:0|0:0,0:0:0:0:
108,88,29223,1,0,0:0:0:0:
28,180,29652,2,0,P|28:252|60:320,1,120,0|2,0:0|0:0,0:0:0:0:
148,356,30509,1,0,0:0:0:0:
228,264,30938,6,0,P|288:252|360:256,1,120,0|0,3:0|3:0,3:0:0:0:
392,296,31581,1,0,0:0:0:0:
392,296,31795,2,0,B|376:260|392:220|392:220|436:184,1,120,2|0,0:0|0:0,0:0:0:0:
384,80,32652,2,0,B|328:128|328:128|276:144,1,120,0|0,0:0|0:0,0:0:0:0:
176,88,33509,2,0,P|192:160|176:216,1,120,2|0,0:0|0:0,0:0:0:0:
72,152,34366,6,0,P|55:94|66:36,1,120,0|0,3:0|3:0,3:0:0:0:
124,24,35009,1,0,0:0:0:0:
124,24,35223,2,0,B|172:20|172:20|196:24|196:24|244:20,1,120,2|0,0:0|0:0,0:0:0:0:
348,76,36081,2,0,B|352:124|352:124|348:148|348:148|352:196,1,120,0|0,0:0|0:0,0:0:0:0:
312,240,36723,1,0,0:0:0:0:
312,240,36938,2,0,L|316:312,2,60,2|0|0,0:0|0:0|0:0,0:0:0:0:
192,220,37795,6,0,B|188:172|188:172|192:148|192:148|188:100,1,120,0|0,3:0|3:0,3:0:0:0:
140,68,38438,1,0,0:0:0:0:
140,68,38652,2,0,L|72:72,2,60,2|0|0,0:0|0:0|0:0,0:0:0:0:
256,192,39509,12,4,41223,0:0:0:0:
96,96,54938,6,0,B|104:132|96:156|96:156|88:180|96:216,1,120,12|8,0:0|0:0,0:0:0:0:
160,316,55795,2,0,P|204:268|216:216,1,120,8|8,0:0|0:0,0:0:0:0:
256,104,56652,1,8,0:0:0:0:
332,196,57081,2,0,P|364:272|412:304,1,120,8|8,0:0|0:0,0:0:0:0:
448,188,57938,1,8,0:0:0:0:
352,116,58366,6,0,P|260:160|252:196,1,120,8|8,0:0|0:0,0:0:0:0:
196,272,59223,1,8,0:0:0:0:
104,192,59652,1,8,0:0:0:0:
164,88,60081,1,8,0:0:0:0:
256,169,60509,2,0,B|304:165|304:165|328:169|328:169|376:165,1,120,8|8,0:0|0:0,0:0:0:0:
468,240,61366,1,8,0:0:0:0:
380,324,61795,6,0,B|332:328|332:328|308:324|308:324|260:328,1,120,8|8,0:0|0:0,0:0:0:0:
168,252,62652,2,0,B|76:260|76:260|88:232,1,120,8|8,0:0|0:0,0:0:0:0:
136,124,63509,1,8,0:0:0:0:
236,188,63938,2,0,B|252:248|252:248|240:312,1,120,8|8,0:0|0:0,0:0:0:0:
352,356,64795,1,8,0:0:0:0:
448,288,65223,6,0,B|432:228|432:228|444:164,1,120,8|8,0:0|0:0,0:0:0:0:
336,120,66081,1,8,0:0:0:0:
236,188,66509,1,8,0:0:0:0:
156,100,66938,2,0,B|96:112|96:112|28:96,2,120,2|2|0,3:0|3:0|3:0,0:0:0:0:
236,188,68223,2,0,L|304:176,1,60,0|0,3:0|3:0,0:0:0:0:
332,224,68652,6,0,B|392:212|392:212|456:228,1,120,4|0,0:0|0:0,0:0:0:0:
444,348,69509,2,0,B|384:360|384:360|320:344,1,120,8|0,0:0|3:0,0:0:0:0:
256,248,70366,2,0,B|197:252|143:289|143:289|92:324|30:330,1,240,0|8,0:0|0:0,0:0:0:0:
32,208,71652,1,0,0:0:0:0:
140,156,72081,6,0,P|212:132|272:124,1,120,4|0,0:0|0:0,0:0:0:0:
344,204,72938,2,0,P|388:192|428:176,2,60,8|0|0,0:0|0:0|3:0,0:0:0:0:
344,324,73795,2,0,P|424:308|472:284,2,120,0|0|8,0:0|0:0|0:0,0:0:0:0:
256,244,75081,1,0,0:0:0:0:
156,308,75509,6,0,B|136:272|140:232|140:232|100:264,1,120,4|0,0:0|0:0,0:0:0:0:
12,184,76366,2,0,L|112:108,1,120,8|0,0:0|3:0,0:0:0:0:
196,32,77223,2,0,B|252:100|208:176|208:176|140:228,1,240,0|8,0:0|0:0,0:0:0:0:
140,348,78509,1,0,0:0:0:0:
256,324,78938,6,0,L|360:248,1,120,4|0,0:0|0:0,0:0:0:0:
444,176,79795,2,0,L|504:136,2,60,8|0|0,0:0|0:0|3:0,0:0:0:0:
128,352,81509,6,0,L|16:292,1,120,2|2,3:0|3:0,0:0:0:0:
100,204,82366,6,0,L|228:272,1,120,4|8,0:0|0:0,0:0:0:0:
256,152,83223,2,0,L|136:88,1,120,8|8,0:0|0:0,0:0:0:0:
48,32,84081,1,8,0:0:0:0:
48,152,84509,1,8,0:0:0:0:
150,95,84938,2,0,L|214:91,1,60,8|0,0:0|0:0,0:0:0:0:
256,132,85366,2,0,L|328:128,1,60,8|0,0:0|0:0,0:0:0:0:
372,152,85795,6,0,B|376:199|376:199|386:223|386:223|391:278,1,120,8|8,0:0|0:0,0:0:0:0:
284,328,86652,2,0,L|208:332,1,60,8|0,0:0|0:0,0:0:0:0:
180,288,87081,2,0,L|40:296,1,120,8|8,0:0|0:0,0:0:0:0:
36,176,87938,2,0,B|84:172|84:172|108:176|108:176|172:172,1,120,8|2,0:0|3:0,0:0:0:0:
256,240,88795,2,0,L|260:308,1,60,8|0,0:0|0:0,0:0:0:0:
320,308,89223,6,0,B|353:295|367:273|367:273|398:279|432:266,1,120,4|8,0:0|0:0,0:0:0:0:
444,148,90081,2,0,P|488:144|528:132,2,60,8|0|8,0:0|0:0|0:0,0:0:0:0:
336,96,90938,1,8,0:0:0:0:
252,184,91366,2,0,P|164:208|128:232,1,120,8|8,0:0|0:0,0:0:0:0:
80,212,92009,1,0,0:0:0:0:
80,212,92223,2,0,L|76:144,1,60,8|0,0:0|0:0,0:0:0:0:
80,92,92652,6,0,P|144:81|204:41,1,120,8|8,0:0|0:0,0:0:0:0:
256,156,93509,2,0,P|320:145|380:105,1,120,8|8,0:0|0:0,0:0:0:0:
408,4,94366,2,0,P|484:96|432:216,1,240,8|8,0:0|0:0,0:0:0:0:
352,272,95652,1,8,0:0:0:0:
256,200,96081,6,0,B|196:188|196:188|124:200,1,120,4|0,0:0|0:0,0:0:0:0:
84,224,96723,1,0,3:0:0:0:
84,224,96938,2,0,B|76:176|76:176|84:152|84:152|76:100,1,120,2|0,3:0|3:0,0:0:0:0:
180,40,97795,1,0,0:0:0:0:
256,132,98223,2,0,L|260:204,2,60,0|0|2,0:0|3:0|3:0,0:0:0:0:
344,52,99081,1,0,0:0:0:0:
436,128,99509,6,0,B|443:173|443:173|435:197|435:197|443:245,1,120,0|0,3:0|0:0,0:0:0:0:
396,284,100152,1,0,3:0:0:0:
396,284,100366,2,0,B|355:290|339:304|339:304|319:320|275:327,1,120,2|0,3:0|3:0,0:0:0:0:
200,244,101223,2,0,B|234:238|254:222|254:222|270:208|311:201,1,120,0|0,0:0|0:0,0:0:0:0:
368,188,101866,1,0,3:0:0:0:
368,188,102081,2,0,L|332:56,1,120,2|0,3:0|0:0,0:0:0:0:
216,52,102938,5,0,3:0:0:0:
116,120,103366,2,0,L|136:192,1,60,0|0,0:0|3:0,0:0:0:0:
172,220,103795,2,0,B|203:200|228:199|228:199|253:198|284:178,1,120,2|0,3:0|3:0,0:0:0:0:
340,204,104438,1,0,0:0:0:0:
340,204,104652,2,0,B|360:288|360:288|400:264,1,120,0|0,0:0|0:0,0:0:0:0:
444,248,105295,1,0,3:0:0:0:
444,248,105509,2,0,L|412:116,1,120,2|0,3:0|0:0,0:0:0:0:
304,84,106366,6,0,B|244:72|244:72|184:28,1,120,0|0,3:0|3:0,3:0:0:0:
140,52,107009,1,0,3:0:0:0:
140,52,107223,2,0,P|140:136|128:188,1,120,2|0,3:0|0:0,0:0:0:0:
24,220,108081,2,0,P|148:188|212:280,1,240,0|2,0:0|3:0,0:0:0:0:
304,340,109366,1,0,0:0:0:0:
344,228,109795,6,0,P|304:152|268:120,1,120,4|0,0:0|0:0,0:0:0:0:
376,56,110652,2,0,P|416:132|452:164,1,120,2|0,3:0|0:0,0:0:0:0:
468,208,111295,1,0,0:0:0:0:
468,208,111509,2,0,B|476:268|476:268|464:348,1,120,0|2,0:0|3:0,0:0:0:0:
352,364,112366,1,2,3:0:0:0:
252,296,112795,1,0,0:0:0:0:
144,352,113223,6,0,B|136:292|136:292|148:212,1,120,0|0,3:0|0:0,0:0:0:0:
192,196,113866,1,0,3:0:0:0:
192,196,114081,2,0,B|226:181|251:185|251:185|276:189|314:174,1,120,2|0,3:0|3:0,0:0:0:0:
324,56,114938,2,0,B|332:120|308:176|308:176|364:204|400:284,1,240,0|2,0:0|3:0,0:0:0:0:
464,352,116223,1,0,0:0:0:0:
480,232,116652,6,0,P|448:176|404:124,1,120,4|0,0:0|0:0,0:0:0:0:
316,208,117509,2,0,P|278:161|248:109,1,120,2|0,3:0|3:0,0:0:0:0:
188,100,118152,1,0,0:0:0:0:
188,100,118366,2,0,L|64:156,1,120,0|2,0:0|3:0,0:0:0:0:
40,264,119223,1,2,3:0:0:0:
144,332,119652,1,0,0:0:0:0:
232,252,120081,6,0,B|275:231|275:231|295:228|295:228|343:207,1,120,0|0,3:0|0:0,0:0:0:0:
400,220,120723,1,0,3:0:0:0:
400,220,120938,2,0,P|364:172|376:100,2,120,2|0|0,3:0|3:0|0:0,0:0:0:0:
256,192,122009,12,4,123509,0:0:0:0:
412,296,137223,6,0,B|364:332|364:332|292:348,1,120,12|8,0:0|0:0,0:0:0:0:
248,240,138081,2,0,B|296:204|296:204|368:188,1,120,8|8,0:0|0:0,0:0:0:0:
472,172,138938,1,8,0:0:0:0:
388,88,139366,2,0,B|308:104|308:104|252:84,1,120,8|8,0:0|0:0,0:0:0:0:
168,36,140223,1,8,0:0:0:0:
68,104,140652,6,0,P|60:184|68:240,1,120,8|8,0:0|0:0,0:0:0:0:
136,320,141509,1,8,0:0:0:0:
196,216,141938,1,8,0:0:0:0:
300,156,142366,2,0,B|360:164|360:164|428:140,1,120,8|8,0:0|0:0,0:0:0:0:
484,244,143223,2,0,B|424:236|424:236|356:260,1,120,8|8,0:0|0:0,0:0:0:0:
292,348,144081,6,0,P|252:288|252:228,1,120,8|8,0:0|0:0,0:0:0:0:
232,124,144938,2,0,B|191:130|175:144|175:144|155:160|111:167,1,120,8|8,0:0|0:0,0:0:0:0:
12,216,145795,1,8,0:0:0:0:
116,276,146223,2,0,P|184:256|244:216,1,120,8|8,0:0|0:0,0:0:0:0:
328,164,147081,1,8,0:0:0:0:
432,104,147509,6,0,L|464:244,1,120,8|8,0:0|0:0,0:0:0:0:
354,280,148366,2,0,L|322:140,1,120,8|8,0:0|0:0,0:0:0:0:
208,156,149223,2,0,L|176:16,2,120,2|2|0,3:0|3:0|3:0,0:0:0:0:
328,160,150509,2,0,L|408:144,1,60,0|0,3:0|3:0,0:0:0:0:
436,112,150938,6,0,P|432:200|468:244,1,120,4|0,0:0|0:0,0:0:0:0:
336,276,151795,2,0,B|295:282|279:296|279:296|259:312|215:319,1,120,8|0,0:0|3:0,0:0:0:0:
112,360,152652,2,0,P|180:312|164:152,1,240,0|8,0:0|0:0,0:0:0:0:
80,240,153938,1,0,0:0:0:0:
80,120,154366,6,0,B|120:80|120:80|200:52,1,120,4|0,0:0|0:0,0:0:0:0:
256,152,155223,2,0,L|324:128,2,60,8|0|0,0:0|0:0|3:0,0:0:0:0:
240,272,156081,2,0,B|180:292|180:292|140:332,1,120,0|0,0:0|0:0,0:0:0:0:
52,252,156938,2,0,B|97:207|97:207|116:154,1,120,8|0,0:0|0:0,0:0:0:0:
220,96,157795,6,0,P|252:164|300:176,1,120,4|0,0:0|0:0,0:0:0:0:
408,160,158652,2,0,L|432:304,1,120,8|0,0:0|3:0,0:0:0:0:
310,294,159509,2,0,L|286:150,1,120
308,56,160366,2,0,P|224:72|196:96,1,120,8|0,0:0|0:0,0:0:0:0:
168,208,161223,6,0,L|187:326,1,120,4|0,0:0|0:0,0:0:0:0:
72,356,162081,2,0,L|60:292,2,60,8|0|0,0:0|0:0|3:0,0:0:0:0:
372,156,163795,6,0,L|352:32,1,120,2|2,3:0|3:0,0:0:0:0:
468,76,164652,6,0,L|487:194,1,120,12|8,0:0|0:0,0:0:0:0:
432,228,165295,1,0,0:0:0:0:
432,228,165509,2,0,P|344:200|320:208,1,120,8|8,0:0|0:0,0:0:0:0:
252,304,166366,2,0,P|193:311|141:283,1,120,8|8,0:0|0:0,0:0:0:0:
100,240,167009,1,0,0:0:0:0:
100,240,167223,2,0,B|90:196|90:196|97:168|97:168|87:112,1,120,8|8,0:0|0:0,0:0:0:0:
188,56,168081,6,0,B|200:124|200:124|244:160,1,120,8|8,0:0|0:0,0:0:0:0:
288,192,168723,1,0,0:0:0:0:
288,192,168938,2,0,P|328:136|388:116,1,120,8|8,0:0|0:0,0:0:0:0:
400,236,169795,2,0,P|368:285|313:305,1,120,8|8,0:0|0:0,0:0:0:0:
256,292,170438,1,0,0:0:0:0:
256,292,170652,2,0,L|152:368,1,120,8|8,0:0|0:0,0:0:0:0:
76,276,171509,6,0,L|180:200,1,120,8|8,0:0|0:0,0:0:0:0:
184,144,172152,1,0,0:0:0:0:
184,144,172366,2,0,L|236:108,1,60,8|0,0:0|0:0,0:0:0:0:
252,52,172795,2,0,P|276:116|336:144,1,120,8|8,0:0|0:0,0:0:0:0:
424,84,173652,2,0,B|436:140|436:140|416:224,1,120,8|8,0:0|0:0,0:0:0:0:
392,252,174295,1,0,0:0:0:0:
392,252,174509,2,0,L|320:272,1,60,8|0,0:0|0:0,0:0:0:0:
280,240,174938,6,0,B|236:248|236:248|204:240|204:240|144:248,1,120,8|8,0:0|0:0,0:0:0:0:
62,317,175795,2,0,P|40:262|48:204,1,120,8|8,0:0|0:0,0:0:0:0:
92,164,176438,1,0,0:0:0:0:
92,164,176652,2,0,L|216:144,1,120,8|8,0:0|0:0,0:0:0:0:
304,224,177509,2,0,L|372:212,1,60,8|0,0:0|0:0,0:0:0:0:
424,212,177938,6,0,B|400:172|400:172|480:156,1,120,8|0,0:0|0:0,0:0:0:0:
256,192,178581,12,0,180134,0:0:0:0:
