osu file format v14

[General]
AudioFilename: Save ME.mp3
AudioLeadIn: 0
PreviewTime: 67152
Countdown: 0
SampleSet: Soft
StackLeniency: 0.7
Mode: 0
LetterboxInBreaks: 0
WidescreenStoryboard: 0

[Editor]
DistanceSpacing: 1.2
BeatDivisor: 4
GridSize: 4
TimelineZoom: 1

[Metadata]
Title:Save ME
TitleUnicode:Save ME
Artist:BTS
ArtistUnicode:방탄소년단
Creator:wasinkingspeedq
Version:Hard
Source:
Tags:big hit.entertainment kpop bantansoyeondan rapmonster suga jin jhope jimin v jungkook 화양연화 Young Forever
BeatmapID:967387
BeatmapSetID:450917

[Difficulty]
HPDrainRate:6
CircleSize:4
OverallDifficulty:6
ApproachRate:7.5
SliderMultiplier:1.6
SliderTickRate:1

[Events]
//Background and Video events
0,0,"BG3.jpg",0,0
//Break Periods
2,41423,53963
2,123709,136248
//Storyboard Layer 0 (Background)
//Storyboard Layer 1 (Fail)
//Storyboard Layer 2 (Pass)
//Storyboard Layer 3 (Foreground)
//Storyboard Sound Samples

[TimingPoints]
81,428.571428571429,4,2,0,65,1,0
13795,-133.333333333333,4,2,1,65,0,0
54938,-133.333333333333,4,2,0,65,0,0
67795,-100,4,2,0,70,0,0
68652,-100,4,2,0,80,0,1
81509,-100,4,2,0,70,0,0
82366,-100,4,2,1,80,0,1
96081,-100,4,2,0,65,0,0
137223,-133.333333333333,4,2,0,65,0,0
150081,-100,4,2,0,70,0,0
150938,-100,4,2,0,80,0,1
163795,-100,4,2,0,70,0,0
164652,-100,4,2,1,80,0,1
178366,-133.333333333333,4,2,0,50,0,0

[Colours]
Combo1 : 255,170,85
Combo2 : 192,192,192
Combo3 : 255,255,128
Combo4 : 128,255,255

[HitObjects]
256,192,11223,12,0,13795,0:0:0:0:
224,272,14223,5,0,0:0:0:0:
336,180,14652,1,2,0:0:0:0:
200,132,15081,1,0,0:0:0:0:
224,272,15509,5,0,0:0:0:0:
336,180,15938,2,0,L|455:176,1,120.000004577637,0|2,0:0|0:0,0:0:0:0:
392,48,16795,1,0,0:0:0:0:
272,128,17223,6,0,P|256:196|288:248,1,120.000004577637,0|0,0:0|0:0,0:0:0:0:
404,312,18081,1,2,0:0:0:0:
408,168,18509,1,0,0:0:0:0:
277,238,18938,5,0,0:0:0:0:
404,312,19366,1,0,0:0:0:0:
408,168,19795,2,0,L|384:44,1,120.000004577637,2|0,0:0|0:0,0:0:0:0:
277,238,20652,6,0,L|299:355,1,120.000004577637,0|0,0:0|0:0,0:0:0:0:
416,272,21509,1,2,0:0:0:0:
277,238,21938,1,0,0:0:0:0:
164,324,22366,6,0,B|136:316|104:324|104:324|68:336|32:324,2,120.000004577637,0|0|2,0:0|0:0|0:0,0:0:0:0:
256,212,23652,1,0,0:0:0:0:
348,324,24081,6,0,B|376:316|408:324|408:324|444:336|480:324,2,120.000004577637,0|0|2,0:0|0:0|0:0,0:0:0:0:
256,212,25366,1,0,0:0:0:0:
148,116,25795,6,0,P|96:143|39:127,2,120.000004577637,0|0|2,0:0|0:0|0:0,0:0:0:0:
256,212,27081,2,0,L|284:132,1,60.0000022888184,0|0,0:0|0:0,0:0:0:0:
348,168,27509,6,0,L|384:64,2,90.0000034332277,0|0|0,3:0|3:0|3:0,0:0:0:0:
420,184,28366,2,0,L|382:297,1,120.000004577637,2|0,0:0|0:0,0:0:0:0:
444,336,29009,1,0,0:0:0:0:
382,297,29223,6,0,B|334:313|346:281|278:301,2,90.0000034332277,0|0|0,0:0|0:0|0:0,0:0:0:0:
368,228,30081,2,0,P|300:220|240:236,1,120.000004577637,2|0,0:0|0:0,0:0:0:0:
196,280,30723,1,0,0:0:0:0:
140,236,30938,6,0,B|147:206|144:192|144:192|139:178|143:146,2,90.0000034332277,0|0|0,3:0|3:0|3:0,0:0:0:0:
72,208,31795,2,0,P|68:148|92:80,1,120.000004577637,2|0,0:0|0:0,0:0:0:0:
216,32,32652,6,0,B|240:25|260:33|260:33|280:41|304:33,2,90.0000034332277,0|0|0,0:0|0:0|0:0,0:0:0:0:
232,104,33509,2,0,P|316:108|352:92,1,120.000004577637,2|0,0:0|0:0,0:0:0:0:
420,92,34152,1,0,0:0:0:0:
400,160,34366,6,0,P|384:228|392:272,2,90.0000034332277,0|0|0,3:0|3:0|3:0,0:0:0:0:
472,160,35223,2,0,P|472:228|444:288,1,120.000004577637,2|0,0:0|0:0,0:0:0:0:
396,320,35866,1,0,0:0:0:0:
324,308,36081,6,0,B|300:312|300:312|284:308|284:308|252:312,1,60.0000022888184
204,272,36509,2,0,L|140:276,1,60.0000022888184,0|0,0:0|0:0,0:0:0:0:
88,324,36938,1,2,0:0:0:0:
76,252,37152,1,0,0:0:0:0:
64,180,37366,1,0,0:0:0:0:
64,180,37795,6,0,B|61:150|48:138|48:138|34:122|33:97,2,90.0000034332277,0|0|0,3:0|3:0|3:0,0:0:0:0:
136,168,38652,1,2,0:0:0:0:
208,156,38866,1,0,0:0:0:0:
280,140,39081,1,0,0:0:0:0:
228,88,39295,1,0,0:0:0:0:
208,156,39509,6,2,L|212:208,3,30.0000011444092
240,208,39938,2,2,L|244:252,3,30.0000011444092
260,268,40366,1,2,0:0:0:0:
328,240,40581,1,0,0:0:0:0:
396,268,40795,2,0,B|415:265|415:265|431:269|431:269|455:265,1,60.0000022888184
492,204,41223,5,4,0:0:0:0:
92,204,54938,6,0,B|88:236|71:260|71:260|54:283|50:316,1,120.000004577637,12|8,0:0|0:0,0:0:0:0:
184,264,55795,2,0,B|187:232|204:209|204:209|221:185|224:152,1,120.000004577637,8|8,0:0|0:0,0:0:0:0:
316,44,56652,5,8,0:0:0:0:
364,96,56866,1,0,0:0:0:0:
436,84,57081,2,0,L|500:80,1,60.0000022888184,8|0,0:0|0:0,0:0:0:0:
504,152,57509,2,0,L|444:155,1,60.0000022888184,8|0,0:0|0:0,0:0:0:0:
384,196,57938,1,8,0:0:0:0:
320,160,58152,1,0,0:0:0:0:
276,216,58366,6,0,B|279:248|296:272|296:272|313:295|316:327,1,120.000004577637,8|8,0:0|0:0,0:0:0:0:
176,300,59223,2,0,B|172:268|155:245|155:245|138:221|135:188,1,120.000004577637,8|8,0:0|0:0,0:0:0:0:
256,112,60081,5,8,0:0:0:0:
188,136,60295,1,0,0:0:0:0:
135,188,60509,2,0,B|115:190|115:190|99:186|99:186|75:190,1,60.0000022888184,8|0,0:0|0:0,0:0:0:0:
76,264,60938,2,0,B|100:260|100:260|116:264|116:264|135:261,1,60.0000022888184,8|0,0:0|0:0,0:0:0:0:
208,272,61366,2,0,L|232:344,1,60.0000022888184,8|0,0:0|0:0,0:0:0:0:
300,316,61795,6,0,L|252:180,1,120.000004577637,8|8,0:0|0:0,0:0:0:0:
292,140,62438,1,0,0:0:0:0:
364,152,62652,2,0,L|403:265,1,120.000004577637,8|8,0:0|0:0,0:0:0:0:
404,264,63509,5,8,0:0:0:0:
476,260,63723,1,0,0:0:0:0:
496,192,63938,2,0,L|477:135,1,60.0000022888184,8|0,0:0|0:0,0:0:0:0:
408,112,64366,2,0,P|376:120|340:120,1,60.0000022888184,8|0,0:0|0:0,0:0:0:0:
300,68,64795,2,0,B|280:70|280:70|264:66|264:66|240:70,1,60.0000022888184,8|0,0:0|0:0,0:0:0:0:
176,104,65223,6,0,L|180:140,3,30.0000011444092,8|0|0|0,0:0|0:0|0:0|0:0,0:0:0:0:
156,164,65652,2,0,L|160:208,3,30.0000011444092,8|0|0|0,0:0|0:0|0:0|0:0,0:0:0:0:
132,220,66081,2,0,L|136:268,3,30.0000011444092,8|0|0|0,0:0|0:0|0:0|0:0,0:0:0:0:
108,276,66509,2,0,L|112:328,3,30.0000011444092,8|0|0|0,0:0|0:0|0:0|0:0,0:0:0:0:
88,336,66938,5,2,3:0:0:0:
88,336,67366,1,2,3:0:0:0:
88,336,67795,1,0,3:0:0:0:
32,256,68009,5,0,0:0:0:0:
32,256,68116,1,0,3:0:0:0:
32,256,68223,1,0,3:0:0:0:
112,200,68438,1,0,0:0:0:0:
200,240,68652,6,0,B|244:232|244:232|272:240|272:240|317:233,2,120,4|0|0,0:0|0:0|3:0,0:0:0:0:
400,284,69509,2,0,P|412:224|400:192,2,80,8|0|0,0:0|0:0|3:0,0:0:0:0:
312,320,70152,1,0,0:0:0:0:
216,336,70366,6,0,B|170:342|170:342|142:334|142:334|98:342,2,120
256,248,71223,2,0,L|252:120,2,120,8|0|0,0:0|0:0|0:0,0:0:0:0:
160,236,72081,6,0,B|156:180|156:180|160:136|160:136|156:68,1,160,4|0,0:0|0:0,0:0:0:0:
72,28,72723,1,0,3:0:0:0:
4,96,72938,1,8,0:0:0:0:
80,156,73152,1,0,0:0:0:0:
80,156,73366,2,0,B|123:182|153:180|153:180|184:179|228:208,1,160,0|0,3:0|0:0,0:0:0:0:
296,140,74009,5,0,0:0:0:0:
376,192,74223,2,0,P|405:218|441:236,1,80,0|0,0:0|3:0,0:0:0:0:
444,332,74652,2,0,P|384:352|360:368,1,80,8|0,0:0|0:0,0:0:0:0:
288,312,75081,2,0,P|288:264|280:228,1,80
216,164,75509,6,0,B|247:144|268:144|268:144|293:144|328:122,2,120,4|0|0,0:0|0:0|3:0,0:0:0:0:
140,220,76366,2,0,P|124:172|128:128,1,80,8|0,0:0|0:0,0:0:0:0:
164,56,76795,1,0,3:0:0:0:
260,68,77009,1,0,0:0:0:0:
260,68,77223,6,0,B|294:46|316:47|316:47|337:48|372:26,2,120
320,144,78081,2,0,P|400:120|444:88,2,120,8|0|0,0:0|0:0|0:0,0:0:0:0:
260,68,78938,6,0,B|296:144|296:144|292:244,1,160,4|0,0:0|0:0,0:0:0:0:
256,304,79581,1,0,3:0:0:0:
176,248,79795,2,0,P|124:260|92:280,2,80,8|0|0,0:0|0:0|3:0,0:0:0:0:
220,160,80438,1,0,0:0:0:0:
292,219,80652,6,2,L|352:215,3,40
356,168,81081,2,2,L|428:160,3,40
428,128,81509,5,2,3:0:0:0:
496,196,81723,1,0,0:0:0:0:
496,196,81831,1,2,3:0:0:0:
496,196,81938,1,0,3:0:0:0:
452,280,82152,1,2,3:0:0:0:
359,247,82366,6,0,B|355:215|355:215|359:199|359:199|355:163,1,80,12|0,0:0|0:0,0:0:0:0:
284,104,82795,2,0,P|228:104|200:112,1,80,8|0,0:0|0:0,0:0:0:0:
172,200,83223,2,0,P|211:202|250:193,1,80,8|0,0:0|0:0,0:0:0:0:
84,160,83652,2,0,P|80:224|96:260,1,80,8|0,0:0|0:0,0:0:0:0:
152,304,84081,6,0,P|191:295|230:297,1,80,8|0,0:0|0:0,0:0:0:0:
300,364,84509,2,0,P|272:268|280:184,1,160,8|8,0:0|0:0,0:0:0:0:
312,120,85152,1,0,0:0:0:0:
392,172,85366,2,0,B|424:168|424:168|440:172|440:172|480:168,1,80,8|0,0:0|0:0,0:0:0:0:
312,120,85795,6,0,B|248:124|248:124|220:120|220:120|144:124,1,160,8|8,0:0|0:0,0:0:0:0:
80,60,86438,1,0,0:0:0:0:
36,144,86652,2,0,L|40:236,1,80,8|0,0:0|0:0,0:0:0:0:
92,304,87081,2,0,B|124:300|124:300|140:304|140:304|180:300,1,80,8|0,0:0|0:0,0:0:0:0:
244,240,87509,5,8,0:0:0:0:
332,276,87723,1,0,0:0:0:0:
428,260,87938,2,0,P|432:180|396:100,1,160,8|2,0:0|3:0,0:0:0:0:
324,52,88581,1,0,0:0:0:0:
324,52,88688,1,2,3:0:0:0:
324,52,88795,1,0,3:0:0:0:
264,128,89009,1,2,3:0:0:0:
264,128,89223,6,0,P|264:228|304:300,1,160,4|8,0:0|0:0,0:0:0:0:
364,344,89866,1,0,0:0:0:0:
420,264,90081,2,0,B|452:260|452:260|468:264|468:264|508:260,2,80,8|0|8,0:0|0:0|0:0,0:0:0:0:
344,204,90723,1,0,0:0:0:0:
288,280,90938,6,0,L|204:284,1,80,8|0,0:0|0:0,0:0:0:0:
148,360,91366,2,0,B|156:280|156:280|124:192,1,160,8|8,0:0|0:0,0:0:0:0:
44,160,92009,1,0,0:0:0:0:
120,100,92223,2,0,B|152:96|152:96|168:100|168:100|208:96,1,80,8|0,0:0|0:0,0:0:0:0:
256,20,92652,6,0,B|248:100|248:100|280:188,1,160,8|8,0:0|0:0,0:0:0:0:
352,116,93295,1,0,0:0:0:0:
436,160,93509,2,0,B|463:234|463:234|455:314,1,160,8|8,0:0|0:0,0:0:0:0:
364,348,94152,1,0,0:0:0:0:
308,268,94366,6,0,B|270:252|249:257|249:257|228:261|190:246,2,120,8|8|8,0:0|0:0|0:0,0:0:0:0:
312,172,95223,2,0,B|274:156|253:161|253:161|232:165|194:150,2,120,8|8|8,0:0|0:0|0:0,0:0:0:0:
360,88,96081,6,0,B|396:102|417:98|417:98|438:93|476:109,2,120,4|0|0,0:0|0:0|3:0,0:0:0:0:
300,12,96938,2,0,L|312:184,1,160,2|0,3:0|3:0,0:0:0:0:
316,268,97581,1,0,0:0:0:0:
388,332,97795,6,0,B|424:346|445:342|445:342|466:337|504:353,2,120,0|0|0,0:0|0:0|3:0,0:0:0:0:
316,268,98652,2,0,B|252:276|252:276|220:268|220:268|152:280,1,160,2|0,3:0|0:0,0:0:0:0:
80,332,99295,1,0,0:0:0:0:
48,240,99509,6,0,B|44:196|44:196|48:168|48:168|44:112,2,120,0|0|0,3:0|0:0|3:0,3:0:0:0:
140,212,100366,2,0,L|124:32,1,160,2|0,3:0|3:0,0:0:0:0:
220,68,101009,1,0,0:0:0:0:
220,68,101223,6,0,L|236:208,2,120,0|0|0,0:0|0:0|3:0,0:0:0:0:
312,100,102081,2,0,L|324:200,1,80,2|0,3:0|0:0,0:0:0:0:
384,252,102509,2,0,B|416:248|416:248|432:252|432:252|472:248,1,80,0|0,0:0|0:0,0:0:0:0:
432,340,102938,6,0,B|384:344|384:344|360:340|360:340|312:344,2,120,0|0|0,3:0|0:0|3:0,3:0:0:0:
463,248,103795,1,2,3:0:0:0:
392,184,104009,2,0,L|379:105,2,80,0|0|0,0:0|3:0|0:0,0:0:0:0:
316,240,104652,6,0,B|268:244|268:244|244:240|244:240|196:244,2,120,0|0|0,0:0|0:0|3:0,0:0:0:0:
116,188,105509,2,0,P|100:280|160:336,1,160,2|0,3:0|0:0,0:0:0:0:
228,360,106152,1,0,0:0:0:0:
316,324,106366,6,0,B|364:320|364:320|388:324|388:324|436:320,2,120,0|0|0,3:0|0:0|3:0,3:0:0:0:
240,264,107223,2,0,P|208:208|184:188,1,80,2|0,3:0|0:0,0:0:0:0:
112,156,107652,2,0,B|80:159|80:159|64:155|64:155|32:159,1,80,0|0,3:0|0:0,0:0:0:0:
64,68,108081,6,2,L|124:64,3,40
148,84,108509,2,2,L|216:80,3,40,2|2|0|2,0:0|0:0|3:0|0:0,0:0:0:0:
232,64,108938,1,2,3:0:0:0:
304,136,109152,1,0,0:0:0:0:
304,136,109366,2,0,B|336:132|336:132|352:136|352:136|388:132,1,80,0|0,3:0|0:0,0:0:0:0:
452,64,109795,6,0,B|484:32|484:32|488:156,1,160,4|0,0:0|0:0,0:0:0:0:
424,220,110438,1,0,3:0:0:0:
328,216,110652,2,0,B|282:211|249:229|249:229|215:247|162:245,1,160,2|0,3:0|3:0,0:0:0:0:
112,320,111295,1,0,0:0:0:0:
112,320,111509,6,0,P|120:232|68:148,1,160,0|2,0:0|3:0,0:0:0:0:
232,40,112366,2,0,P|224:128|276:212,1,160,2|0,3:0|0:0,0:0:0:0:
336,240,113009,1,0,0:0:0:0:
388,160,113223,6,0,P|440:128|508:120,2,120,0|0|0,3:0|0:0|3:0,3:0:0:0:
336,240,114081,2,0,B|293:266|263:264|263:264|232:263|188:292,1,160,2|0,3:0|3:0,0:0:0:0:
92,276,114723,1,0,0:0:0:0:
116,184,114938,6,0,B|160:155|191:156|191:156|221:158|264:132,1,160,0|0,0:0|0:0,0:0:0:0:
336,196,115581,1,0,3:0:0:0:
356,100,115795,2,0,L|348:12,1,80,2|0,3:0|0:0,0:0:0:0:
257,51,116223,2,0,L|265:139,1,80,0|0,0:0|0:0,0:0:0:0:
336,196,116652,6,0,B|276:188|276:188|196:228,2,120,4|0|0,0:0|0:0|3:0,3:0:0:0:
388,276,117509,2,0,L|376:104,1,160,2|0,3:0|3:0,0:0:0:0:
300,60,118152,1,0,0:0:0:0:
300,60,118259,1,0,0:0:0:0:
300,60,118366,6,0,B|250:65|224:87|224:87|198:109|149:114,1,160,0|2,0:0|3:0,0:0:0:0:
176,20,119009,1,0,3:0:0:0:
176,20,119223,2,0,P|244:92|224:180,1,160,2|0,3:0|0:0,0:0:0:0:
168,212,119866,1,0,0:0:0:0:
132,124,120081,6,0,B|96:138|75:134|75:134|54:129|16:145,2,120,0|0|0,3:0|0:0|3:0,3:0:0:0:
168,212,120938,2,0,B|212:183|243:184|243:184|273:186|316:160,1,160,2|0,3:0|3:0,0:0:0:0:
340,64,121581,1,0,0:0:0:0:
340,64,121795,6,0,P|368:160|424:224,1,160,0|0,0:0|0:0,0:0:0:0:
484,260,122438,1,0,3:0:0:0:
492,164,122652,1,2,3:0:0:0:
403,206,122866,1,0,0:0:0:0:
312,240,123081,1,0,0:0:0:0:
220,268,123295,1,0,0:0:0:0:
292,332,123509,5,4,0:0:0:0:
92,112,137223,6,0,B|88:156|88:156|92:188|92:188|88:244,1,120.000004577637,12|8,0:0|0:0,0:0:0:0:
216,304,138081,2,0,B|219:260|219:260|215:228|215:228|219:184,1,120.000004577637,8|8,0:0|0:0,0:0:0:0:
340,108,138938,5,8,0:0:0:0:
396,152,139152,1,0,0:0:0:0:
372,220,139366,2,0,L|368:300,1,60.0000022888184,8|0,0:0|0:0,0:0:0:0:
440,268,139795,2,0,L|442:208,1,60.0000022888184,8|0,0:0|0:0,0:0:0:0:
396,152,140223,1,8,0:0:0:0:
340,108,140438,1,0,0:0:0:0:
308,172,140652,6,0,B|276:175|252:192|252:192|229:209|197:212,1,120.000004577637,8|8,0:0|0:0,0:0:0:0:
72,140,141509,2,0,B|104:137|127:120|127:120|151:103|183:100,1,120.000004577637,8|8,0:0|0:0,0:0:0:0:
264,220,142366,6,0,L|268:292,1,60.0000022888184,8|0,0:0|0:0,0:0:0:0:
332,312,142795,2,0,B|356:308|356:308|372:312|372:312|391:309,1,60.0000022888184,8|0,0:0|0:0,0:0:0:0:
432,252,143223,2,0,L|428:192,1,60.0000022888184,8|0,0:0|0:0,0:0:0:0:
372,148,143652,1,8,0:0:0:0:
300,156,143866,1,0,0:0:0:0:
264,220,144081,6,0,P|188:248|124:236,1,120.000004577637,8|8,0:0|0:0,0:0:0:0:
100,196,144723,1,0,0:0:0:0:
100,196,144938,2,0,L|104:328,1,120.000004577637,8|8,0:0|0:0,0:0:0:0:
244,352,145795,5,8,0:0:0:0:
312,328,146009,1,0,0:0:0:0:
348,268,146223,2,0,L|344:192,1,60.0000022888184,8|0,0:0|0:0,0:0:0:0:
404,164,146652,2,0,L|400:84,1,60.0000022888184,8|0,0:0|0:0,0:0:0:0:
352,52,147081,2,0,B|333:55|333:55|317:51|317:51|293:55,1,60.0000022888184,8|0,0:0|0:0,0:0:0:0:
256,116,147509,6,0,L|200:120,3,30.0000011444092,8|0|0|0,0:0|0:0|0:0|0:0,0:0:0:0:
200,144,147938,2,0,L|148:148,3,30.0000011444092,8|0|0|0,0:0|0:0|0:0|0:0,0:0:0:0:
148,176,148366,2,0,L|108:180,3,30.0000011444092,8|0|0|0,0:0|0:0|0:0|0:0,0:0:0:0:
92,204,148795,2,0,L|44:208,3,30.0000011444092,8|0|0|0,0:0|0:0|0:0|0:0,0:0:0:0:
32,228,149223,5,2,3:0:0:0:
32,228,149652,1,2,3:0:0:0:
32,228,150081,1,0,3:0:0:0:
84,308,150295,5,0,0:0:0:0:
84,308,150402,1,0,3:0:0:0:
84,308,150509,1,0,3:0:0:0:
160,252,150723,1,0,0:0:0:0:
256,272,150938,6,0,B|290:257|310:261|310:261|335:265|373:250,2,120,4|0|0,0:0|0:0|3:0,0:0:0:0:
216,184,151795,2,0,P|176:148|144:132,2,80,8|0|0,0:0|0:0|3:0,0:0:0:0:
256,272,152438,1,0,0:0:0:0:
160,256,152652,6,0,P|112:208|40:176,2,120,0|0|0,0:0|0:0|0:0,0:0:0:0:
256,272,153509,2,0,P|304:320|376:352,2,120,8|0|0,0:0|0:0|0:0,0:0:0:0:
308,204,154366,6,0,B|265:230|235:228|235:228|204:227|160:256,1,160,4|0,0:0|0:0,0:0:0:0:
72,292,155009,1,0,3:0:0:0:
36,204,155223,2,0,B|32:164|32:164|16:128,1,80,8|0,0:0|0:0,0:0:0:0:
84,60,155652,2,0,B|116:136|116:136|192:172,1,160,0|0,3:0|0:0,0:0:0:0:
256,236,156295,5,0,0:0:0:0:
336,180,156509,2,0,B|368:176|368:176|384:180|384:180|424:176,1,80,0|0,0:0|3:0,0:0:0:0:
460,260,156938,2,0,B|428:263|428:263|412:259|412:259|380:263,1,80,8|0,0:0|0:0,0:0:0:0:
336,180,157366,2,0,B|332:148|332:148|336:132|336:132|332:96,1,80,0|0,0:0|0:0,0:0:0:0:
240,120,157795,6,0,L|244:268,2,120,4|0|0,0:0|0:0|3:0,0:0:0:0:
176,48,158652,2,0,B|144:51|144:51|128:47|128:47|96:51,1,80,8|0,0:0|0:0,0:0:0:0:
68,144,159081,2,0,B|100:140|100:140|116:144|116:144|147:140,1,80,0|0,3:0|0:0,0:0:0:0:
240,120,159509,6,0,B|274:141|299:141|299:141|320:141|351:161,2,120,0|0|0,0:0|0:0|0:0,0:0:0:0:
300,44,160366,2,0,B|334:65|359:65|359:65|380:65|411:85,2,120,8|0|0,0:0|0:0|0:0,0:0:0:0:
240,120,161223,6,0,B|252:204|252:204|296:284,1,160,4|0,0:0|0:0,0:0:0:0:
372,320,161866,1,0,3:0:0:0:
408,232,162081,2,0,B|440:228|440:228|456:232|456:232|487:228,2,80,8|0|0,0:0|0:0|3:0,0:0:0:0:
372,320,162723,1,0,3:0:0:0:
288,269,162938,6,2,L|284:225,3,40
256,192,163366,2,2,L|252:140,3,40
232,108,163795,5,2,3:0:0:0:
312,56,164009,1,0,0:0:0:0:
312,56,164116,1,2,3:0:0:0:
312,56,164223,2,0,B|344:52|344:52|360:56|360:56|396:52,1,80,0|2,3:0|3:0,0:0:0:0:
232,108,164652,6,0,B|200:111|200:111|184:107|184:107|152:111,1,80,12|0,0:0|0:0,0:0:0:0:
84,176,165081,2,0,B|88:240|88:240|132:216,1,80,8|0,0:0|0:0,0:0:0:0:
188,276,165509,2,0,P|196:320|188:360,1,80,8|0,0:0|0:0,0:0:0:0:
104,324,165938,1,8,0:0:0:0:
192,280,166152,1,0,0:0:0:0:
284,308,166366,5,8,0:0:0:0:
372,268,166581,1,0,0:0:0:0:
372,268,166688,1,0,0:0:0:0:
372,268,166795,2,0,L|368:176,1,80,8|0,0:0|0:0,0:0:0:0:
308,116,167223,2,0,B|276:119|276:119|260:115|260:115|228:119,1,80,8|0,0:0|0:0,0:0:0:0:
368,188,167652,2,0,B|400:184|400:184|416:188|416:188|448:185,1,80,8|0,0:0|0:0,0:0:0:0:
488,272,168081,5,8,0:0:0:0:
420,336,168295,1,0,0:0:0:0:
420,336,168402,1,0,0:0:0:0:
420,336,168509,2,0,L|324:340,1,80,8|0,0:0|0:0,0:0:0:0:
256,292,168938,2,0,L|176:295,1,80,8|0,0:0|0:0,0:0:0:0:
83,266,169366,2,0,P|80:305|92:344,1,80,8|0,0:0|0:0,0:0:0:0:
156,200,169795,5,8,0:0:0:0:
64,172,170009,1,0,0:0:0:0:
64,172,170116,1,0,0:0:0:0:
64,172,170223,1,8,0:0:0:0:
83,266,170438,1,0,0:0:0:0:
156,200,170652,2,0,B|152:160|152:160|144:120,1,80,8|0,0:0|0:0,0:0:0:0:
224,68,171081,2,0,B|228:108|228:108|236:148,1,80,8|0,0:0|0:0,0:0:0:0:
288,228,171509,5,8,0:0:0:0:
344,152,171723,1,0,0:0:0:0:
344,152,171831,1,0,0:0:0:0:
344,152,171938,2,0,L|428:148,1,80,8|0,0:0|0:0,0:0:0:0:
420,52,172366,2,0,L|312:56,1,80,8|0,0:0|0:0,0:0:0:0:
260,108,172795,1,8,0:0:0:0:
172,72,173009,1,0,0:0:0:0:
96,132,173223,6,0,L|99:181,2,50,8|0|0,0:0|0:0|0:0,0:0:0:0:
184,228,173652,2,0,L|188:280,2,50,8|0|0,0:0|0:0|0:0,0:0:0:0:
256,164,174081,2,0,B|288:160|288:160|304:164|304:164|336:161,1,80,8|0,0:0|0:0,0:0:0:0:
388,80,174509,2,0,P|424:120|432:148,1,80,8|0,0:0|0:0,0:0:0:0:
400,236,174938,5,8,0:0:0:0:
335,161,175152,1,0,0:0:0:0:
335,161,175259,1,0,0:0:0:0:
335,161,175366,2,0,P|303:129|291:89,1,80,8|0,0:0|0:0,0:0:0:0:
196,108,175795,2,0,P|232:200|280:248,1,160,8|8,0:0|0:0,0:0:0:0:
352,296,176438,1,0,0:0:0:0:
384,204,176652,6,0,B|412:200|412:200|436:204|436:204|476:200,1,80,8|0,0:0|0:0,0:0:0:0:
463,201,176973,1,0,0:0:0:0:
463,201,177081,1,8,0:0:0:0:
492,292,177295,1,0,0:0:0:0:
416,348,177509,2,0,B|388:350|388:350|364:346|364:346|336:350,1,80,8|0,0:0|0:0,0:0:0:0:
256,296,177938,6,0,B|148:312|148:312|192:252,1,160,8|0,0:0|0:0,0:0:0:0:
256,192,178473,12,0,180134,0:0:0:0:
