osu file format v14

[General]
AudioFilename: BTS () - Run (Color Coded Han-Rom-Eng Lyrics) - by YankaT.mp3
AudioLeadIn: 0
PreviewTime: 57420
Countdown: 0
SampleSet: Soft
StackLeniency: 0.7
Mode: 0
LetterboxInBreaks: 0
WidescreenStoryboard: 1

[Editor]
Bookmarks: 101179,122382,123736,158923
DistanceSpacing: 0.6
BeatDivisor: 4
GridSize: 8
TimelineZoom: 1.8

[Metadata]
Title:Run
TitleUnicode:Run
Artist:BTS
ArtistUnicode:방탄소년단
Creator:Aerous
Version:Hard
Source:
Tags:alacat bangtan boys 방탄소년단 big hit entertainment v suga jin jungkook rap monster jimin j-hope R&B Hip Hop 화양연화 pt.2 The Most Beautiful Moment in Life, Part 2
BeatmapID:950861
BeatmapSetID:388605

[Difficulty]
HPDrainRate:6
CircleSize:4
OverallDifficulty:7
ApproachRate:8.5
SliderMultiplier:1.5
SliderTickRate:1

[Events]
//Background and Video events
0,0,"btsrun3.jpg",0,0
Video,0,"防弾少年団 (Official MV).mp4"
//Break Periods
2,159123,172685
//Storyboard Layer 0 (Background)
//Storyboard Layer 1 (Fail)
//Storyboard Layer 2 (Pass)
//Storyboard Layer 3 (Foreground)
//Storyboard Sound Samples

[TimingPoints]
127,451.127819548872,4,2,1,60,1,0
14563,-100,4,2,1,70,0,0
31254,-100,4,2,1,60,0,0
31705,-100,4,2,1,50,0,0
32608,-100,4,2,1,70,0,0
34863,-100,4,2,1,60,0,0
35314,-100,4,2,1,50,0,0
36217,-100,4,2,1,70,0,0
43435,-100,4,2,1,60,0,0
54262,-100,4,2,1,65,0,0
57871,-100,4,2,1,80,0,1
86743,-100,4,2,1,65,0,0
115615,-100,4,2,1,60,0,0
126442,-100,4,2,1,65,0,0
130051,-100,4,2,1,80,0,1
158923,-100,4,2,1,60,0,0
180578,-100,4,2,1,65,0,0
184187,-100,4,2,1,65,0,0
187683,-100,4,2,1,30,0,0
189600,-100,4,2,1,80,0,1
229299,-100,4,2,1,70,0,0
232908,-100,4,2,1,10,0,0

[Colours]
Combo1 : 242,106,130
Combo2 : 16,165,197
Combo3 : 247,227,119
Combo4 : 143,209,168

[HitObjects]
112,136,127,5,4,0:0:0:0:
400,188,3736,5,4,0:0:0:0:
180,320,7345,5,4,0:0:0:0:
256,196,10954,5,4,0:0:0:0:
256,192,12307,12,0,14337,0:0:0:0:
259,247,14563,6,0,P|303:180|266:96,1,150,6|8,0:0|0:0,0:0:0:0:
215,170,15239,1,0,0:0:0:0:
165,245,15465,2,0,P|169:287|188:335,1,75,0|0,2:0|0:0,0:0:0:0:
268,329,15916,2,0,L|371:326,1,75,8|0,0:0|0:0,0:0:0:0:
416,274,16367,5,2,0:0:0:0:
352,209,16593,1,2,0:0:0:0:
436,178,16818,2,0,P|441:126|439:84,1,75,8|0,0:0|0:0,0:0:0:0:
347,134,17269,2,0,P|347:171|351:208,1,75,0|0,2:0|0:0,0:0:0:0:
280,264,17720,2,0,L|176:264,1,75,8|2,0:0|0:0,0:0:0:0:
128,224,18172,6,0,P|120:264|120:312,2,75,2|0|8,0:0|0:0|0:0,0:0:0:0:
160,144,18848,1,2,0:0:0:0:
240,112,19074,2,0,P|238:74|230:37,2,75,0|0|8,2:0|0:0|0:0,0:0:0:0:
160,144,19751,1,0,0:0:0:0:
224,208,19976,6,0,L|320:208,1,75,2|2,0:0|0:0,0:0:0:0:
384,168,20427,2,0,P|384:232|376:256,1,75,8|2,0:0|0:0,0:0:0:0:
312,296,20878,2,0,L|208:296,1,75,0|0,2:0|0:0,0:0:0:0:
152,256,21330,1,8,0:0:0:0:
96,328,21555,1,0,0:0:0:0:
88,200,21781,6,0,P|144:176|224:216,1,150,6|8,0:0|0:0,0:0:0:0:
305,183,22457,1,2,0:0:0:0:
376,127,22683,2,0,B|402:168|402:168|398:192|398:192|413:231|405:286,1,150,0|8,0:0|0:0,0:0:0:0:
340,328,23360,1,0,0:0:0:0:
260,276,23585,6,0,P|306:241|343:229,1,75,0|2,0:0|0:0,0:0:0:0:
400,192,24036,2,0,P|354:157|317:145,1,75,8|2,0:0|0:0,0:0:0:0:
272,88,24487,1,0,0:0:0:0:
208,152,24713,1,0,0:0:0:0:
120,128,24939,2,0,P|144:88|176:64,1,75,8|0,0:0|0:0,0:0:0:0:
208,152,25390,6,0,P|235:177|253:209,1,75,2|0,0:0|0:0,0:0:0:0:
256,304,25841,1,8,0:0:0:0:
176,344,26066,1,0,0:0:0:0:
256,304,26292,2,0,L|360:304,1,75,8|0,0:0|0:0,0:0:0:0:
416,264,26743,2,0,L|416:160,1,75,0|0,0:0|0:0,0:0:0:0:
404,100,27194,6,0,P|388:52|388:36,2,37.5,2|2|2,0:0|0:0|0:0,0:0:0:0:
316,124,27645,2,0,L|236:124,1,75,8|0,0:0|0:0,0:0:0:0:
152,112,28096,2,0,P|156:148|175:180,1,75,8|0,0:0|0:0,0:0:0:0:
160,272,28548,2,0,L|128:320,3,37.5,8|8|8|8,0:0|0:0|0:0|0:0,0:0:0:0:
104,328,28999,6,0,P|152:320|264:328,1,150,6|8,0:0|0:0,0:0:0:0:
328,280,29675,1,2,0:0:0:0:
408,320,29901,2,0,B|416:240|416:240|384:144,1,150,0|8,0:0|0:0,0:0:0:0:
352,96,30578,1,0,0:0:0:0:
312,176,30803,6,0,L|344:264,1,75,2|0,0:0|0:0,0:0:0:0:
272,312,31254,2,0,L|246:241,1,75,2|0,0:0|0:0,0:0:0:0:
160,240,31705,2,0,L|192:328,1,75,2|0,0:0|0:0,0:0:0:0:
104,352,32157,2,0,L|78:281,1,75,8|0,0:0|0:0,0:0:0:0:
40,184,32608,6,0,P|104:176|192:120,1,150,2|8,0:0|0:0,0:0:0:0:
232,64,33284,1,0,0:0:0:0:
312,24,33510,2,0,P|320:64|312:112,1,75,2|0,0:0|0:0,0:0:0:0:
264,168,33961,2,0,P|256:204|259:241,1,75,8|0,0:0|0:0,0:0:0:0:
344,208,34412,6,0,L|440:208,1,75,2|0,0:0|0:0,0:0:0:0:
504,168,34863,2,0,L|504:256,1,75,2|0,0:0|0:0,0:0:0:0:
440,304,35314,2,0,L|344:304,1,75,2|0,0:0|0:0,0:0:0:0:
280,280,35766,2,0,L|205:280,1,75,8|0,0:0|0:0,0:0:0:0:
128,352,36217,6,0,P|104:304|136:200,1,150,2|8,0:0|0:0,0:0:0:0:
200,160,36893,1,0,0:0:0:0:
240,80,37119,2,0,P|184:72|152:80,1,75,2|0,0:0|0:0,0:0:0:0:
200,160,37570,2,0,P|256:168|288:160,1,75,8|0,0:0|0:0,0:0:0:0:
368,96,38021,6,0,B|368:168|368:168|344:264,1,150,2|8,0:0|0:0,0:0:0:0:
296,320,38698,1,0,0:0:0:0:
232,256,38923,2,0,P|208:304|208:344,1,75,2|0,0:0|0:0,0:0:0:0:
296,320,39375,2,0,L|376:320,1,75,8|0,0:0|0:0,0:0:0:0:
464,280,39826,6,0,B|464:208|464:208|445:132,1,150,2|8,0:0|0:0,0:0:0:0:
400,56,40502,1,0,0:0:0:0:
352,128,40728,2,0,P|288:128|264:128,1,75,8|0,0:0|0:0,0:0:0:0:
216,64,41179,2,0,P|192:104|184:152,1,75,2|0,0:0|0:0,0:0:0:0:
224,208,41630,6,0,P|232:256|224:304,1,75,2|2,3:0|3:0,0:0:0:0:
152,336,42081,1,8,0:0:0:0:
144,248,42307,1,2,0:0:0:0:
56,264,42533,2,0,P|59:226|74:192,1,75,8|0,0:0|0:0,0:0:0:0:
144,136,42984,2,0,L|120:80,3,37.5,8|8|8|8,0:0|0:0|0:0|0:0,0:0:0:0:
160,64,43435,6,0,P|224:80|328:48,1,150,4|0,0:0|0:0,0:0:0:0:
392,32,44111,1,2,0:0:0:0:
416,120,44337,2,0,L|424:208,1,75,0|0,0:0|0:0,0:0:0:0:
344,280,44788,2,0,L|328:192,1,75,8|0,0:0|0:0,0:0:0:0:
288,128,45239,6,0,P|240:168|128:152,1,150,2|0,0:0|0:0,0:0:0:0:
96,88,45916,1,8,0:0:0:0:
72,176,46142,2,0,L|80:264,1,75,0|0,0:0|0:0,0:0:0:0:
120,328,46593,2,0,L|195:328,1,75,8|0,0:0|0:0,0:0:0:0:
280,360,47044,6,0,P|288:312|200:240,1,150,2|0,0:0|0:0,0:0:0:0:
160,176,47720,1,2,0:0:0:0:
204,96,47946,2,0,P|244:136|252:168,1,75,0|0,0:0|0:0,0:0:0:0:
320,208,48397,2,0,L|416:208,1,75,8|0,0:0|0:0,0:0:0:0:
432,312,48848,6,0,B|360:304|360:304|312:328|312:328|292:314,1,150,2|0,0:0|0:0,0:0:0:0:
200,360,49525,1,2,0:0:0:0:
216,272,49751,2,0,P|256:240|304:240,1,75,0|0,0:0|0:0,0:0:0:0:
360,208,50202,2,0,L|360:112,1,75,8|0,0:0|0:0,0:0:0:0:
272,64,50653,5,2,0:0:0:0:
272,152,50878,1,0,0:0:0:0:
360,133,51104,2,0,L|440:133,1,75,0|0,0:0|0:0,0:0:0:0:
496,200,51555,2,0,L|496:280,1,75,0|2,0:0|0:0,0:0:0:0:
416,320,52006,2,0,L|328:320,1,75,8|0,0:0|0:0,0:0:0:0:
264,272,52457,5,2,0:0:0:0:
208,344,52683,1,0,0:0:0:0:
184,256,52908,2,0,P|208:216|248:192,1,75,0|2,0:0|0:0,0:0:0:0:
312,160,53360,2,0,P|296:104|264:72,1,75,0|0,0:0|0:0,0:0:0:0:
200,120,53811,1,8,0:0:0:0:
144,48,54036,1,0,0:0:0:0:
200,120,54262,6,0,L|200:216,1,75,2|0,0:0|0:0,0:0:0:0:
136,256,54713,1,2,0:0:0:0:
48,232,54939,1,0,0:0:0:0:
64,320,55164,1,2,0:0:0:0:
136,256,55390,1,0,0:0:0:0:
200,320,55615,2,0,P|224:280|224:232,1,75,2|0,0:0|0:0,0:0:0:0:
304,200,56066,6,0,L|344:232,3,37.5,2|0|2|0,0:0|0:0|0:0|0:0,0:0:0:0:
376,224,56517,2,0,L|416:256,3,37.5,2|0|2|0,0:0|0:0|0:0|0:0,0:0:0:0:
448,256,56969,1,2,0:0:0:0:
152,52,57871,6,0,P|136:108|144:156,1,75,6|0,0:0|0:0,0:0:0:0:
224,100,58322,2,0,P|237:134|239:172,1,75,8|0,0:0|0:0,0:0:0:0:
160,212,58773,2,0,P|144:268|152:316,1,75,2|0,0:0|0:0,0:0:0:0:
220,341,59224,2,0,P|230:305|232:268,1,75,8|0,0:0|0:0,0:0:0:0:
304,220,59675,5,2,0:0:0:0:
384,268,59901,1,0,0:0:0:0:
472,260,60126,2,0,P|464:300|450:331,1,75,8|0,0:0|0:0,0:0:0:0:
384,268,60578,2,0,P|394:231|411:198,1,75,2|0,0:0|0:0,0:0:0:0:
440,116,61029,1,8,0:0:0:0:
384,44,61254,1,0,0:0:0:0:
336,124,61480,6,0,L|248:124,1,75,2|0,0:0|0:0,0:0:0:0:
176,92,61931,2,0,L|176:167,1,75,8|0,0:0|0:0,0:0:0:0:
88,148,62382,2,0,L|88:223,1,75,2|0,0:0|0:0,0:0:0:0:
8,268,62833,2,0,L|8:193,1,75,8|0,0:0|0:0,0:0:0:0:
88,148,63284,5,2,0:0:0:0:
136,68,63510,1,0,0:0:0:0:
184,140,63736,2,0,L|288:140,1,75,8|0,0:0|0:0,0:0:0:0:
320,76,64187,2,0,L|416:76,1,75,2|0,0:0|0:0,0:0:0:0:
440,156,64638,1,8,0:0:0:0:
504,92,64863,1,0,0:0:0:0:
504,212,65089,6,0,P|448:236|360:188,1,150,2|8,0:0|0:0,0:0:0:0:
304,140,65766,1,0,0:0:0:0:
240,204,65991,2,0,P|224:156|224:108,1,75,2|0,0:0|0:0,0:0:0:0:
286,67,66442,2,0,P|299:101|303:139,1,75,8|0,0:0|0:0,0:0:0:0:
304,252,66893,6,0,P|256:284|168:220,1,150,2|8,0:0|0:0,0:0:0:0:
128,180,67570,1,0,0:0:0:0:
56,132,67796,2,0,P|104:100|136:92,1,75,2|0,0:0|0:0,0:0:0:0:
208,108,68247,1,8,0:0:0:0:
280,52,68472,1,0,0:0:0:0:
340,112,68698,6,0,B|358:85|358:85|368:44,2,75,6|0|8,0:0|0:0|0:0,0:0:0:0:
288,184,69375,1,0,0:0:0:0:
352,248,69600,2,0,L|352:332,1,75,2|0,0:0|0:0,0:0:0:0:
272,360,70051,2,0,L|272:280,1,75,8|0,0:0|0:0,0:0:0:0:
208,220,70502,5,2,0:0:0:0:
140,280,70728,1,0,0:0:0:0:
132,184,70954,2,0,P|165:153|209:141,1,75,8|0,0:0|0:0,0:0:0:0:
257,80,71405,2,0,L|287:187,1,75,12|0,0:0|0:0,0:0:0:0:
336,208,71856,1,12,0:0:0:0:
404,148,72081,1,0,0:0:0:0:
412,252,72307,6,0,P|372:284|316:300,1,75,6|0,0:0|0:0,0:0:0:0:
276,344,72758,2,0,P|268:307|270:270,1,75,8|0,0:0|0:0,0:0:0:0:
336,208,73209,2,0,P|343:171|341:134,1,75,2|0,0:0|0:0,0:0:0:0:
264,92,73660,2,0,P|261:129|269:165,1,75,8|0,0:0|0:0,0:0:0:0:
200,224,74111,5,2,0:0:0:0:
120,184,74337,1,0,0:0:0:0:
124,276,74563,2,0,L|128:364,1,75,8|0,0:0|0:0,0:0:0:0:
216,372,75014,2,0,L|212:297,1,75,2|0,0:0|0:0,0:0:0:0:
280,236,75465,1,8,0:0:0:0:
336,304,75690,1,0,0:0:0:0:
352,196,75916,6,0,P|316:168|272:156,1,75,6|0,0:0|0:0,0:0:0:0:
268,72,76367,2,0,P|233:85|204:109,1,75,8|0,0:0|0:0,0:0:0:0:
116,108,76818,2,0,P|127:143|150:173,1,75,2|0,0:0|0:0,0:0:0:0:
224,224,77269,2,0,L|224:299,1,75,8|0,0:0|0:0,0:0:0:0:
296,352,77720,5,2,0:0:0:0:
364,292,77946,1,0,0:0:0:0:
432,236,78172,2,0,P|448:280|452:308,1,75,8|0,0:0|0:0,0:0:0:0:
364,292,78623,2,0,P|352:256|347:219,1,75,2|0,0:0|0:0,0:0:0:0:
416,160,79074,2,0,P|427:124|432:87,1,75,8|2,0:0|0:0,0:0:0:0:
344,96,79525,6,0,B|288:120|288:120|192:76,1,150,2|8,0:0|0:0,0:0:0:0:
128,36,80202,1,0,0:0:0:0:
104,124,80427,2,0,L|104:208,1,75,2|0,0:0|0:0,0:0:0:0:
184,244,80878,2,0,L|184:144,1,75,8|0,0:0|0:0,0:0:0:0:
207,82,81330,5,2,0:0:0:0:
292,104,81555,1,0,0:0:0:0:
360,44,81781,2,0,P|380:100|384:128,1,75,8|0,0:0|0:0,0:0:0:0:
320,180,82232,2,0,P|320:236|328:260,1,75,2|0,0:0|0:0,0:0:0:0:
400,204,82683,1,8,0:0:0:0:
468,264,82908,1,0,0:0:0:0:
480,148,83134,6,0,L|480:68,1,75,6|0,0:0|0:0,0:0:0:0:
392,48,83585,2,0,L|392:124,1,75,8|0,0:0|0:0,0:0:0:0:
336,192,84036,1,2,0:0:0:0:
268,132,84262,1,0,0:0:0:0:
192,84,84487,2,0,P|180:144|180:168,1,75,8|0,0:0|0:0,0:0:0:0:
268,132,84939,5,2,0:0:0:0:
356,108,85164,1,0,0:0:0:0:
432,60,85390,2,0,P|440:108|440:140,1,75,8|2,0:0|0:0,0:0:0:0:
368,192,85841,2,0,P|360:228|359:266,1,75,8|0,0:0|0:0,0:0:0:0:
400,348,86292,2,0,L|325:348,1,75,8|0,0:0|0:0,0:0:0:0:
272,272,86743,6,0,P|216:316|132:324,2,150,4|2|0,0:0|0:0|0:0,0:0:0:0:
304,188,87871,1,0,0:0:0:0:
372,132,88096,2,0,P|388:180|392:216,1,75,8|0,0:0|0:0,0:0:0:0:
304,188,88548,6,0,P|287:154|277:118,1,75,2|0,0:0|0:0,0:0:0:0:
208,60,88999,1,0,0:0:0:0:
144,124,89224,1,8,0:0:0:0:
68,172,89450,2,0,P|60:112|68:76,2,75,0|0|8,0:0|0:0|0:0,0:0:0:0:
144,124,90126,1,0,0:0:0:0:
168,212,90352,6,0,B|148:260|96:284|96:284|36:276,2,150,2|2|0,0:0|0:0|0:0,0:0:0:0:
240,156,91480,1,0,0:0:0:0:
308,212,91705,2,0,P|324:160|324:120,1,75,8|0,0:0|0:0,0:0:0:0:
364,56,92157,6,0,L|289:56,1,75,2|0,0:0|0:0,0:0:0:0:
208,92,92608,1,0,0:0:0:0:
124,60,92833,1,8,0:0:0:0:
136,148,93059,2,0,L|136:256,1,75,0|0,0:0|0:0,0:0:0:0:
216,260,93510,2,0,L|216:160,1,75,8|0,0:0|0:0,0:0:0:0:
296,140,93961,6,0,B|360:136|392:100|392:100|424:112|448:104,2,150,2|0|0,0:0|0:0|0:0,0:0:0:0:
312,52,95089,1,0,0:0:0:0:
232,92,95314,2,0,P|220:160|224:176,1,75,8|0,0:0|0:0,0:0:0:0:
292,220,95766,6,0,P|304:288|300:304,1,75,2|0,0:0|0:0,0:0:0:0:
228,340,96217,1,0,0:0:0:0:
160,280,96442,1,8,0:0:0:0:
88,224,96668,2,0,P|72:268|72:312,2,75,0|0|8,0:0|0:0|0:0,0:0:0:0:
156,168,97345,1,0,0:0:0:0:
236,204,97570,6,0,L|320:204,1,75,2|0,0:0|0:0,0:0:0:0:
396,176,98021,2,0,L|488:176,1,75,0|0,0:0|1:0,0:0:0:0:
480,88,98472,2,0,L|405:88,1,75,0|0,0:0|0:0,0:0:0:0:
320,116,98923,2,0,L|245:116,1,75,8|0,0:0|0:0,0:0:0:0:
164,152,99375,5,2,0:0:0:0:
92,96,99600,1,8,0:0:0:0:
84,184,99826,2,0,B|84:240|84:240|96:276,1,75,8|8,0:0|0:0,0:0:0:0:
180,264,100277,2,0,L|224:300,3,37.5,8|0|8|0,0:0|0:0|0:0|0:0,0:0:0:0:
256,288,100728,2,0,L|300:324,3,37.5,8|8|8|0,0:0|0:0|0:0|0:0,0:0:0:0:
324,336,101179,6,0,P|384:336|436:252,1,150,6|8,0:0|0:0,0:0:0:0:
348,248,101856,1,2,0:0:0:0:
408,180,102081,2,0,B|460:184|460:184|496:168,2,75,0|0|8,0:0|0:0|0:0,0:0:0:0:
336,128,102758,1,0,0:0:0:0:
248,140,102984,6,0,P|252:102|268:69,2,75,2|0|0,0:0|0:0|0:0,0:0:0:0:
240,228,103660,1,0,0:0:0:0:
192,304,103886,2,0,P|164:272|152:232,1,75,0|0,0:0|0:0,0:0:0:0:
240,228,104337,2,0,L|324:232,1,75,8|0,0:0|0:0,0:0:0:0:
400,200,104788,6,0,B|424:252|424:252|424:288,2,75,2|0|8,0:0|0:0|0:0,0:0:0:0:
356,120,105465,1,2,0:0:0:0:
272,152,105690,2,0,L|168:152,1,75,0|0,0:0|0:0,0:0:0:0:
116,116,106142,2,0,L|116:204,1,75,8|0,0:0|0:0,0:0:0:0:
52,252,106593,6,0,L|56:336,2,75,2|0|8,0:0|0:0|0:0,0:0:0:0:
116,191,107269,1,2,0:0:0:0:
168,264,107495,1,0,0:0:0:0:
216,188,107720,2,0,L|312:188,1,75,2|8,0:0|0:0,0:0:0:0:
360,248,108172,1,0,0:0:0:0:
416,180,108397,6,0,B|424:132|424:132|416:92,2,75,6|0|8,0:0|0:0|0:0,0:0:0:0:
360,248,109074,1,2,0:0:0:0:
280,288,109299,2,0,B|274:313|274:313|282:361,2,75,0|0|8,0:0|0:0|0:0,0:0:0:0:
280,196,109976,1,0,0:0:0:0:
208,140,110202,6,0,P|196:184|196:220,1,75,2|2,0:0|0:0,0:0:0:0:
172,300,110653,2,0,L|80:300,1,75,8|0,0:0|0:0,0:0:0:0:
44,224,111104,1,0,0:0:0:0:
112,168,111330,1,2,0:0:0:0:
60,96,111555,2,0,P|140:88|164:92,1,75,8|2,0:0|0:0,0:0:0:0:
208,36,112006,6,0,L|224:120,1,75,2|0,0:0|0:0,0:0:0:0:
296,160,112457,2,0,L|312:244,1,75,8|2,0:0|0:0,0:0:0:0:
396,264,112908,2,0,L|381:190,1,75,8|0,0:0|0:0,0:0:0:0:
364,100,113360,1,0,0:0:0:0:
436,44,113585,1,2,0:0:0:0:
364,100,113811,6,0,B|320:92|320:92|268:100,2,75,0|8|8,3:0|0:0|0:0,0:0:0:0:
448,132,114487,1,2,0:0:0:0:
444,224,114713,2,0,L|444:312,1,75,8|2,0:0|0:0,0:0:0:0:
360,264,115164,2,0,L|308:240,3,37.5,8|8|8|8,0:0|0:0|0:0|0:0,0:0:0:0:
324,204,115615,6,0,P|260:188|156:220,1,150,2|0,0:0|0:0,0:0:0:0:
116,268,116291,1,0,0:0:0:0:
56,200,116517,2,0,L|48:112,1,75,8|0,0:0|0:0,0:0:0:0:
120,68,116968,2,0,L|136:156,1,75,0|2,0:0|0:0,0:0:0:0:
184,216,117419,6,0,P|232:176|344:192,1,150,2|0,0:0|0:0,0:0:0:0:
388,232,118096,1,0,0:0:0:0:
464,180,118322,2,0,L|456:92,1,75,8|0,0:0|0:0,0:0:0:0:
380,56,118773,2,0,L|305:56,1,75,0|0,0:0|0:0,0:0:0:0:
224,20,119224,6,0,P|216:68|304:140,1,150,2|0,0:0|0:0,0:0:0:0:
344,200,119900,1,0,0:0:0:0:
304,280,120126,2,0,P|264:240|256:208,1,75,8|0,0:0|0:0,0:0:0:0:
196,156,120577,2,0,L|100:156,1,75,0|2,0:0|0:0,0:0:0:0:
80,72,121028,6,0,B|152:80|152:80|200:56|200:56|220:70,1,150,2|0,0:0|0:0,0:0:0:0:
312,24,121705,1,0,0:0:0:0:
296,112,121931,2,0,P|256:144|208:144,1,75,8|0,0:0|0:0,0:0:0:0:
152,176,122382,2,0,L|152:272,1,75,0|0,0:0|0:0,0:0:0:0:
240,320,122833,5,2,0:0:0:0:
240,232,123058,1,0,0:0:0:0:
152,251,123284,2,0,L|72:251,1,75,0|0,0:0|0:0,0:0:0:0:
16,184,123735,2,0,L|16:104,1,75,2|0,0:0|0:0,0:0:0:0:
96,64,124186,2,0,L|184:64,1,75,8|0,0:0|0:0,0:0:0:0:
248,112,124637,5,2,0:0:0:0:
304,40,124863,1,0,0:0:0:0:
328,128,125088,2,0,P|304:168|264:192,1,75,0|2,0:0|0:0,0:0:0:0:
200,224,125540,2,0,P|216:280|248:312,1,75,8|0,0:0|0:0,0:0:0:0:
312,264,125991,1,8,0:0:0:0:
368,336,126216,1,0,0:0:0:0:
312,264,126442,6,0,L|312:168,1,75,2|0,0:0|0:0,0:0:0:0:
376,128,126893,1,2,0:0:0:0:
464,152,127119,1,0,0:0:0:0:
448,64,127344,1,2,0:0:0:0:
376,128,127570,1,0,0:0:0:0:
312,64,127795,2,0,P|288:104|288:152,1,75,2|0,0:0|0:0,0:0:0:0:
208,184,128246,6,0,L|168:152,3,37.5,2|2|2|2,0:0|0:0|0:0|0:0,0:0:0:0:
136,160,128697,2,0,L|96:128,3,37.5,2|0|2|0,0:0|0:0|0:0|0:0,0:0:0:0:
64,128,129149,1,2,0:0:0:0:
360,48,130051,6,0,P|376:104|368:152,1,75,6|0,0:0|0:0,0:0:0:0:
288,96,130502,2,0,P|275:130|273:168,1,75,8|0,0:0|0:0,0:0:0:0:
352,208,130953,2,0,P|368:264|360:312,1,75,2|0,0:0|0:0,0:0:0:0:
292,337,131404,2,0,P|282:301|280:264,1,75,8|0,0:0|0:0,0:0:0:0:
208,216,131855,5,2,0:0:0:0:
128,264,132081,1,0,0:0:0:0:
36,264,132307,2,0,P|46:301|63:334,1,75,8|0,0:0|0:0,0:0:0:0:
128,264,132758,2,0,P|118:227|101:194,1,75,2|0,0:0|0:0,0:0:0:0:
72,112,133209,1,8,0:0:0:0:
128,40,133434,1,0,0:0:0:0:
176,120,133660,6,0,L|264:120,1,75,2|0,0:0|0:0,0:0:0:0:
336,88,134111,2,0,L|336:163,1,75,8|0,0:0|0:0,0:0:0:0:
424,144,134562,2,0,L|424:219,1,75,2|0,0:0|0:0,0:0:0:0:
504,264,135013,2,0,L|504:189,1,75,8|0,0:0|0:0,0:0:0:0:
424,144,135464,5,2,0:0:0:0:
376,64,135690,1,0,0:0:0:0:
328,136,135916,2,0,L|224:136,1,75,8|0,0:0|0:0,0:0:0:0:
192,72,136367,2,0,L|96:72,1,75,2|0,0:0|0:0,0:0:0:0:
72,152,136818,1,8,0:0:0:0:
8,88,137043,1,0,0:0:0:0:
8,208,137269,6,0,P|64:232|152:184,1,150,2|8,0:0|0:0,0:0:0:0:
208,136,137946,1,0,0:0:0:0:
272,200,138171,2,0,P|288:152|288:104,1,75,2|0,0:0|0:0,0:0:0:0:
226,63,138622,2,0,P|213:97|209:135,1,75,8|0,0:0|0:0,0:0:0:0:
208,248,139073,6,0,P|256:280|344:216,1,150,2|8,0:0|0:0,0:0:0:0:
384,176,139750,1,0,0:0:0:0:
456,128,139976,2,0,P|408:96|376:88,1,75,2|0,0:0|0:0,0:0:0:0:
304,104,140427,1,8,0:0:0:0:
232,48,140652,1,0,0:0:0:0:
172,108,140878,6,0,B|154:81|154:81|144:40,2,75,2|0|8,0:0|0:0|0:0,0:0:0:0:
224,180,141555,1,0,0:0:0:0:
160,244,141780,2,0,L|160:328,1,75,2|0,0:0|0:0,0:0:0:0:
240,356,142231,2,0,L|240:276,1,75,8|0,0:0|0:0,0:0:0:0:
304,216,142682,5,2,0:0:0:0:
372,276,142908,1,0,0:0:0:0:
380,180,143134,2,0,P|347:149|303:137,1,75,8|2,0:0|0:0,0:0:0:0:
255,76,143585,2,0,L|225:183,1,75,8|0,0:0|0:0,0:0:0:0:
176,204,144036,1,8,0:0:0:0:
108,144,144261,1,0,0:0:0:0:
100,248,144487,6,0,P|140:280|196:296,1,75,6|0,0:0|0:0,0:0:0:0:
236,340,144938,2,0,P|244:303|242:266,1,75,8|0,0:0|0:0,0:0:0:0:
176,204,145389,2,0,P|169:167|171:130,1,75,2|0,0:0|0:0,0:0:0:0:
248,88,145840,2,0,P|251:125|243:161,1,75,8|0,0:0|0:0,0:0:0:0:
312,220,146291,5,2,0:0:0:0:
392,180,146517,1,0,0:0:0:0:
388,272,146743,2,0,L|384:360,1,75,8|0,0:0|0:0,0:0:0:0:
296,368,147194,2,0,L|300:293,1,75,2|0,0:0|0:0,0:0:0:0:
232,232,147645,1,8,0:0:0:0:
176,300,147870,1,0,0:0:0:0:
160,192,148096,6,0,P|196:164|240:152,1,75,2|0,0:0|0:0,0:0:0:0:
244,68,148547,2,0,P|279:81|308:105,1,75,8|0,0:0|0:0,0:0:0:0:
396,104,148998,2,0,P|385:139|362:169,1,75,2|0,0:0|0:0,0:0:0:0:
288,220,149449,2,0,L|288:295,1,75,8|0,0:0|0:0,0:0:0:0:
216,348,149900,5,2,0:0:0:0:
148,288,150126,1,0,0:0:0:0:
80,232,150352,2,0,P|64:276|60:304,1,75,8|0,0:0|0:0,0:0:0:0:
148,288,150803,2,0,P|160:252|165:215,1,75,2|0,0:0|0:0,0:0:0:0:
96,156,151254,2,0,P|85:120|80:83,1,75,8|0,0:0|0:0,0:0:0:0:
168,92,151705,6,0,B|224:116|224:116|320:72,1,150,2|8,0:0|0:0,0:0:0:0:
384,32,152382,1,0,0:0:0:0:
408,120,152607,2,0,L|408:204,1,75,2|0,0:0|0:0,0:0:0:0:
328,240,153058,2,0,L|328:140,1,75,8|0,0:0|0:0,0:0:0:0:
305,78,153510,5,2,0:0:0:0:
220,100,153735,1,0,0:0:0:0:
152,40,153961,2,0,P|132:96|128:124,1,75,8|0,0:0|0:0,0:0:0:0:
192,176,154412,2,0,P|192:232|184:256,1,75,2|0,0:0|0:0,0:0:0:0:
112,200,154863,1,8,0:0:0:0:
44,260,155088,1,0,0:0:0:0:
32,144,155314,6,0,L|32:64,1,75,2|0,0:0|0:0,0:0:0:0:
120,44,155765,2,0,L|120:120,1,75,8|0,0:0|0:0,0:0:0:0:
176,188,156216,1,2,0:0:0:0:
244,128,156442,1,0,0:0:0:0:
320,80,156667,2,0,P|332:140|332:164,1,75,8|0,0:0|0:0,0:0:0:0:
244,128,157119,5,2,0:0:0:0:
156,104,157344,1,8,0:0:0:0:
80,56,157570,2,0,P|72:104|72:136,1,75,8|0,0:0|0:0,0:0:0:0:
144,188,158021,2,0,P|152:224|153:262,1,75,8|0,0:0|0:0,0:0:0:0:
112,344,158472,2,0,L|187:344,1,75,8|0,0:0|0:0,0:0:0:0:
260,288,158923,5,6,0:0:0:0:
164,240,173360,6,0,B|120:240|120:240|68:268|68:268|20:260,2,150,6|0|8,0:0|0:0|0:0,0:0:0:0:
240,192,174487,1,0,0:0:0:0:
288,116,174713,2,0,P|324:164|328:196,1,75,2|0,0:0|0:0,0:0:0:0:
328,268,175164,6,0,B|372:268|372:268|424:296|424:296|472:288,2,150,2|0|8,0:0|0:0|0:0,0:0:0:0:
252,220,176291,1,0,0:0:0:0:
204,144,176517,2,0,P|168:192|164:224,1,75,0|0,0:0|0:0,0:0:0:0:
76,216,176969,6,0,B|76:260|76:260|104:312|104:312|96:360,2,150,2|0|8,0:0|0:0|0:0,0:0:0:0:
132,144,178096,1,0,0:0:0:0:
56,96,178322,2,0,P|104:60|136:56,1,75,2|0,0:0|0:0,0:0:0:0:
208,72,178773,6,0,B|296:112|296:112|376:96,2,150,2|2|8,0:0|0:0|0:0,0:0:0:0:
144,136,179901,1,0,0:0:0:0:
164,224,180126,2,0,L|252:224,1,75,0|0,0:0|0:0,0:0:0:0:
328,236,180578,6,0,B|356:280|356:280|344:348|344:348|368:372,2,150,6|0|8,0:0|0:0|0:0,0:0:0:0:
376,160,181705,1,0,0:0:0:0:
416,80,181931,2,0,L|320:80,1,75,0|0,0:0|0:0,0:0:0:0:
260,120,182382,6,0,B|164:124|164:124|108:68,2,150,2|0|8,0:0|0:0|0:0,0:0:0:0:
308,196,183510,1,0,0:0:0:0:
284,284,183736,2,0,P|232:240|224:224,1,75,2|0,0:0|0:0,0:0:0:0:
308,196,184187,5,2,0:0:0:0:
308,196,184638,1,8,0:0:0:0:
140,128,185089,1,2,0:0:0:0:
140,128,185540,1,8,0:0:0:0:
256,192,185991,12,0,187796,0:0:0:0:
152,336,189600,6,0,P|136:280|144:232,1,75,4|0,0:0|0:0,0:0:0:0:
224,288,190051,2,0,P|237:254|239:216,1,75,8|0,0:0|0:0,0:0:0:0:
160,176,190502,2,0,P|144:120|152:72,1,75,2|0,0:0|0:0,0:0:0:0:
220,47,190953,2,0,P|230:83|232:120,1,75,8|0,0:0|0:0,0:0:0:0:
304,168,191404,5,2,0:0:0:0:
384,120,191630,1,0,0:0:0:0:
472,128,191855,2,0,P|464:88|450:57,1,75,8|0,0:0|0:0,0:0:0:0:
384,120,192307,2,0,P|394:157|411:190,1,75,2|0,0:0|0:0,0:0:0:0:
440,272,192758,1,8,0:0:0:0:
384,344,192983,1,0,0:0:0:0:
336,264,193209,6,0,L|248:264,1,75,2|0,0:0|0:0,0:0:0:0:
176,296,193660,2,0,L|176:221,1,75,8|0,0:0|0:0,0:0:0:0:
88,240,194111,2,0,L|88:165,1,75,2|0,0:0|0:0,0:0:0:0:
8,120,194562,2,0,L|8:195,1,75,8|0,0:0|0:0,0:0:0:0:
88,240,195013,5,2,0:0:0:0:
136,320,195239,1,0,0:0:0:0:
184,248,195465,2,0,L|288:248,1,75,8|0,0:0|0:0,0:0:0:0:
320,312,195916,2,0,L|416:312,1,75,2|0,0:0|0:0,0:0:0:0:
440,232,196367,1,8,0:0:0:0:
504,296,196592,1,2,0:0:0:0:
504,176,196818,6,0,P|448:152|360:200,1,150,2|8,0:0|0:0,0:0:0:0:
304,248,197495,1,0,0:0:0:0:
231,194,197720,2,0,P|215:242|215:290,1,75,2|0,0:0|0:0,0:0:0:0:
286,321,198171,2,0,P|299:287|303:249,1,75,8|0,0:0|0:0,0:0:0:0:
292,150,198622,6,0,P|244:118|156:182,1,150,2|8,0:0|0:0,0:0:0:0:
112,224,199299,1,0,0:0:0:0:
40,276,199525,2,0,P|88:308|120:316,1,75,2|0,0:0|0:0,0:0:0:0:
188,284,199976,1,8,0:0:0:0:
264,332,200201,1,0,0:0:0:0:
336,280,200427,6,0,B|354:307|354:307|364:348,2,75,2|0|8,0:0|0:0|0:0,0:0:0:0:
288,204,201104,1,0,0:0:0:0:
352,140,201329,2,0,L|352:56,1,75,2|0,0:0|0:0,0:0:0:0:
272,28,201780,2,0,L|272:108,1,75,8|0,0:0|0:0,0:0:0:0:
208,168,202231,5,2,0:0:0:0:
140,108,202457,1,0,0:0:0:0:
132,204,202683,2,0,P|165:235|209:247,1,75,8|0,0:0|0:0,0:0:0:0:
257,308,203134,2,0,L|287:201,1,75,8|0,0:0|0:0,0:0:0:0:
336,180,203585,1,8,0:0:0:0:
404,240,203810,1,0,0:0:0:0:
412,136,204036,6,0,P|372:104|316:88,1,75,6|0,0:0|0:0,0:0:0:0:
276,44,204487,2,0,P|268:81|270:118,1,75,8|0,0:0|0:0,0:0:0:0:
336,180,204938,2,0,P|343:217|341:254,1,75,2|0,0:0|0:0,0:0:0:0:
264,296,205389,2,0,P|261:259|269:223,1,75,8|0,0:0|0:0,0:0:0:0:
200,164,205840,5,2,0:0:0:0:
120,204,206066,1,0,0:0:0:0:
124,112,206292,2,0,L|128:24,1,75,8|0,0:0|0:0,0:0:0:0:
216,16,206743,2,0,L|212:91,1,75,2|0,0:0|0:0,0:0:0:0:
280,152,207194,1,8,0:0:0:0:
336,84,207419,1,0,0:0:0:0:
352,192,207645,6,0,P|316:220|272:232,1,75,2|0,0:0|0:0,0:0:0:0:
268,316,208096,2,0,P|233:303|204:279,1,75,8|0,0:0|0:0,0:0:0:0:
116,280,208547,2,0,P|127:245|150:215,1,75,2|0,0:0|0:0,0:0:0:0:
224,164,208998,2,0,L|224:89,1,75,8|0,0:0|0:0,0:0:0:0:
296,36,209449,5,2,0:0:0:0:
364,96,209675,1,0,0:0:0:0:
432,152,209901,2,0,P|448:108|452:80,1,75,8|0,0:0|0:0,0:0:0:0:
364,96,210352,2,0,P|352:132|347:169,1,75,2|0,0:0|0:0,0:0:0:0:
416,228,210803,2,0,P|427:264|432:301,1,75,8|2,0:0|0:0,0:0:0:0:
344,292,211254,6,0,B|288:268|288:268|192:312,1,150,2|8,0:0|0:0,0:0:0:0:
128,352,211931,1,0,0:0:0:0:
104,264,212156,2,0,L|104:180,1,75,2|0,0:0|0:0,0:0:0:0:
184,144,212607,2,0,L|184:244,1,75,8|0,0:0|0:0,0:0:0:0:
207,306,213059,5,2,0:0:0:0:
292,284,213284,1,0,0:0:0:0:
360,344,213510,2,0,P|380:288|384:260,1,75,8|0,0:0|0:0,0:0:0:0:
320,208,213961,2,0,P|320:152|328:128,1,75,2|0,0:0|0:0,0:0:0:0:
400,184,214412,1,8,0:0:0:0:
468,124,214637,1,0,0:0:0:0:
480,240,214863,6,0,L|480:320,1,75,2|0,0:0|0:0,0:0:0:0:
392,340,215314,2,0,L|392:264,1,75,8|0,0:0|0:0,0:0:0:0:
336,196,215765,1,2,0:0:0:0:
268,256,215991,1,0,0:0:0:0:
192,304,216216,2,0,P|180:244|180:220,1,75,8|0,0:0|0:0,0:0:0:0:
268,256,216668,5,2,0:0:0:0:
356,280,216893,1,8,0:0:0:0:
432,328,217119,2,0,P|440:280|440:248,1,75,0|2,0:0|0:0,0:0:0:0:
368,196,217570,2,0,P|360:160|359:122,1,75,8|0,0:0|0:0,0:0:0:0:
400,40,218021,2,0,L|325:40,1,75,8|0,0:0|0:0,0:0:0:0:
243,77,218472,6,0,B|176:90|176:90|101:59,2,150,6|8|2,0:0|0:0|0:0,0:0:0:0:
285,156,219600,1,0,0:0:0:0:
245,236,219826,2,0,L|245:314,1,75,8|0,0:0|0:0,0:0:0:0:
336,308,220277,6,0,L|336:216,1,75,2|0,0:0|0:0,0:0:0:0:
380,152,220728,2,0,L|380:60,1,75,8|0,0:0|0:0,0:0:0:0:
300,120,221179,2,0,B|278:126|278:126|226:122,2,75,2|0|8,0:0|0:0|0:0,0:0:0:0:
256,44,221856,1,0,0:0:0:0:
168,64,222081,6,0,P|136:128|200:200,1,150,2|8,0:0|0:0,0:0:0:0:
260,216,222758,1,0,0:0:0:0:
332,272,222984,2,0,P|340:224|340:184,1,75,2|0,0:0|0:0,0:0:0:0:
280,128,223435,2,0,P|281:90|288:53,1,75,8|0,0:0|0:0,0:0:0:0:
364,104,223886,6,0,L|456:104,1,75,2|0,0:0|0:0,0:0:0:0:
448,192,224337,2,0,L|356:192,1,75,8|0,0:0|0:0,0:0:0:0:
312,256,224788,2,0,B|329:303|329:303|323:363,2,75,2|0|8,0:0|0:0|0:0,0:0:0:0:
288,168,225465,1,0,0:0:0:0:
208,208,225690,6,0,B|141:221|141:221|66:190,2,150,2|8|2,0:0|0:0|0:0,0:0:0:0:
148,140,226818,1,0,0:0:0:0:
184,56,227044,2,0,P|220:84|240:116,1,75,8|0,0:0|0:0,0:0:0:0:
300,172,227495,6,0,L|296:264,1,75,2|0,0:0|0:0,0:0:0:0:
380,276,227946,2,0,L|380:172,1,75,8|0,0:0|0:0,0:0:0:0:
420,120,228397,2,0,B|468:128|468:128|512:112,2,75,2|0|8,0:0|0:0|0:0,0:0:0:0:
340,76,229074,1,0,0:0:0:0:
252,64,229299,6,0,L|280:144,1,75,6|0,0:0|0:0,0:0:0:0:
196,180,229751,2,0,L|224:260,1,75,8|2,0:0|0:0,0:0:0:0:
136,276,230202,2,0,L|164:356,1,75,6|0,0:0|0:0,0:0:0:0:
248,324,230653,1,8,0:0:0:0:
332,352,230878,1,2,0:0:0:0:
420,332,231104,6,0,L|444:261,1,75,6|0,0:0|0:0,0:0:0:0:
360,236,231555,2,0,L|384:165,1,75,8|2,0:0|0:0,0:0:0:0:
460,116,232006,2,0,B|412:76|412:76|368:84,1,75,8|0,0:0|0:0,0:0:0:0:
320,120,232457,2,0,B|259:104|259:104|223:129,1,75,8|0,0:0|0:0,0:0:0:0:
