osu file format v14

[General]
AudioFilename: audio.mp3
AudioLeadIn: 0
PreviewTime: 163473
Countdown: 0
SampleSet: Soft
StackLeniency: 0.4
Mode: 0
LetterboxInBreaks: 0
WidescreenStoryboard: 0

[Editor]
Bookmarks: 414,11709,23003,28650,39944,51238,62532,72414,73826,85120,96414,119003,121826,141591,152885,164179,186767,198061,209356,220650,231944
DistanceSpacing: 0.8
BeatDivisor: 4
GridSize: 4
TimelineZoom: 1.6

[Metadata]
Title:MIC Drop (Steve Aoki Remix)
TitleUnicode:MIC Drop (Steve Aoki Remix)
Artist:BTS
ArtistUnicode:방탄소년단
Creator:Syph
Version:bright lights, forward
Source:
Tags:bangtan boys sonyeondan bangtansonyeondan beyond the scene bulletproof boy scouts bighit entertainment 빅히트엔터테인먼트 랩몬스터 슈가 진 제이홉 지민 뷔 정국 jungkook rap monster j-hope jimin v suga jin hot yoongi k-pop kpop kittyadventure emilia A_r_M_i_N Sekaii sekai sekai-nyan gokugohan12468
BeatmapID:1479410
BeatmapSetID:698526

[Difficulty]
HPDrainRate:6
CircleSize:4
OverallDifficulty:9
ApproachRate:9.3
SliderMultiplier:1.8
SliderTickRate:1

[Events]
//Background and Video events
0,0,"micdropfprgorg.jpg",0,0
//Break Periods
//Storyboard Layer 0 (Background)
//Storyboard Layer 1 (Fail)
//Storyboard Layer 2 (Pass)
//Storyboard Layer 3 (Foreground)
//Storyboard Sound Samples

[TimingPoints]
11709,352.941176470588,4,2,0,65,1,0
11709,-133.333333333333,4,2,0,65,0,0
28650,-200,4,2,0,70,0,0
40297,-133.333333333333,4,2,0,65,0,0
41267,-133.333333333333,4,2,0,5,0,0
41356,-133.333333333333,4,2,0,65,0,0
41456,-133.333333333333,4,2,0,72,0,0
62532,-133.333333333333,4,2,0,67,0,0
73826,-133.333333333333,4,2,0,65,0,0
74885,-80,4,2,0,70,0,0
75238,-133.333333333333,4,2,0,65,0,0
76297,-80,4,2,0,70,0,0
76650,-80,4,2,0,65,0,0
78061,-100,4,2,0,65,0,0
79826,-100,4,2,0,65,0,0
80532,-74.0740740740741,4,2,0,70,0,0
80885,-100,4,2,0,65,0,0
81944,-74.0740740740741,4,2,0,70,0,0
82297,-74.0740740740741,4,2,0,65,0,0
83709,-90.9090909090909,4,2,0,70,0,0
85120,-90.9090909090909,4,2,0,75,0,0
96414,-83.3333333333333,4,2,0,85,0,1
102061,-100,4,2,0,65,0,1
104885,-83.3333333333333,4,2,0,80,0,1
107708,-83.3333333333333,4,2,0,85,0,1
113356,-100,4,2,0,65,0,1
116180,-83.3333333333333,4,2,0,80,0,1
119003,-83.3333333333333,4,2,0,85,0,0
121120,-83.3333333333333,4,2,0,70,0,0
121826,-100,4,2,0,75,0,0
141591,-133.333333333333,4,2,0,65,0,0
142650,-80,4,2,0,70,0,0
143003,-133.333333333333,4,2,0,65,0,0
144061,-80,4,2,0,70,0,0
144414,-80,4,2,0,65,0,0
145826,-100,4,2,0,65,0,0
148297,-74.0740740740741,4,2,0,70,0,0
148650,-100,4,2,0,65,0,0
149708,-74.0740740740741,4,2,0,70,0,0
150061,-74.0740740740741,4,2,0,65,0,0
151473,-90.9090909090909,4,2,0,75,0,0
164179,-83.3333333333333,4,2,0,85,0,1
169826,-100,4,2,0,65,0,1
172650,-83.3333333333333,4,2,0,85,0,1
181120,-100,4,2,0,65,0,1
183944,-83.3333333333333,4,2,0,80,0,1
186767,-200,4,2,0,70,0,0
209356,-133.333333333333,4,2,0,75,0,0
220650,-100,4,2,0,75,0,0
231238,-100,4,2,0,65,0,0

[Colours]
Combo1 : 253,217,181
Combo2 : 142,210,251
Combo3 : 255,130,130
Combo4 : 143,222,148

[HitObjects]
176,121,11709,6,0,P|206:114|246:120,1,67.5000025749208,6|0,1:2|0:0,0:0:0:0:
312,191,12061,2,0,P|342:198|382:192,1,67.5000025749208,0|0,1:0|0:0,0:0:0:0:
457,142,12414,1,8,2:0:0:0:
457,142,12591,1,0,0:0:0:0:
358,18,12767,1,4,3:0:0:0:
355,41,12855,1,0,0:0:0:0:
353,65,12943,1,0,3:0:0:0:
351,88,13031,1,0,0:0:0:0:
349,112,13120,6,0,P|319:105|279:111,1,67.5000025749208,8|0,2:0|0:0,0:0:0:0:
213,182,13473,2,0,P|183:189|143:183,1,67.5000025749208,4|0,3:0|0:0,0:0:0:0:
63,141,13826,1,0,1:0:0:0:
0,78,14003,1,0,0:0:0:0:
63,16,14179,1,8,2:0:0:0:
125,78,14356,1,0,0:0:0:0:
285,145,14532,6,0,P|292:175|286:215,1,67.5000025749208,4|0,3:0|0:0,0:0:0:0:
215,281,14885,2,0,P|208:311|214:351,1,67.5000025749208,0|0,1:0|0:0,0:0:0:0:
153,210,15238,1,8,2:0:0:0:
153,210,15414,1,0,0:0:0:0:
289,316,15591,2,0,L|329:309,1,33.7500012874604,4|0,3:0|0:0,0:0:0:0:
377,248,15767,2,0,L|417:241,1,33.7500012874604,0|0,3:0|0:0,0:0:0:0:
487,230,15944,5,0,1:0:0:0:
322,310,16120,1,0,0:0:0:0:
487,230,16297,2,0,P|475:195|446:173,1,67.5000025749208,4|0,3:0|0:0,0:0:0:0:
401,246,16650,1,0,1:0:0:0:
317,218,16826,1,0,0:0:0:0:
317,131,17003,1,8,2:0:0:0:
401,104,17179,1,0,0:0:0:0:
452,175,17356,5,4,3:0:0:0:
317,218,17532,1,0,0:0:0:0:
182,175,17709,2,0,P|147:167|111:177,1,67.5000025749208,0|0,1:0|0:0,0:0:0:0:
4,238,18061,1,8,2:0:0:0:
4,238,18238,2,0,L|11:296,1,33.7500012874604
156,344,18414,1,4,3:0:0:0:
153,320,18502,1,0,0:0:0:0:
151,296,18590,1,0,3:0:0:0:
149,273,18678,1,0,0:0:0:0:
147,250,18767,6,0,P|117:257|77:251,1,67.5000025749208,0|0,1:0|0:0,0:0:0:0:
248,177,19120,2,0,P|218:170|178:176,1,67.5000025749208,4|0,3:0|0:0,0:0:0:0:
318,230,19473,1,8,2:0:0:0:
333,206,19650,1,0,0:0:0:0:
337,181,19826,1,2,0:0:0:0:
333,159,20003,1,0,0:0:0:0:
230,256,20179,5,4,3:0:0:0:
277,338,20356,1,0,0:0:0:0:
333,159,20532,2,0,P|363:152|403:158,1,67.5000025749208,2|0,0:0|0:0,0:0:0:0:
470,245,20885,1,8,2:0:0:0:
470,245,21061,2,0,L|475:196,1,33.7500012874604
399,156,21238,2,0,L|394:107,1,33.7500012874604,4|0,3:0|0:0,0:0:0:0:
484,63,21414,2,0,L|489:14,1,33.7500012874604,0|0,3:0|0:0,0:0:0:0:
395,122,21591,5,2,0:0:0:0:
306,63,21767,1,0,0:0:0:0:
217,122,21944,2,0,P|181:127|142:120,1,67.5000025749208,4|0,3:0|0:0,0:0:0:0:
281,264,22297,2,0,L|284:235,4,16.8750006437302,2|0|2|0|2,1:3|0:0|3:0|0:0|3:0,0:0:0:0:
129,338,22650,2,0,L|126:309,4,16.8750006437302,6|0|2|0|2,1:3|0:0|3:0|0:0|3:0,0:0:0:0:
358,227,23003,5,4,0:0:0:0:
5,135,27944,5,2,1:3:0:0:
22,124,28032,1,0,0:0:0:0:
42,121,28120,1,2,3:0:0:0:
61,126,28208,1,0,0:0:0:0:
118,172,28297,5,2,3:0:0:0:
139,181,28385,1,0,0:0:0:0:
162,186,28473,1,2,3:0:0:0:
186,184,28561,1,0,0:0:0:0:
265,158,28650,6,0,L|259:206,1,45,12|0,3:0|0:0,0:0:0:0:
343,125,29003,2,0,L|337:173,1,45
420,91,29356,2,0,L|414:139,1,45
497,57,29709,2,0,L|491:105,1,45
259,145,30061,6,0,L|253:193,1,45,2|0,0:0|0:0,0:0:0:0:
337,112,30414,2,0,L|331:160,1,45
414,78,30767,2,0,L|408:126,1,45
491,44,31120,2,0,L|485:92,1,45
465,263,31473,6,0,L|470:214,1,45,2|0,0:0|0:0,0:0:0:0:
387,296,31826,2,0,L|392:247,1,45
310,330,32179,2,0,L|315:281,1,45
233,364,32532,2,0,L|238:315,1,45
471,276,32884,6,0,L|476:227,1,45,2|2,0:0|0:0,0:0:0:0:
393,309,33237,2,0,L|398:260,1,45
316,343,33591,2,0,L|321:294,1,45,2|0,0:0|0:0,0:0:0:0:
239,377,33944,1,2,0:0:0:0:
239,377,34120,1,2,0:0:0:0:
166,192,34297,6,0,L|115:183,1,45,2|0,0:0|0:0,0:0:0:0:
230,236,34650,2,0,P|241:214|242:185,1,45,2|0,0:0|0:0,0:0:0:0:
210,124,35003,2,0,L|159:115,1,45
254,56,35356,2,0,L|203:47,1,45
83,99,35709,5,2,0:0:0:0:
83,99,35885,1,2,0:0:0:0:
40,172,36061,1,2,0:0:0:0:
83,99,36238,1,0,0:0:0:0:
103,237,36414,2,0,L|157:231,1,45,2|0,0:0|0:0,0:0:0:0:
239,222,36767,1,2,0:0:0:0:
239,222,36944,1,0,0:0:0:0:
206,345,37120,6,0,L|200:291,1,45,2|0,0:0|0:0,0:0:0:0:
239,222,37473,1,2,0:0:0:0:
284,148,37650,1,2,0:0:0:0:
368,170,37826,1,2,0:0:0:0:
372,256,38003,1,2,0:0:0:0:
292,288,38179,2,0,P|284:257|288:236,1,45,2|0,0:0|0:0,0:0:0:0:
372,256,38532,5,2,0:0:0:0:
140,307,38709,1,4,3:0:0:0:
372,256,38885,1,12,1:3:0:0:
211,232,39061,1,0,0:0:0:0:
412,333,39238,5,2,0:0:0:0:
412,333,39414,2,0,L|423:299,1,22.5,2|0,0:0|0:0,0:0:0:0:
300,210,39591,2,0,L|289:176,1,22.5,2|0,0:0|0:0,0:0:0:0:
438,106,39767,2,0,L|449:72,1,22.5,2|0,0:0|0:0,0:0:0:0:
141,26,39944,5,6,1:2:0:0:
141,26,40297,2,0,P|131:57|138:94,1,67.5000025749208
196,160,40650,2,0,P|206:191|199:228,1,67.5000025749208,0|0,1:0|0:0,0:0:0:0:
265,101,41003,2,0,B|297:84|297:84|370:89,1,101.250003862381,4|0,3:0|0:0,0:0:0:0:
361,88,41356,6,0,L|365:118,1,16.8750006437302,2|0,3:0|0:0,0:0:0:0:
306,213,41708,2,0,L|310:183,1,16.8750006437302,2|0,3:0|0:0,0:0:0:0:
308,196,42061,6,0,P|272:182|193:225,1,135.000005149842,8|0,1:0|0:0,0:0:0:0:
383,288,42591,1,4,3:0:0:0:
256,331,42767,6,0,L|263:250,1,67.5000025749208,12|0,3:0|0:0,0:0:0:0:
197,229,43120,1,0,0:0:0:0:
197,229,43297,1,0,0:0:0:0:
350,305,43473,1,8,1:0:0:0:
125,191,43650,1,4,3:0:0:0:
276,118,43826,2,0,L|269:199,1,67.5000025749208,12|0,3:0|0:0,0:0:0:0:
276,118,44179,6,0,L|280:88,1,16.8750006437302,0|0,1:0|0:0,0:0:0:0:
209,0,44532,2,0,L|213:30,1,16.8750006437302,8|0,1:0|0:0,0:0:0:0:
215,20,44885,5,12,1:3:0:0:
215,20,45061,1,4,3:0:0:0:
116,94,45238,1,4,3:0:0:0:
116,94,45414,1,4,3:0:0:0:
196,176,45591,5,12,3:0:0:0:
203,108,45767,2,0,L|194:185,1,67.5000025749208
293,122,46120,1,0,0:0:0:0:
300,54,46296,2,0,L|291:131,1,67.5000025749208,8|0,1:0|0:0,0:0:0:0:
271,306,46650,2,0,L|280:229,1,67.5000025749208,4|0,3:0|0:0,0:0:0:0:
195,175,47003,5,0,0:0:0:0:
127,168,47179,2,0,L|204:177,1,67.5000025749208,0|12,0:0|3:0,0:0:0:0:
145,87,47532,1,0,0:0:0:0:
77,80,47708,2,0,L|154:89,1,67.5000025749208,8|0,1:0|0:0,0:0:0:0:
10,133,48061,1,0,0:0:0:0:
230,101,48238,1,0,0:0:0:0:
10,133,48414,5,12,3:0:0:0:
2,200,48591,2,0,L|11:123,1,67.5000025749208
86,193,48944,1,0,0:0:0:0:
78,260,49121,2,0,L|87:183,1,67.5000025749208,8|0,1:0|0:0,0:0:0:0:
191,347,49473,2,0,B|226:354|226:354|269:347,1,67.5000025749208,4|0,3:0|0:0,0:0:0:0:
461,258,49826,6,0,L|441:249,1,16.8750006437302,2|0,0:0|0:0,0:0:0:0:
274,148,50179,2,0,L|283:168,1,16.8750006437302,4|0,3:0|0:0,0:0:0:0:
467,245,50532,6,0,L|447:236,4,16.8750006437302,2|0|2|0|2,1:3|0:0|0:3|0:0|0:3,0:0:0:0:
280,135,50885,2,0,L|289:155,4,16.8750006437302,2|0|2|0|2,1:3|0:0|0:3|0:0|0:3,0:0:0:0:
307,363,51238,5,6,1:2:0:0:
307,363,51591,2,0,P|313:331|308:296,1,67.5000025749208
218,239,51944,1,8,1:0:0:0:
218,239,52120,1,0,0:0:0:0:
177,325,52297,2,0,L|117:311,1,33.7500012874604,4|0,3:0|0:0,0:0:0:0:
39,282,52473,2,0,L|99:268,1,33.7500012874604,0|0,3:0|0:0,0:0:0:0:
218,239,52650,6,0,P|224:207|219:172,1,67.5000025749208,2|0,0:0|0:0,0:0:0:0:
138,54,53003,2,0,P|132:86|137:121,1,67.5000025749208,4|0,3:0|0:0,0:0:0:0:
312,191,53356,1,8,1:0:0:0:
312,191,53532,1,0,0:0:0:0:
222,243,53709,1,2,0:0:0:0:
222,243,53885,1,4,3:0:0:0:
390,137,54061,5,12,3:0:0:0:
304,98,54238,1,0,0:0:0:0:
228,152,54414,1,2,0:0:0:0:
222,243,54591,1,0,0:0:0:0:
359,293,54767,2,0,P|327:303|294:299,1,67.5000025749208,8|0,1:0|0:0,0:0:0:0:
222,243,55120,1,4,3:0:0:0:
207,233,55208,1,0,0:0:0:0:
191,229,55297,1,0,3:0:0:0:
174,229,55384,1,0,0:0:0:0:
158,235,55472,5,0,3:0:0:0:
84,284,55650,1,0,3:0:0:0:
87,132,55826,2,0,L|84:213,1,67.5000025749208,4|0,3:0|0:0,0:0:0:0:
221,326,56179,1,8,1:0:0:0:
267,191,56356,1,0,0:0:0:0:
322,271,56532,1,4,3:0:0:0:
391,230,56709,1,0,0:0:0:0:
221,326,56885,5,12,3:0:0:0:
267,191,57061,1,0,0:0:0:0:
267,191,57238,1,0,0:0:0:0:
156,236,57414,1,0,0:0:0:0:
292,368,57591,5,8,1:0:0:0:
300,346,57679,1,0,0:0:0:0:
302,322,57767,1,0,3:0:0:0:
298,299,57855,1,0,0:0:0:0:
287,279,57944,2,0,L|310:253,1,33.7500012874604,4|0,3:0|0:0,0:0:0:0:
141,218,58120,2,0,L|118:191,1,33.7500012874604,0|0,3:0|0:0,0:0:0:0:
221,326,58297,5,2,0:0:0:0:
262,111,58473,1,0,0:0:0:0:
48,210,58650,1,4,3:0:0:0:
48,210,58826,1,0,0:0:0:0:
154,55,59003,2,0,L|145:137,1,67.5000025749208,8|8,1:0|3:0,0:0:0:0:
202,232,59356,1,2,0:0:0:0:
202,232,59532,1,0,0:0:0:0:
376,90,59709,5,12,3:0:0:0:
238,62,59885,1,0,0:0:0:0:
283,186,60061,1,2,0:0:0:0:
344,13,60238,1,0,0:0:0:0:
121,111,60414,5,4,1:3:0:0:
326,251,60591,1,0,0:0:0:0:
196,44,60767,5,4,3:0:0:0:
162,308,60944,1,0,0:0:0:0:
64,201,61120,5,2,0:0:0:0:
211,159,61297,1,0,0:0:0:0:
152,382,61473,1,4,3:0:0:0:
152,382,61650,1,0,0:0:0:0:
233,83,61826,6,0,P|191:82|164:102,2,45.0000017166138,8|0|0,1:0|3:0|3:0,0:0:0:0:
374,166,62179,2,0,P|416:167|443:147,2,45.0000017166138,0|0|0,3:0|3:0|3:0,0:0:0:0:
110,77,62532,5,12,3:0:0:0:
110,77,62709,1,0,0:0:0:0:
139,220,62885,2,0,P|147:185|137:144,1,67.5000025749208
280,284,63238,2,0,P|272:319|282:360,1,67.5000025749208,8|0,1:0|0:0,0:0:0:0:
401,384,63591,1,4,3:0:0:0:
401,384,63679,1,0,0:0:0:0:
401,384,63767,1,0,3:0:0:0:
408,172,63944,5,2,0:0:0:0:
408,172,64120,1,0,3:0:0:0:
274,261,64297,2,0,L|358:258,1,67.5000025749208,4|0,3:0|0:0,0:0:0:0:
478,140,64650,2,0,P|455:109|407:96,1,67.5000025749208,8|0,1:0|0:0,0:0:0:0:
319,86,65003,1,2,0:0:0:0:
175,216,65179,1,4,3:0:0:0:
132,22,65356,5,12,3:0:0:0:
132,22,65532,1,0,0:0:0:0:
55,62,65709,2,0,P|78:93|126:106,1,67.5000025749208,0|0,3:0|0:0,0:0:0:0:
262,49,66061,1,8,1:0:0:0:
262,49,66150,1,0,0:0:0:0:
262,49,66238,1,0,3:0:0:0:
198,160,66414,2,0,L|206:114,1,33.7500012874604,4|0,3:0|0:0,0:0:0:0:
266,234,66591,2,0,L|258:280,1,33.7500012874604,0|0,3:0|0:0,0:0:0:0:
76,199,66767,5,2,0:0:0:0:
260,267,66944,1,0,0:0:0:0:
16,249,67120,2,0,P|-2:206|8:164,1,67.5000025749208,4|0,3:0|0:0,0:0:0:0:
145,72,67473,1,8,1:0:0:0:
76,199,67650,1,0,0:0:0:0:
145,276,67826,1,0,0:0:0:0:
225,237,68003,1,0,0:0:0:0:
381,110,68179,6,0,B|387:144|387:144|376:184,1,67.5000025749208,4|0,1:3|0:0,0:0:0:0:
270,315,68532,1,0,1:0:0:0:
270,315,68709,1,0,0:0:0:0:
122,201,68885,2,0,B|156:195|156:195|196:206,1,67.5000025749208,8|0,1:0|0:0,0:0:0:0:
350,276,69238,1,4,3:0:0:0:
361,255,69326,1,0,0:0:0:0:
367,232,69414,1,0,3:0:0:0:
366,209,69502,1,0,0:0:0:0:
360,186,69590,5,8,1:0:0:0:
211,297,69767,1,0,0:0:0:0:
62,187,69944,1,4,3:0:0:0:
211,77,70120,1,0,0:0:0:0:
211,297,70297,1,10,1:2:0:0:
295,35,70473,1,4,3:0:0:0:
244,190,70650,1,10,2:0:0:0:
211,77,70826,1,4,3:0:0:0:
325,331,71003,5,12,3:0:0:0:
423,132,71179,1,8,2:0:0:0:
138,252,71356,1,8,1:2:0:0:
347,165,71532,1,8,2:0:0:0:
48,105,71709,1,12,1:3:0:0:
151,336,71885,1,8,2:0:0:0:
235,67,72061,2,0,L|246:27,1,33.7500012874604,4|0,3:0|0:0,0:0:0:0:
8,211,72238,2,0,L|-3:251,1,33.7500012874604,8|0,2:0|0:0,0:0:0:0:
423,132,72414,5,2,0:0:0:0:
143,82,73826,6,0,L|149:158,1,67.5000025749208,6|0,1:2|0:0,0:0:0:0:
153,216,74179,2,0,L|147:148,1,67.5000025749208,8|0,2:0|0:0,0:0:0:0:
220,46,74532,2,0,L|226:122,1,67.5000025749208,8|0,2:0|0:0,0:0:0:0:
234,225,74885,2,0,L|224:109,1,112.5,14|0,0:0|0:0,0:0:0:0:
302,61,75238,6,0,L|308:137,1,67.5000025749208,8|0,0:0|0:0,0:0:0:0:
312,195,75591,2,0,L|306:127,1,67.5000025749208,8|0,0:0|0:0,0:0:0:0:
379,25,75944,2,0,L|385:101,1,67.5000025749208,8|0,0:0|0:0,0:0:0:0:
393,204,76297,2,0,L|383:88,1,112.5,14|0,0:0|0:0,0:0:0:0:
343,273,76650,5,8,0:0:0:0:
343,273,76826,1,0,0:0:0:0:
227,190,77003,1,8,0:0:0:0:
227,190,77179,1,0,0:0:0:0:
356,131,77356,1,8,0:0:0:0:
356,131,77532,1,0,0:0:0:0:
239,295,77709,5,10,0:0:0:0:
211,74,77885,1,0,0:0:0:0:
239,295,78061,2,0,L|139:288,1,90,10|0,1:2|0:0,0:0:0:0:
21,186,78414,5,14,0:0:0:0:
283,103,78591,1,0,0:0:0:0:
149,288,78767,2,0,B|138:241|138:241|158:183,1,90,10|0,1:2|0:0,0:0:0:0:
411,280,79120,5,10,0:0:0:0:
90,350,79297,1,0,0:0:0:0:
283,382,79473,6,0,B|294:335|294:335|274:277,1,90,10|0,1:2|0:0,0:0:0:0:
155,205,79826,1,8,0:0:0:0:
155,205,80003,1,2,0:0:0:0:
268,52,80179,2,0,L|254:156,1,90,8|0,0:0|0:0,0:0:0:0:
239,261,80532,2,0,L|255:138,1,121.500000463486,14|0,0:0|0:0,0:0:0:0:
113,42,80885,6,0,B|102:89|102:89|122:147,1,90,8|0,0:0|0:0,0:0:0:0:
241,219,81238,1,8,0:0:0:0:
241,219,81415,1,0,0:0:0:0:
128,372,81591,2,0,L|142:268,1,90,8|0,0:0|0:0,0:0:0:0:
156,162,81944,2,0,L|139:284,1,121.500000463486,14|0,0:0|0:0,0:0:0:0:
259,88,82297,5,8,0:0:0:0:
259,88,82473,1,0,0:0:0:0:
78,180,82650,1,8,0:0:0:0:
78,180,82826,1,0,0:0:0:0:
330,51,83003,1,10,0:0:0:0:
273,199,83179,1,0,0:0:0:0:
230,10,83356,5,10,2:2:0:0:
291,275,83532,1,0,0:0:0:0:
230,10,83709,2,0,L|108:3,1,99.0000030212403,10|0,1:2|0:0,0:0:0:0:
342,95,84061,5,14,1:2:0:0:
51,36,84238,1,0,0:0:0:0:
342,95,84414,2,0,B|355:142|355:142|341:192,1,99.0000030212403,10|2,1:2|0:0,0:0:0:0:
226,323,84767,1,8,0:0:0:0:
171,115,84944,1,2,0:0:0:0:
106,367,85120,5,6,1:2:0:0:
193,37,85297,1,0,0:0:0:0:
32,176,85473,1,4,1:3:0:0:
230,224,85650,2,0,L|247:202,2,24.7500007553101,2|0|2,3:0|0:0|3:0,0:0:0:0:
157,134,85826,1,4,3:0:0:0:
363,246,86003,1,2,0:0:0:0:
86,93,86179,1,4,1:3:0:0:
365,78,86356,1,0,0:0:0:0:
240,337,86532,5,12,3:0:0:0:
240,337,86709,1,2,3:0:0:0:
193,140,86885,1,4,1:3:0:0:
193,140,87061,1,0,3:0:0:0:
363,246,87238,2,0,L|251:234,1,99.0000030212403,4|2,3:0|0:0,0:0:0:0:
105,217,87591,1,4,1:3:0:0:
363,246,87767,1,8,3:0:0:0:
211,109,87944,5,6,1:2:0:0:
289,328,88120,1,0,0:0:0:0:
360,49,88297,1,4,1:3:0:0:
141,162,88473,2,0,L|124:140,2,24.7500007553101,2|0|2,3:0|0:0|3:0,0:0:0:0:
237,111,88649,1,4,1:3:0:0:
175,304,88826,1,2,0:0:0:0:
107,47,89003,1,4,1:3:0:0:
317,214,89179,1,2,3:0:0:0:
18,104,89356,5,6,1:3:0:0:
18,104,89532,1,2,3:0:0:0:
245,39,89709,1,4,1:3:0:0:
245,39,89885,1,0,3:0:0:0:
134,281,90061,2,0,B|117:233|117:233|138:173,1,99.0000030212403,4|2,1:3|0:0,0:0:0:0:
258,111,90414,2,0,L|190:153,2,66.0000020141602,4|2|2,3:0|3:0|3:0,0:0:0:0:
324,70,90767,5,6,1:2:0:0:
247,251,90944,1,8,3:0:0:0:
157,36,91120,1,4,1:3:0:0:
401,131,91297,1,10,3:0:0:0:
94,190,91473,1,4,1:3:0:0:
275,57,91650,1,10,3:0:0:0:
218,371,91826,1,6,1:3:0:0:
169,25,92003,1,10,3:0:0:0:
502,192,92179,5,12,1:3:0:0:
275,57,92356,1,4,3:0:0:0:
356,350,92532,1,4,1:3:0:0:
441,86,92709,1,10,3:0:0:0:
138,201,92885,1,4,1:3:0:0:
366,113,93061,1,4,3:0:0:0:
234,377,93238,1,4,1:3:0:0:
497,305,93414,1,10,3:0:0:0:
234,377,93591,5,6,3:0:0:0:
222,355,93679,1,0,0:0:0:0:
219,330,93767,1,2,3:0:0:0:
223,306,93855,1,0,0:0:0:0:
235,285,93944,5,2,3:0:0:0:
251,254,94032,1,0,0:0:0:0:
258,220,94120,1,2,3:0:0:0:
258,186,94208,1,0,0:0:0:0:
248,152,94297,5,2,3:0:0:0:
199,135,94385,1,0,0:0:0:0:
155,164,94473,1,2,3:0:0:0:
152,216,94561,1,0,0:0:0:0:
192,250,94650,5,2,3:0:0:0:
249,277,94738,1,0,0:0:0:0:
310,260,94826,1,2,3:0:0:0:
345,207,94914,1,0,0:0:0:0:
336,145,95003,6,0,B|369:139|369:139|407:150,2,66.0000020141602,2|2|2,1:3|3:0|3:0,0:0:0:0:
192,250,95356,2,0,B|159:256|159:256|121:245,2,66.0000020141602,2|2|2,3:0|3:0|3:0,0:0:0:0:
475,159,95709,5,2,0:0:0:0:
475,159,95885,1,0,0:0:0:0:
365,83,96061,1,2,0:0:0:0:
255,159,96238,1,0,0:0:0:0:
88,65,96414,5,6,1:2:0:0:
164,328,96591,1,0,0:0:0:0:
357,162,96767,2,0,B|307:144|307:144|250:160,1,107.999996704102,2|0,0:0|0:0,0:0:0:0:
64,246,97120,1,8,1:0:0:0:
254,158,97297,1,0,0:0:0:0:
164,328,97473,2,0,B|146:278|146:278|162:221,1,107.999996704102,4|0,3:0|0:0,0:0:0:0:
337,88,97826,5,2,0:0:0:0:
241,273,98003,1,0,0:0:0:0:
171,14,98179,2,0,P|121:-1|62:21,1,107.999996704102,4|0,3:0|0:0,0:0:0:0:
325,182,98532,2,0,B|379:201|379:201|433:182,1,107.999996704102,10|0,1:2|0:0,0:0:0:0:
511,128,98885,1,0,0:0:0:0:
304,60,99061,1,4,3:0:0:0:
414,291,99238,6,0,L|428:173,1,107.999996704102,12|0,3:0|0:0,0:0:0:0:
304,60,99591,1,2,0:0:0:0:
340,243,99767,1,0,0:0:0:0:
408,23,99944,1,0,1:0:0:0:
161,119,100120,1,4,3:0:0:0:
408,23,100297,2,0,L|394:141,1,107.999996704102,4|0,1:3|0:0,0:0:0:0:
221,295,100650,5,2,0:0:0:0:
221,295,100826,2,0,L|213:237,1,53.9999983520508,2|0,0:0|0:0,0:0:0:0:
104,23,101003,2,0,L|118:141,1,107.999996704102,4|0,3:0|0:0,0:0:0:0:
306,272,101356,1,8,1:0:0:0:
139,216,101532,1,0,0:0:0:0:
269,166,101709,1,2,0:0:0:0:
198,122,101885,1,0,0:0:0:0:
271,85,102061,6,0,L|249:267,2,180,12|0|0,3:0|0:0|1:0,0:0:0:0:
349,40,102944,1,0,0:0:0:0:
349,40,103120,2,0,L|337:142,1,90,4|0,3:0|0:0,0:0:0:0:
174,311,103473,6,0,L|196:133,2,180,2|4|0,0:0|3:0|1:0,0:0:0:0:
274,88,104356,1,0,0:0:0:0:
274,88,104532,2,0,L|262:190,1,90,2|0,0:0|0:0,0:0:0:0:
93,303,104885,6,0,B|43:319|43:319|-14:299,1,107.999996704102,12|0,3:0|0:0,0:0:0:0:
263,177,105238,2,0,B|313:161|313:161|374:179,1,107.999996704102,2|0,0:0|0:0,0:0:0:0:
194,352,105591,1,6,1:3:0:0:
194,352,105767,1,0,0:0:0:0:
271,52,105944,1,4,3:0:0:0:
271,52,106120,1,0,0:0:0:0:
314,244,106297,6,0,B|364:260|364:260|425:242,1,107.999996704102,2|2,3:0|3:0,0:0:0:0:
122,116,106650,2,0,B|72:100|72:100|11:118,1,107.999996704102,4|0,3:0|0:0,0:0:0:0:
211,234,107003,1,2,1:2:0:0:
284,47,107179,1,0,0:0:0:0:
18,115,107356,1,2,0:0:0:0:
205,69,107532,1,0,0:0:0:0:
127,322,107709,5,6,1:2:0:0:
70,52,107885,1,0,0:0:0:0:
281,181,108061,2,0,B|331:197|331:197|392:179,1,107.999996704102
226,124,108414,2,0,P|203:166|219:232,1,107.999996704102,8|0,1:0|0:0,0:0:0:0:
395,69,108767,1,4,3:0:0:0:
395,69,108944,1,0,0:0:0:0:
347,317,109120,6,0,L|368:176,1,107.999996704102,2|0,1:2|0:0,0:0:0:0:
167,43,109473,2,0,L|182:149,1,107.999996704102,4|0,3:0|0:0,0:0:0:0:
466,213,109826,2,0,B|412:196|412:196|357:211,1,107.999996704102,10|0,1:2|0:0,0:0:0:0:
252,258,110179,1,2,0:0:0:0:
466,213,110356,1,4,3:0:0:0:
183,312,110532,6,0,B|164:257|164:257|184:201,1,107.999996704102,12|0,3:0|0:0,0:0:0:0:
288,100,110885,1,2,0:0:0:0:
252,258,111061,1,0,0:0:0:0:
133,147,111238,1,0,1:0:0:0:
306,316,111414,1,4,3:0:0:0:
133,147,111591,2,0,L|11:157,1,107.999996704102,4|0,1:3|0:0,0:0:0:0:
254,216,111944,5,2,0:0:0:0:
254,216,112120,1,2,0:0:0:0:
212,18,112297,2,0,L|222:129,1,107.999996704102,4|0,3:0|0:0,0:0:0:0:
331,252,112650,1,8,1:0:0:0:
363,256,112826,1,0,0:0:0:0:
388,255,113003,1,2,0:0:0:0:
405,248,113179,1,0,0:0:0:0:
271,85,113356,6,0,L|249:267,2,180,12|2|0,3:0|0:0|1:0,0:0:0:0:
349,40,114239,1,0,0:0:0:0:
349,40,114415,2,0,L|337:142,1,90,4|0,3:0|0:0,0:0:0:0:
174,311,114767,6,0,L|196:133,2,180,2|4|0,0:0|3:0|1:0,0:0:0:0:
274,88,115651,1,0,0:0:0:0:
274,88,115827,2,0,L|262:190,1,90,2|0,0:0|0:0,0:0:0:0:
92,303,116180,6,0,B|42:319|42:319|-13:302,1,107.999996704102,12|0,3:0|0:0,0:0:0:0:
263,177,116533,2,0,B|313:161|313:161|374:179,1,107.999996704102,2|0,0:0|0:0,0:0:0:0:
194,352,116886,1,12,1:3:0:0:
194,352,117062,1,0,0:0:0:0:
271,52,117239,1,4,3:0:0:0:
271,52,117415,1,0,0:0:0:0:
198,244,117591,6,0,B|148:260|148:260|87:242,1,107.999996704102,2|2,3:0|3:0,0:0:0:0:
390,116,117945,2,0,B|440:100|440:100|501:118,1,107.999996704102,6|0,3:0|0:0,0:0:0:0:
301,234,118297,1,8,1:0:0:0:
228,47,118474,1,2,3:0:0:0:
494,115,118651,1,2,0:0:0:0:
307,69,118827,1,0,3:0:0:0:
385,322,119004,5,6,0:0:0:0:
173,117,121120,6,0,B|157:115|157:115|136:116,4,26.9999991760254,2|0|2|0|0,1:3|0:0|3:0|0:0|3:0,0:0:0:0:
332,204,121473,2,0,B|348:206|348:206|369:205,4,26.9999991760254,2|0|2|0|0,1:3|0:0|3:0|0:0|3:0,0:0:0:0:
217,312,121826,6,0,L|228:170,1,120,12|0,3:0|0:0,0:0:0:0:
289,132,122179,2,0,L|300:-10,1,120
140,198,122532,1,8,1:0:0:0:
140,198,122885,2,0,P|198:184|240:199,1,90,4|0,3:0|0:0,0:0:0:0:
217,312,123238,6,0,L|228:170,1,120
289,132,123591,2,0,L|300:-10,1,120,4|0,3:0|0:0,0:0:0:0:
140,198,123944,1,8,1:0:0:0:
140,198,124120,1,4,3:0:0:0:
140,198,124297,2,0,P|198:184|240:199,1,90
331,258,124650,5,4,3:0:0:0:
331,258,124826,1,0,0:0:0:0:
441,192,125003,1,2,0:0:0:0:
441,192,125179,1,0,0:0:0:0:
331,141,125356,1,8,1:0:0:0:
331,141,125532,1,0,0:0:0:0:
394,338,125708,1,6,3:0:0:0:
394,338,126061,6,0,B|397:279|397:279|421:245|421:245|423:159,2,180
238,298,126944,1,0,0:0:0:0:
238,298,127120,2,0,P|288:284|334:309,1,90,2|0,0:0|0:0,0:0:0:0:
217,72,127473,6,0,L|228:214,1,120,12|0,3:0|0:0,0:0:0:0:
289,252,127826,2,0,L|300:394,1,120
140,186,128179,1,8,1:0:0:0:
140,186,128532,2,0,P|198:200|240:185,1,90,6|0,3:0|0:0,0:0:0:0:
217,72,128885,6,0,L|228:214,1,120
289,252,129238,2,0,L|300:394,1,120,4|0,3:0|0:0,0:0:0:0:
140,186,129591,2,0,P|82:172|40:187,1,90,8|4,1:0|3:0,0:0:0:0:
140,186,129944,2,0,P|198:200|240:185,1,90
469,162,130297,6,0,P|402:139|283:169,2,180,4|0|8,1:2|0:0|1:0,0:0:0:0:
378,253,131179,1,0,0:0:0:0:
297,159,131356,2,0,B|286:114|286:114|298:67,1,90,4|0,3:0|0:0,0:0:0:0:
190,222,131708,5,2,0:0:0:0:
190,222,131885,1,0,0:0:0:0:
84,158,132061,1,4,3:0:0:0:
84,158,132238,1,0,0:0:0:0:
192,31,132414,2,0,B|203:76|203:76|191:123,1,90,8|0,1:0|0:0,0:0:0:0:
103,233,132767,2,0,P|53:232|13:189,1,90,2|0,0:0|0:0,0:0:0:0:
304,201,133120,6,0,B|300:259|300:259|277:294|277:294|272:382,2,180,12|0|8,3:0|0:0|1:0,0:0:0:0:
400,88,134003,1,0,0:0:0:0:
304,201,134179,1,4,3:0:0:0:
247,115,134356,1,0,0:0:0:0:
345,276,134532,5,2,0:0:0:0:
381,167,134708,1,0,0:0:0:0:
207,256,134885,1,4,3:0:0:0:
381,167,135061,1,0,0:0:0:0:
280,372,135238,1,8,1:0:0:0:
294,209,135414,1,4,3:0:0:0:
294,209,135591,2,0,L|294:170,4,22.5,2|0|0|0|8,0:0|0:0|3:0|0:0|3:0,0:0:0:0:
345,277,135856,1,0,0:0:0:0:
356,293,135944,6,0,B|403:307|403:307|460:294,1,90,4|0,3:0|0:0,0:0:0:0:
509,202,136297,1,2,0:0:0:0:
509,202,136473,1,0,0:0:0:0:
371,34,136650,2,0,L|356:144,1,90,8|0,1:0|0:0,0:0:0:0:
212,296,137003,2,0,L|199:206,1,90,4|0,3:0|0:0,0:0:0:0:
153,41,137356,6,0,B|106:27|106:27|49:40,1,90,2|0,0:0|0:0,0:0:0:0:
0,132,137708,1,4,3:0:0:0:
0,132,137885,1,0,0:0:0:0:
138,300,138061,2,0,L|153:190,1,90,8|0,1:0|0:0,0:0:0:0:
297,38,138415,2,0,L|309:127,1,90
345,297,138767,5,12,3:0:0:0:
419,123,138944,1,0,0:0:0:0:
345,297,139120,1,2,0:0:0:0:
419,123,139297,1,0,0:0:0:0:
303,369,139473,6,0,B|261:381|261:381|200:366,1,90,12|0,1:3|0:0,0:0:0:0:
27,227,139826,2,0,B|69:215|69:215|130:230,1,90,6|0,3:0|0:0,0:0:0:0:
336,207,140179,6,0,P|350:167|333:113,1,90,2|0,0:0|0:0,0:0:0:0:
113,226,140532,2,0,P|99:266|116:320,1,90,4|0,3:0|0:0,0:0:0:0:
369,302,140885,2,0,P|352:249|318:347,1,270,12|0,1:2|0:0,0:0:0:0:
369,302,141591,6,0,L|363:226,1,67.5000025749208,6|0,0:0|0:0,0:0:0:0:
357,161,141944,1,0,3:0:0:0:
357,161,142120,1,2,0:0:0:0:
292,338,142297,2,0,L|286:262,1,67.5000025749208,0|0,1:0|0:0,0:0:0:0:
278,159,142650,2,0,L|288:275,1,112.5,4|2,3:0|3:0,0:0:0:0:
210,323,143003,6,0,L|204:247,1,67.5000025749208,2|2,0:0|3:0,0:0:0:0:
200,186,143356,1,4,3:0:0:0:
200,186,143532,1,8,3:0:0:0:
133,359,143708,2,0,L|127:283,1,67.5000025749208,0|0,1:0|0:0,0:0:0:0:
119,180,144061,2,0,L|129:296,1,112.5,2|0,0:0|1:0,0:0:0:0:
169,111,144414,5,4,3:0:0:0:
169,111,144591,1,0,0:0:0:0:
285,194,144766,1,2,0:0:0:0:
285,194,144944,1,4,3:0:0:0:
156,253,145119,1,0,1:0:0:0:
156,253,145297,1,2,0:0:0:0:
273,89,145472,5,4,3:0:0:0:
303,272,145650,1,0,1:0:0:0:
273,89,145826,2,0,L|373:96,1,90,2|2,0:0|3:0,0:0:0:0:
455,202,146179,5,2,0:0:0:0:
370,102,146356,1,4,3:0:0:0:
370,102,146444,2,0,B|396:90,1,22.5,2|2,3:0|3:0,0:0:0:0:
370,102,146532,2,0,B|381:149|381:149|361:207,1,90,0|2,1:0|3:0,0:0:0:0:
133,110,146885,5,2,3:0:0:0:
367,188,147060,1,0,3:0:0:0:
263,10,147238,6,0,B|252:57|252:57|272:115,1,90,4|0,3:0|0:0,0:0:0:0:
371,192,147591,1,2,0:0:0:0:
371,192,147766,1,2,0:0:0:0:
244,332,147944,2,0,L|258:228,1,90,0|0,1:0|0:0,0:0:0:0:
271,122,148297,2,0,L|255:245,1,121.500000463486,2|2,0:0|3:0,0:0:0:0:
399,342,148650,6,0,B|410:295|410:295|390:237,1,90,2|2,0:0|3:0,0:0:0:0:
271,165,149003,1,4,3:0:0:0:
384,12,149179,1,8,3:0:0:0:
384,12,149267,2,0,B|413:2,1,22.5,2|2,3:0|3:0,0:0:0:0:
384,12,149356,2,0,L|370:116,1,90,2|4,3:0|3:0,0:0:0:0:
356,222,149708,2,0,L|373:100,1,121.500000463486,2|2,0:0|3:0,0:0:0:0:
280,273,150061,5,4,3:0:0:0:
280,273,150238,1,0,0:0:0:0:
434,204,150414,1,0,1:0:0:0:
434,204,150591,1,8,3:0:0:0:
198,307,150767,5,0,1:0:0:0:
239,185,150944,1,2,0:0:0:0:
282,374,151120,5,8,3:0:0:0:
222,112,151297,1,0,1:0:0:0:
282,374,151473,2,0,L|404:381,1,99.0000030212403,2|2,0:0|3:0,0:0:0:0:
429,254,151826,5,4,3:0:0:0:
208,298,152003,1,8,3:0:0:0:
208,298,152091,1,0,3:0:0:0:
208,298,152179,2,0,B|200:336,4,24.7500007553101,0|0|2|0|4,1:0|0:0|1:3|0:0|3:0,0:0:0:0:
288,76,152532,2,0,L|279:38,2,24.7500007553101,0|0|2,1:0|0:0|1:3,0:0:0:0:
308,152,152708,1,4,3:0:0:0:
406,17,152885,5,6,1:2:0:0:
319,347,153061,1,2,0:0:0:0:
480,208,153238,1,8,1:0:0:0:
282,160,153414,2,0,L|265:182,2,24.7500007553101,2|0|2,3:0|0:0|3:0,0:0:0:0:
355,250,153591,1,12,3:0:0:0:
149,138,153767,1,2,0:0:0:0:
426,291,153944,1,8,1:3:0:0:
147,306,154120,1,2,3:0:0:0:
272,47,154297,5,6,1:2:0:0:
272,47,154473,1,2,3:0:0:0:
319,244,154650,1,4,3:0:0:0:
319,244,154826,1,2,3:0:0:0:
149,138,155003,2,0,L|261:150,1,99.0000030212403,8|0,1:3|3:0,0:0:0:0:
407,167,155356,1,4,3:0:0:0:
149,138,155532,1,2,1:2:0:0:
301,275,155708,5,6,1:2:0:0:
223,56,155885,1,2,0:0:0:0:
152,335,156061,1,8,1:0:0:0:
371,222,156238,2,0,L|388:244,2,24.7500007553101,2|0|2,3:0|0:0|3:0,0:0:0:0:
275,273,156414,1,8,1:3:0:0:
337,80,156591,1,2,0:0:0:0:
405,337,156767,1,4,3:0:0:0:
195,170,156944,1,2,3:0:0:0:
494,280,157120,5,6,1:2:0:0:
494,280,157297,1,2,3:0:0:0:
267,345,157473,1,8,1:3:0:0:
378,103,157650,1,2,3:0:0:0:
378,103,157738,2,0,B|402:92,1,24.7500007553101,2|2,3:0|3:0,0:0:0:0:
378,103,157826,2,0,B|395:151|395:151|374:211,1,99.0000030212403,4|2,1:3|3:0,0:0:0:0:
255,260,158179,2,0,L|323:218,2,66.0000020141602,4|2|2,3:0|3:0|3:0,0:0:0:0:
175,306,158532,5,14,1:2:0:0:
265,133,158708,1,8,3:0:0:0:
355,348,158885,1,8,1:0:0:0:
111,253,159061,1,10,3:0:0:0:
418,194,159238,1,4,1:3:0:0:
248,339,159414,1,8,3:0:0:0:
285,13,159591,1,4,1:3:0:0:
346,372,159767,1,10,3:0:0:0:
9,190,159944,5,6,1:2:0:0:
237,327,160120,1,2,3:0:0:0:
156,34,160297,1,4,1:3:0:0:
71,298,160473,1,6,3:0:0:0:
374,183,160650,1,2,1:3:0:0:
146,271,160826,1,4,3:0:0:0:
278,7,161003,1,4,1:3:0:0:
2,96,161179,1,6,3:0:0:0:
278,7,161356,5,6,3:0:0:0:
290,29,161444,1,0,0:0:0:0:
293,54,161532,1,2,3:0:0:0:
289,78,161620,1,0,0:0:0:0:
277,99,161708,5,2,3:0:0:0:
261,130,161797,1,0,0:0:0:0:
254,164,161885,1,2,3:0:0:0:
254,198,161973,1,0,0:0:0:0:
264,232,162061,5,2,3:0:0:0:
313,249,162150,1,0,0:0:0:0:
357,220,162238,1,2,3:0:0:0:
360,168,162326,1,0,0:0:0:0:
320,134,162414,5,2,3:0:0:0:
263,107,162503,1,0,0:0:0:0:
202,124,162591,1,2,3:0:0:0:
167,177,162679,1,0,0:0:0:0:
176,239,162767,6,0,B|143:245|143:245|105:234,2,66.0000020141602,2|2|2,1:3|3:0|3:0,0:0:0:0:
320,134,163120,2,0,B|353:128|353:128|391:139,2,66.0000020141602,2|2|2,1:3|3:0|3:0,0:0:0:0:
37,225,163473,5,12,1:3:0:0:
192,104,163650,1,4,3:0:0:0:
152,328,163826,1,8,3:0:0:0:
257,225,164003,1,4,3:0:0:0:
360,328,164179,5,6,1:2:0:0:
348,56,164356,1,0,0:0:0:0:
155,222,164532,2,0,B|205:240|205:240|262:224,1,107.999996704102,2|0,0:0|0:0,0:0:0:0:
498,113,164885,1,14,1:2:0:0:
258,226,165061,1,2,0:0:0:0:
348,56,165238,2,0,B|366:106|366:106|350:163,1,107.999996704102,4|0,3:0|0:0,0:0:0:0:
175,296,165591,5,2,0:0:0:0:
271,111,165767,1,2,0:0:0:0:
341,370,165944,2,0,P|391:385|450:363,1,107.999996704102,4|0,3:0|0:0,0:0:0:0:
187,202,166297,2,0,B|133:183|133:183|79:202,1,107.999996704102,10|0,1:2|0:0,0:0:0:0:
1,256,166650,1,2,0:0:0:0:
208,324,166826,1,4,3:0:0:0:
98,93,167003,6,0,L|84:211,1,107.999996704102,12|0,3:0|0:0,0:0:0:0:
208,324,167356,1,2,0:0:0:0:
172,141,167532,1,0,0:0:0:0:
104,361,167708,1,8,1:0:0:0:
351,265,167885,1,4,3:0:0:0:
104,361,168061,2,0,L|118:243,1,107.999996704102,12|0,3:0|0:0,0:0:0:0:
291,89,168414,5,2,0:0:0:0:
291,89,168591,2,0,L|302:147,1,53.9999983520508,2|0,0:0|0:0,0:0:0:0:
408,361,168767,2,0,L|394:243,1,107.999996704102,4|0,3:0|0:0,0:0:0:0:
206,112,169120,1,8,1:0:0:0:
373,168,169297,1,0,0:0:0:0:
243,218,169473,1,2,0:0:0:0:
314,262,169650,1,0,0:0:0:0:
241,299,169826,6,0,L|263:117,2,180,12|0|0,3:0|0:0|1:0,0:0:0:0:
163,344,170708,1,0,0:0:0:0:
163,344,170885,2,0,L|175:242,1,90,4|0,3:0|0:0,0:0:0:0:
337,72,171238,6,0,L|316:251,2,180,2|4|0,0:0|3:0|1:0,0:0:0:0:
238,296,172120,1,4,3:0:0:0:
238,296,172297,2,0,L|250:194,1,90,2|8,0:0|3:0,0:0:0:0:
420,76,172650,6,0,B|470:60|470:60|526:77,1,107.999996704102,6|0,1:2|0:0,0:0:0:0:
249,207,173003,2,0,B|199:223|199:223|138:205,1,107.999996704102,2|0,0:0|0:0,0:0:0:0:
318,32,173356,1,14,1:3:0:0:
318,32,173532,1,0,0:0:0:0:
241,332,173708,1,4,3:0:0:0:
241,332,173885,1,0,0:0:0:0:
198,140,174061,6,0,B|148:124|148:124|87:142,1,107.999996704102,6|2,1:2|3:0,0:0:0:0:
390,268,174414,2,0,B|440:284|440:284|501:266,1,107.999996704102,4|0,3:0|0:0,0:0:0:0:
301,150,174767,1,8,1:0:0:0:
228,337,174944,1,4,3:0:0:0:
494,269,175120,1,2,0:0:0:0:
307,315,175297,1,0,0:0:0:0:
385,62,175473,5,6,1:2:0:0:
442,332,175650,1,0,0:0:0:0:
231,203,175826,2,0,B|181:187|181:187|120:205,1,107.999996704102,2|0,3:2|0:0,0:0:0:0:
286,260,176179,2,0,P|309:218|293:152,1,107.999996704102,8|0,1:0|0:0,0:0:0:0:
117,315,176532,1,4,3:0:0:0:
117,315,176708,1,0,0:0:0:0:
165,67,176885,6,0,L|144:208,1,107.999996704102,6|0,1:2|0:0,0:0:0:0:
345,341,177238,2,0,L|330:235,1,107.999996704102,4|0,3:0|0:0,0:0:0:0:
46,171,177591,2,0,B|100:188|100:188|155:173,1,107.999996704102,10|0,1:2|0:0,0:0:0:0:
260,126,177944,1,2,0:0:0:0:
46,171,178120,1,4,3:0:0:0:
329,72,178297,6,0,B|348:127|348:127|328:183,1,107.999996704102,12|0,3:0|0:0,0:0:0:0:
224,284,178650,1,2,0:0:0:0:
260,126,178826,1,0,0:0:0:0:
379,237,179003,1,8,1:0:0:0:
206,68,179179,1,4,3:0:0:0:
379,237,179356,2,0,L|501:227,1,107.999996704102,12|0,3:0|0:0,0:0:0:0:
258,168,179708,5,2,0:0:0:0:
258,168,179885,1,2,0:0:0:0:
300,366,180061,2,0,L|290:255,1,107.999996704102,4|0,3:0|0:0,0:0:0:0:
181,132,180414,1,8,1:0:0:0:
149,128,180591,1,0,0:0:0:0:
124,129,180767,1,2,0:0:0:0:
107,136,180944,1,0,0:0:0:0:
241,299,181120,6,0,L|263:117,2,180,12|2|0,3:0|2:0|1:0,0:0:0:0:
163,344,182003,1,0,0:0:0:0:
163,344,182179,2,0,L|175:242,1,90,4|0,3:0|0:0,0:0:0:0:
337,72,182532,6,0,L|316:251,2,180,2|4|0,0:0|3:0|1:0,0:0:0:0:
238,296,183414,1,4,3:0:0:0:
238,296,183591,2,0,L|250:194,1,90,2|0,0:0|3:0,0:0:0:0:
413,78,183944,6,0,B|463:62|463:62|518:79,1,107.999996704102,14|0,1:2|0:0,0:0:0:0:
249,207,184297,2,0,B|199:223|199:223|138:205,1,107.999996704102,2|0,0:0|0:0,0:0:0:0:
318,32,184650,1,14,1:3:0:0:
318,32,184826,1,0,0:0:0:0:
241,332,185003,1,6,3:0:0:0:
241,332,185179,1,2,3:2:0:0:
314,140,185356,6,0,B|364:124|364:124|425:142,1,107.999996704102,2|2,3:2|3:0,0:0:0:0:
122,268,185708,2,0,B|72:284|72:284|11:266,1,107.999996704102,4|0,3:0|0:0,0:0:0:0:
211,150,186061,1,8,1:0:0:0:
284,337,186238,1,2,0:0:0:0:
18,269,186414,1,2,0:0:0:0:
205,315,186591,1,0,0:0:0:0:
118,5,186767,6,0,L|110:96,2,90,6|0|2,1:2|0:0|0:0,0:0:0:0:
193,63,187650,1,2,0:0:0:0:
193,63,187826,2,0,P|229:68|249:62,1,45,4|0,3:0|0:0,0:0:0:0:
370,34,188179,6,0,L|367:73,1,22.5,2|0,0:0|0:0,0:0:0:0:
304,148,188356,2,0,L|307:187,1,22.5,2|0,0:0|0:0,0:0:0:0:
389,249,188532,2,0,P|425:254|445:248,1,45,4|0,3:0|0:0,0:0:0:0:
509,200,188885,1,0,1:0:0:0:
509,200,189061,1,0,0:0:0:0:
427,131,189238,2,0,L|418:187,1,45,2|0,0:0|0:0,0:0:0:0:
391,368,189591,6,0,L|399:277,2,90,12|2|0,3:0|0:0|1:0,0:0:0:0:
316,305,190474,1,2,0:0:0:0:
316,305,190650,2,0,P|280:300|260:306,1,45,4|0,3:0|0:0,0:0:0:0:
139,334,191003,6,0,L|142:295,1,22.5,2|0,0:0|0:0,0:0:0:0:
205,220,191180,2,0,L|202:181,1,22.5,2|0,0:0|0:0,0:0:0:0:
120,119,191356,2,0,P|84:114|64:120,1,45,4|0,3:0|0:0,0:0:0:0:
0,168,191709,1,2,1:2:0:0:
0,168,191885,1,0,0:0:0:0:
82,237,192061,1,2,0:0:0:0:
135,41,192238,1,4,3:0:0:0:
275,170,192414,6,0,B|238:168|238:168|220:160|220:160|182:157,2,90,12|2|0,3:0|0:0|1:0,0:0:0:0:
392,104,193297,1,2,0:0:0:0:
392,104,193473,2,0,P|356:93|335:100,1,45,4|0,3:0|0:0,0:0:0:0:
275,170,193826,6,0,L|280:207,1,22.5,2|0,0:0|0:0,0:0:0:0:
377,255,194003,2,0,L|372:218,1,22.5,2|0,0:0|0:0,0:0:0:0:
349,94,194179,2,0,P|371:94|392:104,1,45,4|0,3:0|0:0,0:0:0:0:
454,170,194532,1,2,1:2:0:0:
454,170,194708,1,0,0:0:0:0:
373,232,194885,2,0,L|378:168,1,45,2|0,0:0|0:0,0:0:0:0:
191,173,195238,6,0,B|228:171|228:171|246:163|246:163|284:160,2,90,12|2|0,3:0|0:0|1:0,0:0:0:0:
74,107,196121,1,2,0:0:0:0:
74,107,196297,2,0,P|110:96|131:103,1,45,4|0,3:0|0:0,0:0:0:0:
191,173,196650,6,0,L|186:210,1,22.5,2|0,0:0|0:0,0:0:0:0:
89,258,196826,2,0,L|94:221,1,22.5,2|0,0:0|0:0,0:0:0:0:
116,97,197003,2,0,P|93:97|73:106,1,45,2|0,0:0|0:0,0:0:0:0:
12,173,197356,1,2,0:0:0:0:
12,173,197532,1,2,0:0:0:0:
93,235,197709,2,0,L|88:171,1,45,2|0,0:0|0:0,0:0:0:0:
305,120,198061,6,0,B|269:104|269:104|160:116,1,135,6|4,1:2|3:0,0:0:0:0:
374,157,198767,2,0,P|385:125|381:100,1,45,8|0,1:0|0:0,0:0:0:0:
315,77,199120,2,0,P|304:109|308:134,1,45,4|0,3:0|0:0,0:0:0:0:
306,201,199473,5,2,0:0:0:0:
306,201,199650,1,0,0:0:0:0:
190,161,199826,2,0,P|219:155|237:160,1,45,4|0,3:0|0:0,0:0:0:0:
435,198,200179,2,0,P|354:214|304:200,1,135,8|0,2:0|3:0,0:0:0:0:
123,104,200885,5,6,1:2:0:0:
123,104,201238,2,0,L|128:158,1,45,0|2,0:0|3:0,0:0:0:0:
48,187,201591,2,0,L|43:241,1,45,8|0,1:0|3:0,0:0:0:0:
125,266,201944,2,0,L|130:320,1,45,4|0,3:0|0:0,0:0:0:0:
108,100,202297,6,0,L|113:154,1,45,2|0,3:2|0:0,0:0:0:0:
33,183,202650,2,0,L|28:237,1,45,4|0,3:0|0:0,0:0:0:0:
110,262,203003,2,0,L|115:316,1,45,8|0,1:0|0:0,0:0:0:0:
208,356,203356,2,0,P|230:361|253:359,1,45,2|0,0:0|0:0,0:0:0:0:
207,120,203708,6,0,B|243:104|243:104|352:116,1,135,6|4,1:2|3:0,0:0:0:0:
138,157,204414,2,0,P|127:125|131:100,1,45,8|2,1:0|3:0,0:0:0:0:
197,77,204767,2,0,P|208:109|204:134,1,45,4|0,3:0|0:0,0:0:0:0:
206,201,205120,5,2,3:2:0:0:
206,201,205297,1,0,0:0:0:0:
322,161,205473,2,0,P|293:155|275:160,1,45,4|0,3:0|0:0,0:0:0:0:
77,198,205826,2,0,P|157:214|207:200,1,135,8|0,2:0|3:0,0:0:0:0:
389,104,206532,5,6,1:2:0:0:
389,104,206885,2,0,L|384:158,1,45,0|2,0:0|3:0,0:0:0:0:
464,187,207238,2,0,L|469:241,1,45,8|0,1:0|0:0,0:0:0:0:
387,266,207591,2,0,L|382:320,1,45,4|0,3:0|0:0,0:0:0:0:
404,100,207944,6,0,L|399:154,1,45,2|0,3:2|0:0,0:0:0:0:
479,183,208297,2,0,L|484:237,1,45,4|0,3:0|0:0,0:0:0:0:
402,262,208650,2,0,L|397:316,1,45,8|0,1:0|0:0,0:0:0:0:
303,357,209003,2,0,P|268:361|246:355,1,45,2|0,0:0|0:0,0:0:0:0:
100,254,209356,6,0,P|83:208|101:120,1,135.000005149842,6|8,1:2|2:0,0:0:0:0:
213,53,209885,1,2,3:0:0:0:
281,172,210061,2,0,L|350:160,1,67.5000025749208,8|0,2:0|0:0,0:0:0:0:
504,112,210414,2,0,L|435:100,1,67.5000025749208,4|0,3:0|0:0,0:0:0:0:
321,16,210767,6,0,L|307:99,1,67.5000025749208,8|0,1:0|0:0,0:0:0:0:
358,226,211120,2,0,L|344:143,1,67.5000025749208,8|0,1:3|0:0,0:0:0:0:
306,13,211473,2,0,L|292:96,1,67.5000025749208,8|0,2:0|0:0,0:0:0:0:
343,223,211826,2,0,L|329:140,1,67.5000025749208,8|0,0:0|0:0,0:0:0:0:
222,359,212179,5,6,1:2:0:0:
222,359,212532,2,0,P|183:364|150:354,1,67.5000025749208,8|2,0:0|3:0,0:0:0:0:
38,268,212885,2,0,P|77:263|110:273,1,67.5000025749208,8|0,2:0|2:0,0:0:0:0:
305,211,213238,2,0,B|311:178|311:178|305:137,1,67.5000025749208,4|0,3:0|0:0,0:0:0:0:
222,359,213591,6,0,P|183:364|150:354,1,67.5000025749208,8|0,1:0|0:0,0:0:0:0:
38,268,213944,2,0,P|77:263|110:273,1,67.5000025749208,4|0,3:0|0:0,0:0:0:0:
226,369,214297,2,0,P|187:374|154:364,1,67.5000025749208,8|0,1:0|0:0,0:0:0:0:
42,278,214650,2,0,P|81:273|114:283,1,67.5000025749208,8|0,0:0|0:0,0:0:0:0:
404,265,215003,6,0,P|421:219|403:131,1,135.000005149842,6|8,1:2|0:0,0:0:0:0:
291,64,215532,1,2,3:0:0:0:
223,183,215708,2,0,L|154:171,1,67.5000025749208,8|0,0:0|0:0,0:0:0:0:
0,123,216061,2,0,L|69:111,1,67.5000025749208,4|0,3:0|0:0,0:0:0:0:
183,27,216414,6,0,L|197:110,1,67.5000025749208,8|0,1:0|0:0,0:0:0:0:
146,237,216767,2,0,L|160:154,1,67.5000025749208,4|0,3:0|0:0,0:0:0:0:
198,24,217120,2,0,L|212:107,1,67.5000025749208,8|0,0:0|0:0,0:0:0:0:
161,234,217473,2,0,L|175:151,1,67.5000025749208,8|0,0:0|0:0,0:0:0:0:
282,370,217826,5,6,1:2:0:0:
282,370,218179,2,0,P|321:375|354:365,1,67.5000025749208,8|0,0:0|0:0,0:0:0:0:
466,279,218532,2,0,P|427:274|394:284,1,67.5000025749208,8|0,0:0|0:0,0:0:0:0:
199,222,218885,2,0,B|193:189|193:189|199:148,1,67.5000025749208,4|0,3:0|0:0,0:0:0:0:
282,370,219238,6,0,P|321:375|354:365,1,67.5000025749208,8|0,1:0|0:0,0:0:0:0:
466,279,219591,2,0,P|427:274|394:284,1,67.5000025749208,4|0,3:0|0:0,0:0:0:0:
278,380,219944,2,0,P|317:385|350:375,1,67.5000025749208,8|0,0:0|0:0,0:0:0:0:
462,289,220297,2,0,P|423:284|390:294,1,67.5000025749208,8|0,0:0|0:0,0:0:0:0:
471,60,220650,6,0,B|482:103|482:103|469:157,1,90,6|0,1:2|0:0,0:0:0:0:
329,253,221003,1,8,1:0:0:0:
396,124,221179,2,0,L|387:164,2,22.5,2|0|2,3:0|0:0|3:0,0:0:0:0:
331,57,221356,2,0,B|287:46|287:46|234:57,1,90,8|0,1:0|0:0,0:0:0:0:
109,135,221708,1,8,1:0:0:0:
109,135,221885,1,2,3:0:0:0:
243,55,222061,5,10,1:2:0:0:
243,55,222238,1,2,3:0:0:0:
195,213,222414,1,8,1:0:0:0:
220,133,222591,1,2,3:0:0:0:
174,293,222767,2,0,L|69:279,1,90,4|0,3:0|0:0,0:0:0:0:
261,274,223120,1,4,1:3:0:0:
261,274,223297,1,2,3:0:0:0:
51,60,223473,6,0,B|40:103|40:103|53:157,1,90,10|0,1:2|0:0,0:0:0:0:
193,253,223826,1,8,1:0:0:0:
126,124,224002,2,0,L|135:164,2,22.5,2|0|2,3:0|0:0|3:0,0:0:0:0:
191,57,224179,2,0,B|235:46|235:46|288:57,1,90,8|0,1:0|0:0,0:0:0:0:
413,135,224532,1,8,1:0:0:0:
413,135,224708,1,2,3:0:0:0:
279,55,224884,5,10,1:2:0:0:
279,55,225061,1,2,3:0:0:0:
327,213,225237,1,8,1:0:0:0:
302,133,225414,1,0,1:0:0:0:
348,293,225590,2,0,L|453:279,1,90,8|2,1:0|3:0,0:0:0:0:
261,274,225944,2,0,L|245:207,2,60,8|2|2,1:0|3:0|3:0,0:0:0:0:
304,383,226297,5,14,1:2:0:0:
367,203,226473,1,10,3:0:0:0:
304,383,226650,1,8,1:0:0:0:
367,203,226826,1,2,3:0:0:0:
174,249,227003,1,10,1:2:0:0:
174,249,227179,1,6,3:0:0:0:
442,183,227356,1,8,1:0:0:0:
304,383,227532,1,2,3:0:0:0:
228,75,227708,5,10,1:2:0:0:
282,304,227885,1,6,3:0:0:0:
343,19,228061,1,10,1:2:0:0:
291,223,228238,1,10,3:0:0:0:
175,1,228414,1,10,1:2:0:0:
346,162,228591,1,6,3:0:0:0:
86,117,228767,5,6,1:3:0:0:
184,366,228944,1,10,3:0:0:0:
397,224,229120,5,14,3:0:0:0:
422,187,229208,1,0,0:0:0:0:
423,143,229296,1,2,3:0:0:0:
401,104,229384,1,0,0:0:0:0:
361,84,229473,6,0,B|357:62|357:62|362:37,1,45,2|0,1:2|0:0,0:0:0:0:
203,253,229650,2,0,B|207:275|207:275|202:300,1,45,2|0,1:3|0:0,0:0:0:0:
152,137,229826,5,2,3:2:0:0:
188,112,229914,1,0,0:0:0:0:
233,110,230002,1,2,3:0:0:0:
271,133,230090,1,0,0:0:0:0:
291,172,230179,6,0,B|313:176|313:176|338:171,1,45,2|0,1:2|0:0,0:0:0:0:
123,331,230356,2,0,B|100:326|100:326|75:331,1,45,2|0,1:2|0:0,0:0:0:0:
16,154,230532,6,0,L|25:237,2,60,2|2|2,1:3|3:0|3:0,0:0:0:0:
116,271,230885,2,0,L|125:354,2,60,2|2|2,3:0|3:0|3:0,0:0:0:0:
87,50,231238,5,2,0:0:0:0:
87,50,231591,1,2,0:0:0:0:
