osu file format v14

[General]
AudioFilename: audio.mp3
AudioLeadIn: 0
PreviewTime: 163473
Countdown: 0
SampleSet: Soft
StackLeniency: 0.4
Mode: 0
LetterboxInBreaks: 0
WidescreenStoryboard: 1

[Editor]
Bookmarks: 11709,27944,51238,73826,96414,119003,141591,164179,186767,209356,231944
DistanceSpacing: 0.9
BeatDivisor: 4
GridSize: 4
TimelineZoom: 1.6

[Metadata]
Title:MIC Drop (Steve Aoki Remix)
TitleUnicode:MIC Drop (Steve Aoki Remix)
Artist:BTS
ArtistUnicode:방탄소년단
Creator:Syph
Version:Collab Extra
Source:
Tags:bangtan boys sonyeondan bangtansonyeondan beyond the scene bulletproof boy scouts bighit entertainment 빅히트엔터테인먼트 랩몬스터 슈가 진 제이홉 지민 뷔 정국 jungkook rap monster j-hope jimin v suga jin hot yoongi k-pop kpop kittyadventure emilia A_r_M_i_N Sekaii sekai sekai-nyan gokugohan12468
BeatmapID:1492786
BeatmapSetID:698526

[Difficulty]
HPDrainRate:6
CircleSize:4
OverallDifficulty:8.3
ApproachRate:9
SliderMultiplier:1.75
SliderTickRate:1

[Events]
//Background and Video events
0,0,"micdropfprgorg.jpg",0,0
//Break Periods
//Storyboard Layer 0 (Background)
//Storyboard Layer 1 (Fail)
//Storyboard Layer 2 (Pass)
//Storyboard Layer 3 (Foreground)
//Storyboard Sound Samples

[TimingPoints]
11709,352.941176470588,4,2,0,65,1,0
11709,-133.333333333333,4,2,0,65,0,0
28650,-133.333333333333,4,2,0,70,0,0
40297,-133.333333333333,4,2,0,65,0,0
41267,-133.333333333333,4,2,0,5,0,0
41356,-133.333333333333,4,2,0,65,0,0
41456,-133.333333333333,4,2,0,72,0,0
62532,-117.647058823529,4,2,0,67,0,0
72414,-400,4,2,0,67,0,0
73826,-400,4,2,0,65,0,0
74532,-133.333333333333,4,2,0,65,0,0
74885,-74.0740740740741,4,2,0,70,0,0
75238,-74.0740740740741,4,2,0,65,0,0
75944,-133.333333333333,4,2,0,65,0,0
76297,-74.0740740740741,4,2,0,70,0,0
76397,-74.0740740740741,4,2,0,70,0,0
76650,-74.0740740740741,4,2,0,65,0,0
78061,-74.0740740740741,4,2,0,65,0,0
79826,-74.0740740740741,4,2,0,65,0,0
80179,-133.333333333333,4,2,0,65,0,0
80532,-74.0740740740741,4,2,0,70,0,0
80885,-74.0740740740741,4,2,0,65,0,0
81591,-133.333333333333,4,2,0,65,0,0
81944,-74.0740740740741,4,2,0,70,0,0
82297,-74.0740740740741,4,2,0,65,0,0
83709,-74.0740740740741,4,2,0,70,0,0
85120,-74.0740740740741,4,2,0,75,0,0
86885,-100,4,2,0,75,0,0
88473,-74.0740740740741,4,2,0,75,0,0
89356,-100,4,2,0,75,0,0
93414,-100,4,2,0,75,0,0
95003,-66.6666666666667,4,2,0,75,0,0
96414,-90.9090909090909,4,2,0,85,0,1
102061,-90.9090909090909,4,2,0,65,0,1
104885,-90.9090909090909,4,2,0,80,0,1
107708,-90.9090909090909,4,2,0,85,0,1
113356,-90.9090909090909,4,2,0,65,0,1
116180,-90.9090909090909,4,2,0,80,0,1
118650,-111.111111111111,4,2,0,80,0,1
119003,-90.9090909090909,4,2,0,85,0,0
121120,-100,4,2,0,70,0,0
121826,-80,4,2,0,75,0,0
126061,-133.333333333333,4,2,0,75,0,0
127473,-80,4,2,0,75,0,0
133120,-100,4,2,0,75,0,0
136650,-80,4,2,0,75,0,0
137356,-100,4,2,0,75,0,0
138061,-80,4,2,0,75,0,0
141591,-133.333333333333,4,2,0,65,0,0
142650,-133.333333333333,4,2,0,70,0,0
143003,-133.333333333333,4,2,0,65,0,0
144061,-133.333333333333,4,2,0,70,0,0
144414,-133.333333333333,4,2,0,65,0,0
146356,-100,4,2,0,65,0,0
146532,-133.333333333333,4,2,0,65,0,0
148297,-133.333333333333,4,2,0,70,0,0
148650,-133.333333333333,4,2,0,65,0,0
149179,-100,4,2,0,65,0,0
149356,-133.333333333333,4,2,0,65,0,0
149708,-133.333333333333,4,2,0,70,0,0
150061,-133.333333333333,4,2,0,65,0,0
151473,-133.333333333333,4,2,0,75,0,0
152179,-100,4,2,0,75,0,0
152885,-133.333333333333,4,2,0,75,0,0
153414,-74.0740740740741,4,2,0,75,0,0
153591,-100,4,2,0,75,0,0
156238,-74.0740740740741,4,2,0,75,0,0
157473,-74.0740740740741,4,2,0,75,0,0
157826,-100,4,2,0,75,0,0
162767,-66.6666666666667,4,2,0,75,0,0
164179,-86.9565217391304,4,2,0,85,0,1
169826,-105.263157894737,4,2,0,65,0,1
172650,-86.9565217391304,4,2,0,85,0,1
181120,-105.263157894737,4,2,0,65,0,1
183944,-86.9565217391304,4,2,0,80,0,1
186767,-133.333333333333,4,2,0,70,0,0
209356,-100,4,2,0,75,0,0
220650,-100,4,2,0,75,0,0
231238,-100,4,2,0,65,0,0

[Colours]
Combo1 : 253,217,181
Combo2 : 142,210,251
Combo3 : 255,130,130
Combo4 : 143,222,148

[HitObjects]
30,41,11709,6,0,L|34:109,1,65.6250025033952,6|0,1:2|0:0,0:0:0:0:
136,87,12061,2,0,L|132:155,1,65.6250025033952,0|0,1:0|0:0,0:0:0:0:
205,227,12414,1,8,2:0:0:0:
233,126,12591,1,0,0:0:0:0:
132,152,12767,1,4,3:0:0:0:
112,178,12855,1,0,0:0:0:0:
101,208,12943,1,0,3:0:0:0:
100,241,13031,1,0,0:0:0:0:
110,272,13120,6,0,P|135:306|158:321,1,65.6250025033952,8|0,2:0|0:0,0:0:0:0:
267,244,13473,2,0,P|228:228|201:227,1,65.6250025033952,4|0,3:0|0:0,0:0:0:0:
255,348,13826,1,0,1:0:0:0:
352,306,14003,1,0,0:0:0:0:
247,336,14179,1,8,2:0:0:0:
344,294,14356,1,0,0:0:0:0:
447,370,14532,6,0,B|454:338|454:338|448:306,1,65.6250025033952,4|0,3:0|0:0,0:0:0:0:
347,228,14885,2,0,L|344:294,1,65.6250025033952,0|0,1:0|0:0,0:0:0:0:
255,348,15238,1,8,2:0:0:0:
192,263,15414,1,0,0:0:0:0:
105,322,15591,1,4,3:0:0:0:
90,292,15679,1,0,0:0:0:0:
86,260,15767,1,0,3:0:0:0:
92,228,15855,1,0,0:0:0:0:
108,199,15944,6,0,P|122:159|122:132,1,65.6250025033952,0|0,1:0|0:0,0:0:0:0:
15,75,16297,2,0,L|18:141,1,65.6250025033952,4|0,3:0|0:0,0:0:0:0:
110,32,16650,1,0,1:0:0:0:
123,136,16826,1,0,0:0:0:0:
122,26,17003,1,8,2:0:0:0:
135,130,17179,1,0,0:0:0:0:
280,81,17356,6,0,P|250:67|217:65,1,65.6250025033952,4|0,3:0|0:0,0:0:0:0:
206,207,17709,2,0,P|235:193|268:191,1,65.6250025033952,0|0,1:0|0:0,0:0:0:0:
355,249,18061,1,8,2:0:0:0:
261,296,18238,1,0,0:0:0:0:
348,353,18414,1,4,3:0:0:0:
380,351,18502,1,0,0:0:0:0:
413,350,18590,1,0,3:0:0:0:
446,348,18678,1,0,0:0:0:0:
479,347,18767,6,0,P|493:307|493:280,1,65.6250025033952,0|0,1:0|0:0,0:0:0:0:
370,186,19120,2,0,P|355:225|355:252,1,65.6250025033952,4|0,3:0|0:0,0:0:0:0:
475,182,19473,1,8,2:0:0:0:
418,93,19650,1,0,0:0:0:0:
324,140,19826,2,0,P|343:167|370:186,1,65.6250025033952,2|0,0:0|0:0,0:0:0:0:
512,45,20179,6,0,P|493:18|466:0,1,65.6250025033952,4|0,3:0|0:0,0:0:0:0:
361,4,20532,1,2,0:0:0:0:
361,4,20885,5,8,2:0:0:0:
418,93,21061,1,0,0:0:0:0:
324,140,21238,1,4,3:0:0:0:
309,162,21326,1,0,0:0:0:0:
301,186,21414,1,0,3:0:0:0:
298,212,21502,1,0,0:0:0:0:
301,238,21591,6,0,P|315:277|315:304,1,65.6250025033952,2|0,0:0|0:0,0:0:0:0:
241,374,21944,1,4,3:0:0:0:
241,374,22297,6,0,L|216:371,4,16.4062506258488,2|0|2|0|2,1:3|0:0|3:0|0:0|3:0,0:0:0:0:
418,327,22650,2,0,L|443:324,4,16.4062506258488,6|0|2|0|2,1:3|0:0|3:0|0:0|3:0,0:0:0:0:
316,300,23003,5,4,0:0:0:0:
316,300,27944,5,2,1:3:0:0:
308,268,28032,1,0,0:0:0:0:
314,236,28120,1,2,3:0:0:0:
334,211,28208,1,0,0:0:0:0:
364,196,28297,5,2,3:0:0:0:
387,165,28385,1,0,0:0:0:0:
388,127,28473,1,2,3:0:0:0:
367,94,28561,1,0,0:0:0:0:
331,80,28649,5,12,3:0:0:0:
331,80,29003,1,0,0:0:0:0:
331,80,29356,2,0,L|248:72,1,65.6250025033952,0|0,0:0|0:0,0:0:0:0:
152,144,29709,2,0,L|235:135,1,65.6250025033952,0|0,0:0|0:0,0:0:0:0:
266,73,30061,5,2,0:0:0:0:
217,137,30238,1,0,0:0:0:0:
187,17,30414,1,0,0:0:0:0:
217,137,30591,1,0,0:0:0:0:
297,2,30767,1,0,0:0:0:0:
297,2,31120,1,0,0:0:0:0:
327,122,31297,1,0,0:0:0:0:
416,37,31473,5,2,0:0:0:0:
416,37,31826,1,0,0:0:0:0:
416,37,32179,1,0,0:0:0:0:
297,2,32356,1,0,0:0:0:0:
327,122,32532,1,0,0:0:0:0:
327,122,32885,5,2,0:0:0:0:
254,91,33061,1,2,0:0:0:0:
188,135,33238,1,0,0:0:0:0:
126,183,33414,1,0,0:0:0:0:
47,182,33591,1,2,0:0:0:0:
47,182,33944,1,2,0:0:0:0:
188,135,34120,1,2,0:0:0:0:
158,280,34297,1,2,0:0:0:0:
158,280,34650,5,2,0:0:0:0:
231,249,34826,1,0,0:0:0:0:
297,293,35003,1,0,0:0:0:0:
359,341,35179,1,0,0:0:0:0:
438,340,35356,1,0,0:0:0:0:
499,291,35532,1,0,0:0:0:0:
452,355,35709,5,2,0:0:0:0:
377,378,35885,1,2,0:0:0:0:
300,362,36061,1,2,0:0:0:0:
246,304,36238,1,0,0:0:0:0:
241,225,36414,1,2,0:0:0:0:
241,225,36767,1,2,0:0:0:0:
300,362,36944,1,0,0:0:0:0:
390,243,37120,5,2,0:0:0:0:
390,243,37473,1,2,0:0:0:0:
314,282,37650,1,2,0:0:0:0:
229,286,37826,1,2,0:0:0:0:
159,236,38003,1,2,0:0:0:0:
131,155,38179,1,2,0:0:0:0:
131,155,38532,5,2,0:0:0:0:
229,286,38709,1,4,3:0:0:0:
175,78,38885,1,12,1:3:0:0:
71,230,39061,1,0,0:0:0:0:
71,230,39238,6,0,L|58:192,1,32.8125012516976,2|0,0:0|0:0,0:0:0:0:
229,286,39414,2,0,L|242:248,1,32.8125012516976,2|0,0:0|0:0,0:0:0:0:
386,236,39591,2,0,L|373:198,1,32.8125012516976,2|0,0:0|0:0,0:0:0:0:
479,139,39767,2,0,L|492:101,1,32.8125012516976,2|0,0:0|0:0,0:0:0:0:
396,327,39944,5,6,1:2:0:0:
396,327,40297,1,0,0:0:0:0:
396,327,40650,2,0,P|361:302|316:301,1,65.6250025033952,0|0,1:0|0:0,0:0:0:0:
185,315,41003,2,0,P|216:306|241:286,1,65.6250025033952,4|0,3:0|0:0,0:0:0:0:
396,327,41356,6,0,L|401:302,1,16.4062506258488,2|0,3:0|0:0,0:0:0:0:
185,315,41709,2,0,L|180:290,1,16.4062506258488,2|0,3:0|0:0,0:0:0:0:
181,298,42061,6,0,P|206:259|183:174,1,131.25000500679,8|0,1:0|0:0,0:0:0:0:
125,235,42591,1,4,3:0:0:0:
357,148,42767,1,12,3:0:0:0:
357,148,43120,5,0,0:0:0:0:
261,86,43297,1,0,0:0:0:0:
294,237,43473,1,8,1:0:0:0:
339,49,43650,1,4,3:0:0:0:
294,237,43826,2,0,P|302:207|292:168,1,65.6250025033952,12|0,3:0|0:0,0:0:0:0:
339,49,44179,6,0,L|314:44,1,16.4062506258488,0|0,1:0|0:0,0:0:0:0:
294,237,44532,2,0,L|269:242,1,16.4062506258488,8|0,1:0|0:0,0:0:0:0:
282,244,44885,1,12,1:3:0:0:
282,244,45061,1,4,3:0:0:0:
160,175,45238,1,4,3:0:0:0:
160,175,45414,1,4,3:0:0:0:
189,325,45591,5,12,3:0:0:0:
195,259,45767,2,0,L|187:336,1,65.6250025033952,0|0,0:0|0:0,0:0:0:0:
282,244,46120,1,0,0:0:0:0:
288,178,46296,2,0,L|280:255,1,65.6250025033952,8|0,1:0|0:0,0:0:0:0:
263,379,46650,1,4,3:0:0:0:
189,325,47003,5,0,0:0:0:0:
195,259,47179,2,0,L|187:336,1,65.6250025033952,0|12,0:0|3:0,0:0:0:0:
282,244,47532,1,0,0:0:0:0:
288,178,47708,2,0,L|280:255,1,65.6250025033952,8|0,1:0|0:0,0:0:0:0:
263,379,48062,1,0,0:0:0:0:
115,290,48238,1,0,0:0:0:0:
263,379,48414,5,12,3:0:0:0:
269,313,48591,2,0,L|261:390,1,65.6250025033952,0|0,0:0|0:0,0:0:0:0:
195,259,48944,1,0,0:0:0:0:
201,193,49121,2,0,L|193:270,1,65.6250025033952,8|0,1:0|0:0,0:0:0:0:
298,101,49473,2,0,L|290:178,1,65.6250025033952,4|0,3:0|0:0,0:0:0:0:
291,166,49826,6,0,L|316:161,1,16.4062506258488,2|0,0:0|0:0,0:0:0:0:
478,254,50179,2,0,L|453:249,1,16.4062506258488,4|0,3:0|0:0,0:0:0:0:
292,180,50532,6,0,L|317:175,4,16.4062506258488,2|0|2|0|2,1:3|0:0|0:3|0:0|0:3,0:0:0:0:
479,268,50885,2,0,L|454:263,4,16.4062506258488,2|0|2|0|2,1:3|0:0|0:3|0:0|0:3,0:0:0:0:
425,90,51238,6,0,L|420:155,1,65.6250025033952,6|0,1:2|0:0,0:0:0:0:
381,320,51591,2,0,L|377:255,1,65.6250025033952,0|0,0:0|0:0,0:0:0:0:
325,81,51944,1,8,1:0:0:0:
292,180,52120,1,0,0:0:0:0:
222,101,52297,1,4,3:0:0:0:
190,95,52385,1,0,0:0:0:0:
158,102,52473,1,0,3:0:0:0:
131,120,52561,1,0,0:0:0:0:
112,146,52650,6,0,P|102:187|112:223,1,65.6250025033952,2|0,0:0|0:0,0:0:0:0:
286,243,53003,2,0,P|296:202|286:166,1,65.6250025033952,4|0,3:0|0:0,0:0:0:0:
194,274,53356,1,8,1:0:0:0:
270,346,53532,1,0,0:0:0:0:
431,316,53709,2,0,L|367:307,1,65.6250025033952,2|4,0:0|3:0,0:0:0:0:
176,370,54061,5,12,3:0:0:0:
286,243,54238,1,0,0:0:0:0:
106,209,54414,1,2,0:0:0:0:
270,346,54591,1,0,0:0:0:0:
293,146,54767,1,8,1:0:0:0:
194,274,54944,1,0,0:0:0:0:
374,201,55120,1,4,3:0:0:0:
387,171,55208,1,0,0:0:0:0:
389,138,55296,1,0,3:0:0:0:
381,106,55384,1,0,0:0:0:0:
364,79,55473,6,0,L|300:70,1,65.6250025033952,0|0,3:0|3:0,0:0:0:0:
126,47,55826,2,0,P|150:21|178:7,1,65.6250025033952,4|0,3:0|0:0,0:0:0:0:
279,166,56179,1,8,1:0:0:0:
207,101,56356,1,0,0:0:0:0:
122,206,56532,2,0,L|186:197,1,65.6250025033952,4|0,3:0|0:0,0:0:0:0:
299,69,56885,6,0,L|363:78,2,65.6250025033952,12|0|0,3:0|0:0|0:0,0:0:0:0:
186,196,57414,1,0,0:0:0:0:
186,196,57591,6,0,L|254:188,1,65.6250025033952,8|0,1:0|3:0,0:0:0:0:
175,320,57944,1,4,3:0:0:0:
197,343,58032,1,0,0:0:0:0:
227,358,58120,1,0,3:0:0:0:
259,363,58208,1,0,0:0:0:0:
291,358,58297,5,2,0:0:0:0:
348,234,58473,1,0,0:0:0:0:
256,265,58650,1,4,3:0:0:0:
421,299,58826,1,0,0:0:0:0:
421,299,59003,2,0,L|485:290,1,65.6250025033952,8|8,1:0|3:0,0:0:0:0:
375,175,59356,2,0,P|355:201|347:233,1,65.6250025033952,2|0,0:0|0:0,0:0:0:0:
237,361,59709,5,12,3:0:0:0:
256,265,59885,1,0,0:0:0:0:
421,299,60061,1,2,0:0:0:0:
329,330,60238,1,0,0:0:0:0:
469,148,60414,2,0,P|471:115|463:84,1,65.6250025033952,4|0,1:3|0:0,0:0:0:0:
309,53,60767,1,4,3:0:0:0:
374,125,60944,1,0,0:0:0:0:
256,265,61120,6,0,L|247:201,1,65.6250025033952,2|0,0:0|0:0,0:0:0:0:
174,123,61473,1,4,3:0:0:0:
92,189,61650,1,0,0:0:0:0:
92,189,61826,2,0,P|115:211|146:224,1,65.6250025033952,8|0,1:0|0:0,0:0:0:0:
269,104,62179,5,0,3:0:0:0:
312,100,62296,5,0,3:0:0:0:
352,116,62414,5,0,3:0:0:0:
380,149,62532,6,0,L|390:222,1,74.3750014185906,12|0,3:0|0:0,0:0:0:0:
236,273,62885,2,0,L|246:200,1,74.3750014185906,0|0,0:0|0:0,0:0:0:0:
364,317,63238,1,8,1:0:0:0:
390,222,63414,1,0,0:0:0:0:
278,362,63591,1,4,3:0:0:0:
245,370,63679,1,0,0:0:0:0:
212,367,63767,1,0,3:0:0:0:
182,353,63855,1,0,0:0:0:0:
157,331,63944,6,0,L|167:258,1,74.3750014185906,2|0,0:0|3:0,0:0:0:0:
87,127,64297,2,0,P|81:163|89:199,1,74.3750014185906,4|0,3:0|0:0,0:0:0:0:
286,258,64650,1,8,1:0:0:0:
179,161,64826,1,0,0:0:0:0:
157,331,65003,1,2,0:0:0:0:
272,142,65179,1,4,3:0:0:0:
348,334,65356,5,12,3:0:0:0:
189,259,65532,1,0,0:0:0:0:
369,150,65709,2,0,P|367:120|346:79,1,74.3750014185906,0|0,3:0|0:0,0:0:0:0:
165,26,66061,1,8,1:0:0:0:
272,142,66238,1,0,3:0:0:0:
434,36,66414,1,4,3:0:0:0:
438,69,66502,1,0,0:0:0:0:
443,102,66590,1,0,3:0:0:0:
447,135,66678,1,0,0:0:0:0:
452,168,66767,6,0,L|442:241,1,74.3750014185906,2|0,0:0|0:0,0:0:0:0:
272,142,67120,1,4,3:0:0:0:
338,277,67297,2,0,L|348:204,1,74.3750014185906,0|8,0:0|1:0,0:0:0:0:
206,71,67650,1,0,0:0:0:0:
258,240,67826,1,0,0:0:0:0:
363,107,68003,1,0,0:0:0:0:
182,179,68179,5,4,1:3:0:0:
348,203,68356,1,0,0:0:0:0:
108,170,68532,2,0,L|182:179,1,74.3750014185906,0|0,1:0|0:0,0:0:0:0:
348,350,68885,5,8,1:0:0:0:
182,374,69062,1,0,0:0:0:0:
431,338,69238,1,4,3:0:0:0:
265,362,69415,1,0,3:0:0:0:
469,262,69591,5,8,1:0:0:0:
348,350,69767,1,0,0:0:0:0:
393,147,69944,1,4,3:0:0:0:
272,235,70120,1,0,0:0:0:0:
488,166,70297,1,10,1:2:0:0:
349,60,70473,1,4,3:0:0:0:
381,220,70650,2,0,L|392:146,1,74.3750014185906,10|4,2:0|3:0,0:0:0:0:
261,18,71003,5,12,3:0:0:0:
446,65,71179,1,8,2:0:0:0:
193,151,71356,1,8,1:2:0:0:
392,146,71532,1,8,2:0:0:0:
171,55,71709,1,12,1:3:0:0:
134,71,71797,1,0,0:0:0:0:
107,102,71885,1,8,2:0:0:0:
95,141,71973,1,0,0:0:0:0:
99,181,72061,2,0,L|110:217,1,37.1875007092953,4|0,3:0|0:0,0:0:0:0:
15,302,72238,2,0,L|26:267,1,37.1875007092953,8|0,2:0|0:0,0:0:0:0:
194,266,72414,6,0,B|205:309|205:309|194:351,1,87.5,2|0,0:0|0:0,0:0:0:0:
194,350,73826,5,6,1:2:0:0:
146,293,74003,1,0,0:0:0:0:
185,229,74179,1,8,2:0:0:0:
257,247,74356,1,0,0:0:0:0:
262,322,74532,2,0,L|336:312,1,65.6250025033952,8|0,2:0|0:0,0:0:0:0:
325,202,74885,6,0,P|309:246|327:313,1,118.125000450611,14|0,0:0|0:0,0:0:0:0:
388,99,75238,5,8,0:0:0:0:
436,156,75415,1,0,0:0:0:0:
397,220,75591,1,8,0:0:0:0:
325,202,75768,1,0,0:0:0:0:
320,127,75944,2,0,L|246:137,1,65.6250025033952,8|0,0:0|0:0,0:0:0:0:
257,247,76297,6,0,P|273:203|255:136,1,118.125000450611,14|0,0:0|0:0,0:0:0:0:
170,65,76650,5,8,0:0:0:0:
190,192,76826,1,0,0:0:0:0:
244,28,77003,1,8,0:0:0:0:
98,96,77179,1,0,0:0:0:0:
244,28,77356,1,8,0:0:0:0:
28,128,77532,1,0,0:0:0:0:
244,28,77709,5,10,0:0:0:0:
182,269,77885,1,0,0:0:0:0:
86,191,78061,2,0,L|211:180,1,118.125000450611,10|0,1:2|0:0,0:0:0:0:
406,164,78414,5,14,0:0:0:0:
203,180,78591,1,0,0:0:0:0:
315,300,78767,2,0,B|337:244|337:244|320:179,1,118.125000450611,10|0,1:2|0:0,0:0:0:0:
119,203,79120,5,10,0:0:0:0:
322,187,79297,1,0,0:0:0:0:
210,67,79473,2,0,B|188:123|188:123|205:188,1,118.125000450611,10|0,1:2|0:0,0:0:0:0:
256,287,79826,5,8,0:0:0:0:
322,187,80003,1,2,0:0:0:0:
202,179,80179,2,0,L|132:191,1,65.6250025033952,8|0,0:0|0:0,0:0:0:0:
210,67,80532,6,0,B|188:123|188:123|205:188,1,118.125000450611,14|0,0:0|0:0,0:0:0:0:
401,213,80885,5,8,0:0:0:0:
449,146,81062,1,0,0:0:0:0:
401,79,81238,1,8,0:0:0:0:
322,104,81415,1,0,0:0:0:0:
322,187,81591,2,0,L|252:175,1,65.6250025033952,8|0,0:0|0:0,0:0:0:0:
330,299,81944,6,0,B|308:243|308:243|325:178,1,118.125000450611,14|0,0:0|0:0,0:0:0:0:
449,146,82297,5,8,0:0:0:0:
398,242,82473,1,0,0:0:0:0:
350,73,82650,1,8,0:0:0:0:
398,242,82826,1,0,0:0:0:0:
437,19,83003,1,10,0:0:0:0:
265,110,83179,1,0,0:0:0:0:
437,19,83356,5,10,2:2:0:0:
398,242,83532,1,0,0:0:0:0:
502,145,83709,2,0,B|451:121|451:121|388:127,1,118.125000450611,10|0,1:2|0:0,0:0:0:0:
245,310,84061,5,14,1:2:0:0:
298,51,84237,1,0,0:0:0:0:
121,163,84414,2,0,B|172:187|172:187|235:181,1,118.125000450611,10|2,1:2|0:0,0:0:0:0:
389,126,84767,5,8,0:0:0:0:
233,181,84944,1,2,0:0:0:0:
461,97,85120,5,6,1:2:0:0:
371,279,85297,1,0,0:0:0:0:
346,37,85473,1,4,1:3:0:0:
470,181,85650,2,0,L|501:174,2,29.5312501126528,2|0|2,3:0|0:0|3:0,0:0:0:0:
388,203,85826,1,4,3:0:0:0:
388,203,86003,1,2,0:0:0:0:
179,91,86179,5,4,1:3:0:0:
236,303,86356,1,0,0:0:0:0:
307,22,86532,5,12,3:0:0:0:
307,22,86709,1,2,3:0:0:0:
190,175,86885,2,0,L|84:160,1,87.5,4|0,1:3|3:0,0:0:0:0:
253,240,87238,2,0,P|277:194|248:110,1,131.25,4|0,3:0|0:0,0:0:0:0:
176,82,87591,5,4,1:3:0:0:
253,240,87767,1,8,3:0:0:0:
340,14,87944,5,6,1:2:0:0:
437,186,88120,1,0,0:0:0:0:
176,82,88297,1,4,1:3:0:0:
266,261,88473,2,0,L|273:230,2,29.5312501126528,2|0|2,3:0|0:0|3:0,0:0:0:0:
292,159,88650,1,4,1:3:0:0:
292,159,88826,1,2,0:0:0:0:
404,74,89003,5,4,1:3:0:0:
373,300,89179,1,2,3:0:0:0:
466,27,89356,5,6,1:3:0:0:
466,27,89532,1,2,3:0:0:0:
292,159,89709,2,0,B|249:166|249:166|195:146,1,87.5,4|0,1:3|3:0,0:0:0:0:
350,98,90061,2,0,P|374:144|345:228,1,131.25,4|0,1:3|0:0,0:0:0:0:
286,266,90414,5,4,3:0:0:0:
247,281,90532,5,2,3:0:0:0:
211,273,90650,5,2,3:0:0:0:
179,251,90767,5,6,1:2:0:0:
292,159,90944,1,8,3:0:0:0:
226,354,91120,1,4,1:3:0:0:
318,82,91297,1,10,3:0:0:0:
453,246,91473,1,4,1:3:0:0:
239,98,91650,1,10,3:0:0:0:
336,351,91826,5,6,1:3:0:0:
344,5,92003,1,10,3:0:0:0:
169,140,92179,5,12,1:3:0:0:
344,5,92356,1,4,3:0:0:0:
405,232,92532,2,0,B|448:247|448:247|510:238,1,87.5,4|10,1:3|3:0,0:0:0:0:
307,155,92885,1,4,1:3:0:0:
307,155,93061,1,4,3:0:0:0:
381,327,93238,1,4,1:3:0:0:
432,82,93414,1,10,3:0:0:0:
355,228,93591,5,6,3:0:0:0:
318,242,93679,1,0,0:0:0:0:
279,238,93767,1,2,3:0:0:0:
246,217,93855,1,0,0:0:0:0:
226,184,93944,2,0,P|221:158|226:130,1,43.75,2|0,3:0|0:0,0:0:0:0:
428,38,94120,2,0,P|433:64|428:92,1,43.75,2|0,3:0|0:0,0:0:0:0:
355,228,94297,5,2,3:0:0:0:
392,214,94385,1,0,0:0:0:0:
431,218,94473,1,2,3:0:0:0:
464,239,94561,1,0,0:0:0:0:
484,272,94650,2,0,P|489:298|484:326,1,43.75,2|0,3:0|0:0,0:0:0:0:
292,384,94826,2,0,P|287:358|292:330,1,43.75,2|0,3:0|0:0,0:0:0:0:
322,129,95003,6,0,B|280:119|280:119|231:131,2,87.5000033378602,2|2|2,1:3|3:0|3:0,0:0:0:0:
431,218,95356,2,0,B|473:228|473:228|519:218,2,87.5000033378602,2|2|2,3:0|3:0|3:0,0:0:0:0:
236,129,95709,5,2,0:0:0:0:
165,271,95885,1,0,0:0:0:0:
102,83,96061,1,2,0:0:0:0:
165,271,96238,1,0,0:0:0:0:
77,9,96414,5,6,1:2:0:0:
133,177,96591,1,0,0:0:0:0:
284,44,96767,2,0,P|230:31|191:42,1,96.250002937317,2|0,0:0|0:0,0:0:0:0:
165,271,97120,1,8,1:0:0:0:
236,129,97297,1,0,0:0:0:0:
70,252,97473,2,0,L|79:348,1,96.250002937317,4|0,3:0|0:0,0:0:0:0:
323,258,97826,5,2,0:0:0:0:
133,177,98003,1,0,0:0:0:0:
276,344,98179,2,0,B|322:358|322:358|370:344,1,96.250002937317,4|0,3:0|0:0,0:0:0:0:
236,129,98532,2,0,L|227:225,1,96.250002937317,10|0,1:2|0:0,0:0:0:0:
420,262,98885,2,0,P|409:213|373:174,1,96.250002937317,0|4,0:0|3:0,0:0:0:0:
131,220,99238,6,0,P|142:269|178:308,1,96.250002937317,12|0,3:0|0:0,0:0:0:0:
368,344,99591,1,2,0:0:0:0:
236,129,99767,1,0,0:0:0:0:
113,382,99944,1,0,1:0:0:0:
227,224,100120,1,4,3:0:0:0:
0,239,100297,1,4,1:3:0:0:
171,303,100473,1,0,0:0:0:0:
59,84,100650,5,2,0:0:0:0:
74,302,100826,1,2,0:0:0:0:
144,132,101003,1,4,3:0:0:0:
151,241,101179,1,0,0:0:0:0:
239,25,101356,2,0,L|143:34,1,96.250002937317,8|0,1:0|0:0,0:0:0:0:
228,182,101709,2,0,L|324:173,1,96.250002937317,2|0,0:0|0:0,0:0:0:0:
480,37,102061,6,0,B|523:110|480:181|480:181|469:160|455:149,2,192.500005874634,12|0|0,3:0|0:0|1:0,0:0:0:0:
411,3,102944,1,0,0:0:0:0:
336,9,103120,1,4,3:0:0:0:
274,53,103297,1,0,0:0:0:0:
243,122,103473,6,0,L|258:315,2,192.500005874634,2|4|0,0:0|3:0|1:0,0:0:0:0:
198,59,104356,1,0,0:0:0:0:
126,34,104532,1,2,0:0:0:0:
53,54,104709,1,0,0:0:0:0:
104,201,104885,6,0,B|117:155|117:155|106:108,1,96.250002937317,12|0,3:0|0:0,0:0:0:0:
14,235,105238,2,0,P|44:278|83:297,1,96.250002937317,2|0,0:0|0:0,0:0:0:0:
243,122,105591,1,6,1:3:0:0:
104,201,105767,1,0,0:0:0:0:
271,259,105944,2,0,L|175:268,1,96.250002937317,4|0,3:0|0:0,0:0:0:0:
268,28,106297,5,2,3:0:0:0:
324,177,106473,1,2,3:0:0:0:
459,29,106650,2,0,B|413:16|413:16|366:28,1,96.250002937317,4|0,3:0|0:0,0:0:0:0:
368,265,107003,1,2,1:2:0:0:
411,115,107179,1,0,0:0:0:0:
419,349,107356,1,2,0:0:0:0:
324,177,107532,1,0,0:0:0:0:
211,372,107709,5,6,1:2:0:0:
368,265,107885,1,0,0:0:0:0:
135,204,108061,2,0,P|131:252|151:296,1,96.250002937317,0|0,0:0|0:0,0:0:0:0:
368,265,108414,1,8,1:0:0:0:
228,236,108591,1,0,0:0:0:0:
447,208,108767,1,4,3:0:0:0:
285,316,108944,1,0,0:0:0:0:
218,44,109120,6,0,L|209:140,1,96.250002937317,2|0,1:2|0:0,0:0:0:0:
368,265,109473,2,0,L|377:169,1,96.250002937317,4|0,3:0|0:0,0:0:0:0:
139,208,109826,2,0,P|180:233|228:236,1,96.250002937317,10|0,1:2|0:0,0:0:0:0:
218,44,110179,2,0,B|172:31|172:31|125:43,1,96.250002937317,2|4,0:0|3:0,0:0:0:0:
281,178,110532,6,0,L|377:169,1,96.250002937317,12|0,3:0|0:0,0:0:0:0:
501,22,110885,1,2,0:0:0:0:
307,84,111061,1,0,0:0:0:0:
512,225,111238,1,0,1:0:0:0:
404,75,111414,1,4,3:0:0:0:
459,307,111591,1,4,1:3:0:0:
491,119,111767,1,0,0:0:0:0:
361,299,111944,6,0,P|369:346|399:384,1,96.250002937317,2|2,0:0|0:0,0:0:0:0:
512,225,112297,1,4,3:0:0:0:
281,178,112473,1,0,0:0:0:0:
482,23,112650,2,0,L|491:119,1,96.250002937317,8|0,1:0|0:0,0:0:0:0:
361,299,113003,1,2,0:0:0:0:
307,84,113179,1,0,0:0:0:0:
124,139,113356,6,0,B|178:144|214:113|214:113|230:162|281:178,2,192.500005874634,12|2|0,3:0|0:0|1:0,0:0:0:0:
80,75,114238,1,0,0:0:0:0:
46,144,114414,1,4,3:0:0:0:
87,209,114591,1,0,0:0:0:0:
53,278,114767,6,0,P|138:266|155:174,2,192.500005874634,2|4|0,0:0|3:0|1:0,0:0:0:0:
87,209,115650,1,0,0:0:0:0:
46,144,115826,1,2,0:0:0:0:
80,75,116002,1,0,0:0:0:0:
220,130,116179,6,0,L|124:139,1,96.250002937317,12|0,3:0|0:0,0:0:0:0:
236,33,116532,2,0,P|294:66|311:97,1,96.250002937317,2|0,0:0|0:0,0:0:0:0:
262,293,116885,1,12,1:3:0:0:
220,130,117061,1,0,0:0:0:0:
185,353,117238,1,4,3:0:0:0:
289,199,117414,1,0,0:0:0:0:
54,229,117591,5,2,3:0:0:0:
262,293,117767,1,2,3:0:0:0:
32,318,117944,1,6,3:0:0:0:
28,294,118032,1,0,0:0:0:0:
31,270,118120,1,0,0:0:0:0:
39,248,118208,1,0,0:0:0:0:
53,228,118296,1,8,1:0:0:0:
220,130,118473,1,2,3:0:0:0:
185,353,118650,2,0,L|176:257,1,78.7499975967408,2|0,0:0|3:0,0:0:0:0:
314,105,119003,5,6,0:0:0:0:
314,105,121120,6,0,L|288:108,4,21.875,2|0|2|0|0,1:3|0:0|3:0|0:0|3:0,0:0:0:0:
180,148,121473,2,0,L|206:151,4,21.875,2|0|2|0|0,1:3|0:0|3:0|0:0|3:0,0:0:0:0:
314,105,121826,6,0,B|346:94|346:94|334:209,1,145.833333333333,12|0,3:0|0:0,0:0:0:0:
354,305,122179,2,0,B|322:316|322:316|334:201,1,145.833333333333,0|0,0:0|0:0,0:0:0:0:
434,184,122532,1,8,1:0:0:0:
434,184,122885,2,0,L|443:68,1,109.375,4|0,3:0|0:0,0:0:0:0:
333,204,123238,6,0,B|344:236|344:236|229:224,1,145.833333333333,0|0,0:0|0:0,0:0:0:0:
133,244,123591,2,0,B|122:212|122:212|237:224,1,145.833333333333,4|0,3:0|0:0,0:0:0:0:
254,324,123944,1,8,1:0:0:0:
254,324,124120,1,4,3:0:0:0:
254,324,124297,2,0,L|370:333,1,109.375,0|0,0:0|0:0,0:0:0:0:
434,150,124650,5,4,3:0:0:0:
504,179,124826,1,0,0:0:0:0:
498,256,125003,1,2,0:0:0:0:
425,274,125179,1,0,0:0:0:0:
383,209,125356,1,8,1:0:0:0:
504,179,125532,1,0,0:0:0:0:
323,262,125708,2,0,P|301:212|318:162,1,109.375,6|0,3:0|0:0,0:0:0:0:
383,209,126061,6,0,L|250:196,2,131.25000500679,0|0|0,0:0|0:0|0:0,0:0:0:0:
383,209,127120,1,2,0:0:0:0:
383,209,127473,6,0,P|345:177|232:192,1,145.833333333333,12|0,3:0|0:0,0:0:0:0:
122,146,127826,2,0,P|160:178|273:163,1,145.833333333333,0|0,0:0|0:0,0:0:0:0:
331,131,128179,1,8,1:0:0:0:
331,131,128532,2,0,L|311:252,1,109.375,6|0,3:0|0:0,0:0:0:0:
182,207,128885,6,0,P|220:239|333:224,1,145.833333333333,0|0,0:0|0:0,0:0:0:0:
443,270,129238,2,0,P|405:238|292:253,1,145.833333333333,4|0,3:0|0:0,0:0:0:0:
234,285,129591,1,8,1:0:0:0:
234,285,129767,1,4,3:0:0:0:
234,285,129944,2,0,L|254:164,1,109.375,0|0,0:0|0:0,0:0:0:0:
363,159,130297,6,0,P|323:210|301:113,2,218.75,4|0|8,1:2|0:0|1:0,0:0:0:0:
296,114,131179,1,0,0:0:0:0:
391,237,131356,1,4,3:0:0:0:
391,237,131532,1,0,0:0:0:0:
450,142,131708,5,2,0:0:0:0:
450,142,131885,1,0,0:0:0:0:
299,200,132061,1,4,3:0:0:0:
425,302,132238,1,0,0:0:0:0:
299,200,132414,2,0,P|351:226|417:201,1,109.375,8|0,1:0|0:0,0:0:0:0:
219,293,132767,2,0,P|167:267|101:292,1,109.375,2|0,0:0|0:0,0:0:0:0:
73,339,133032,1,0,0:0:0:0:
73,339,133120,6,0,L|68:161,2,175,12|0|8,3:0|0:0|1:0,0:0:0:0:
191,268,134003,1,0,0:0:0:0:
77,343,134179,1,4,3:0:0:0:
77,343,134356,1,0,0:0:0:0:
258,227,134532,5,2,0:0:0:0:
203,365,134708,1,0,0:0:0:0:
163,157,134885,1,4,3:0:0:0:
186,285,135061,1,0,0:0:0:0:
243,101,135238,1,8,1:0:0:0:
186,285,135414,1,4,3:0:0:0:
81,193,135591,2,0,L|68:217,4,21.875,2|0|0|0|8,0:0|0:0|3:0|0:0|3:0,0:0:0:0:
125,125,135856,1,0,0:0:0:0:
125,125,135944,6,0,B|177:109|177:109|285:126,1,131.25,4|0,3:0|0:0,0:0:0:0:
334,139,136297,1,2,0:0:0:0:
209,41,136473,1,0,0:0:0:0:
275,301,136650,2,0,B|292:250|292:250|275:191,1,109.375,8|0,1:0|0:0,0:0:0:0:
109,112,137003,2,0,B|92:163|92:163|109:222,1,109.375,4|0,3:0|0:0,0:0:0:0:
275,301,137356,6,0,B|223:317|223:317|115:300,1,131.25,2|0,0:0|0:0,0:0:0:0:
66,282,137709,1,4,3:0:0:0:
186,384,137885,1,0,0:0:0:0:
125,120,138062,2,0,B|108:171|108:171|125:230,1,109.375,8|0,1:0|0:0,0:0:0:0:
291,314,138415,2,0,B|308:263|308:263|291:204,1,109.375,0|0,0:0|0:0,0:0:0:0:
223,70,138767,5,12,3:0:0:0:
427,132,138944,1,0,0:0:0:0:
213,204,139120,1,2,0:0:0:0:
427,132,139297,1,0,0:0:0:0:
143,254,139473,2,0,B|127:201|127:201|149:139,1,109.375,12|0,1:3|0:0,0:0:0:0:
429,28,139826,2,0,B|445:81|445:81|423:143,1,109.375,6|0,3:0|0:0,0:0:0:0:
319,286,140179,6,0,P|362:264|439:286,1,109.375,2|0,0:0|0:0,0:0:0:0:
101,219,140532,2,0,P|154:228|203:206,1,109.375,4|0,3:0|0:0,0:0:0:0:
424,278,140885,2,0,P|360:166|323:290,1,328.125,12|0,1:2|0:0,0:0:0:0:
323,290,141591,5,6,0:0:0:0:
424,278,141767,1,0,0:0:0:0:
365,201,141944,1,0,3:0:0:0:
384,367,142120,1,2,0:0:0:0:
462,188,142297,2,0,P|450:153|424:122,1,65.6250025033952,0|0,1:0|0:0,0:0:0:0:
224,89,142650,1,4,3:0:0:0:
365,201,142826,6,0,P|331:184|291:181,1,65.6250025033952,2|2,3:0|0:0,0:0:0:0:
211,296,143179,1,2,3:0:0:0:
306,279,143356,1,4,3:0:0:0:
157,215,143532,1,8,3:0:0:0:
303,116,143708,2,0,B|309:149|309:149|302:180,1,65.6250025033952,0|0,1:0|0:0,0:0:0:0:
114,303,144061,1,2,0:0:0:0:
211,148,144238,1,0,1:0:0:0:
306,279,144414,5,4,3:0:0:0:
157,215,144591,1,0,0:0:0:0:
302,180,144767,1,2,0:0:0:0:
141,219,144944,1,4,3:0:0:0:
322,283,145120,1,0,1:0:0:0:
285,84,145297,1,2,0:0:0:0:
227,305,145473,1,4,3:0:0:0:
302,180,145650,6,0,P|335:163|375:160,1,65.6250025033952,0|2,1:0|0:0,0:0:0:0:
474,272,146003,1,2,3:0:0:0:
453,77,146179,1,2,0:0:0:0:
361,258,146356,2,0,L|360:284,2,21.875,4|0|2,3:0|0:0|3:0,0:0:0:0:
363,159,146532,1,0,1:0:0:0:
422,355,146708,1,2,3:0:0:0:
459,175,146885,1,2,3:0:0:0:
360,279,147061,1,0,3:0:0:0:
357,61,147238,5,4,3:0:0:0:
474,272,147414,1,0,0:0:0:0:
453,77,147591,1,2,0:0:0:0:
384,236,147767,1,2,0:0:0:0:
292,53,147944,2,0,L|357:61,1,65.6250025033952,0|0,1:0|0:0,0:0:0:0:
298,282,148297,1,2,0:0:0:0:
224,123,148473,6,0,L|159:131,1,65.6250025033952,2|2,3:0|0:0,0:0:0:0:
52,296,148826,1,2,3:0:0:0:
176,228,149003,1,4,3:0:0:0:
18,204,149179,2,0,L|16:183,2,21.875,8|0|2,3:0|0:0|3:0,0:0:0:0:
52,296,149356,1,2,3:0:0:0:
158,131,149532,1,4,3:0:0:0:
273,332,149708,1,2,0:0:0:0:
176,228,149885,1,2,3:0:0:0:
353,276,150061,5,4,3:0:0:0:
176,326,150238,1,0,0:0:0:0:
311,188,150414,1,0,1:0:0:0:
361,374,150591,1,8,3:0:0:0:
176,228,150767,5,0,1:0:0:0:
384,124,150944,1,2,0:0:0:0:
353,276,151120,1,8,3:0:0:0:
247,66,151297,6,0,L|312:58,1,65.6250025033952,0|2,1:0|0:0,0:0:0:0:
426,212,151650,1,2,3:0:0:0:
494,12,151826,1,4,3:0:0:0:
292,154,152003,1,8,3:0:0:0:
481,131,152179,2,0,L|502:135,4,21.875,0|0|2|0|4,1:0|0:0|1:3|0:0|3:0,0:0:0:0:
312,57,152532,2,0,L|291:61,4,21.875,0|0|2|0|4,1:0|0:0|1:3|0:0|3:0,0:0:0:0:
426,212,152885,5,6,1:2:0:0:
402,19,153061,1,2,0:0:0:0:
333,244,153238,1,8,1:0:0:0:
481,131,153414,2,0,L|510:137,2,29.5312501126528,2|0|2,3:0|0:0|3:0,0:0:0:0:
385,115,153591,1,12,3:0:0:0:
385,115,153767,1,2,0:0:0:0:
406,308,153944,1,8,1:3:0:0:
448,39,154120,1,2,3:0:0:0:
255,184,154297,5,6,1:2:0:0:
477,241,154473,1,2,3:0:0:0:
309,325,154650,2,0,P|312:281|333:244,1,87.5,4|2,3:0|3:0,0:0:0:0:
471,108,155003,2,0,L|384:114,1,87.5,8|0,1:3|3:0,0:0:0:0:
173,31,155356,1,4,3:0:0:0:
255,184,155532,1,2,1:2:0:0:
366,8,155708,5,6,1:2:0:0:
173,130,155885,1,2,0:0:0:0:
384,114,156061,1,8,1:0:0:0:
173,31,156238,2,0,L|144:37,2,29.5312501126528,2|0|2,3:0|0:0|3:0,0:0:0:0:
257,81,156414,1,8,1:3:0:0:
257,81,156591,1,2,0:0:0:0:
79,110,156767,1,4,3:0:0:0:
255,184,156944,1,2,3:0:0:0:
17,267,157120,5,6,1:2:0:0:
173,130,157297,1,2,3:0:0:0:
174,340,157473,1,8,1:3:0:0:
79,110,157650,2,0,L|85:81,2,29.5312501126528,2|0|2,3:0|0:0|3:0,0:0:0:0:
109,204,157826,1,4,1:3:0:0:
109,204,158003,1,2,3:0:0:0:
257,81,158179,5,4,3:0:0:0:
296,66,158297,5,2,3:0:0:0:
332,74,158415,5,2,3:0:0:0:
364,96,158532,5,14,1:2:0:0:
400,329,158708,1,8,3:0:0:0:
300,165,158885,1,8,1:0:0:0:
506,59,159061,1,10,3:0:0:0:
364,239,159238,1,4,1:3:0:0:
307,17,159414,1,8,3:0:0:0:
461,253,159591,1,4,1:3:0:0:
211,202,159767,1,10,3:0:0:0:
420,15,159944,5,6,1:2:0:0:
364,239,160120,1,2,3:0:0:0:
220,63,160297,2,0,B|176:54|176:54|133:64,1,87.5,4|6,1:3|3:0,0:0:0:0:
275,276,160650,1,2,1:3:0:0:
307,17,160826,1,4,3:0:0:0:
211,202,161003,1,4,1:3:0:0:
424,162,161179,1,6,3:0:0:0:
220,63,161356,5,6,3:0:0:0:
180,66,161444,1,0,0:0:0:0:
141,69,161532,1,2,3:0:0:0:
102,73,161620,1,0,0:0:0:0:
63,76,161708,2,0,P|29:90|9:104,1,43.75,2|0,3:0|0:0,0:0:0:0:
72,217,161885,2,0,L|79:174,1,43.75,2|0,3:0|0:0,0:0:0:0:
220,63,162061,5,2,3:0:0:0:
259,66,162149,1,0,0:0:0:0:
298,69,162237,1,2,3:0:0:0:
337,73,162325,1,0,0:0:0:0:
376,76,162414,2,0,P|410:89|429:101,1,43.75,2|0,3:0|0:0,0:0:0:0:
368,217,162590,2,0,L|361:174,1,43.75,2|0,3:0|0:0,0:0:0:0:
460,249,162767,6,0,P|431:292|400:310,2,87.5000033378602,2|2|2,1:3|3:0|3:0,0:0:0:0:
416,93,163120,1,2,1:3:0:0:
368,217,163297,1,0,0:0:0:0:
368,217,163385,1,0,0:0:0:0:
368,217,163473,1,12,1:3:0:0:
497,38,163650,1,4,3:0:0:0:
325,129,163826,1,8,3:0:0:0:
512,262,164003,1,4,3:0:0:0:
260,80,164179,5,6,1:2:0:0:
316,304,164356,1,0,0:0:0:0:
468,176,164532,2,0,B|417:162|417:162|356:176,1,100.62500191927,2|0,0:0|0:0,0:0:0:0:
138,280,164885,1,14,1:2:0:0:
288,205,165061,1,2,0:0:0:0:
235,384,165238,2,0,B|221:333|221:333|235:272,1,100.62500191927,4|0,3:0|0:0,0:0:0:0:
332,129,165591,5,2,0:0:0:0:
231,286,165767,1,2,0:0:0:0:
96,167,165944,2,0,P|146:153|196:167,1,100.62500191927,4|0,3:0|0:0,0:0:0:0:
385,201,166297,2,0,B|334:215|334:215|273:201,1,100.62500191927,10|0,1:2|0:0,0:0:0:0:
176,150,166650,1,2,0:0:0:0:
344,52,166826,1,4,3:0:0:0:
277,304,167003,6,0,L|288:189,1,100.62500191927,12|0,3:0|0:0,0:0:0:0:
244,12,167356,1,2,0:0:0:0:
394,135,167532,1,0,0:0:0:0:
170,189,167708,1,8,1:0:0:0:
350,36,167885,1,4,3:0:0:0:
265,284,168061,1,12,3:0:0:0:
324,111,168238,1,0,0:0:0:0:
94,220,168414,5,2,0:0:0:0:
94,220,168591,2,0,L|87:168,1,50.3125009596348,2|0,0:0|0:0,0:0:0:0:
265,284,168767,2,0,L|253:168,1,100.62500191927,4|0,3:0|0:0,0:0:0:0:
244,47,169120,1,8,1:0:0:0:
209,34,169297,1,0,0:0:0:0:
181,39,169473,1,2,0:0:0:0:
165,54,169650,1,0,0:0:0:0:
336,160,169826,6,0,B|389:183|389:183|531:165,2,166.249995560646,12|0|0,3:0|0:0|1:0,0:0:0:0:
448,263,170708,1,0,0:0:0:0:
448,263,170885,2,0,L|437:358,1,83.1249977803231,4|0,3:0|0:0,0:0:0:0:
253,258,171238,6,0,B|200:235|200:235|58:253,2,166.249995560646,2|4|0,0:0|3:0|1:0,0:0:0:0:
141,155,172120,1,4,3:0:0:0:
141,155,172297,2,0,L|152:60,1,83.1249977803231,2|8,0:0|3:0,0:0:0:0:
267,279,172650,6,0,B|317:296|317:296|381:283,1,100.62500191927,6|0,1:2|0:0,0:0:0:0:
512,125,173003,2,0,B|462:108|462:108|398:121,1,100.62500191927,2|0,0:0|0:0,0:0:0:0:
363,286,173356,1,14,1:3:0:0:
415,117,173532,1,0,0:0:0:0:
341,360,173708,1,4,3:0:0:0:
440,43,173885,1,0,0:0:0:0:
390,202,174061,5,6,1:2:0:0:
390,202,174238,1,2,3:0:0:0:
233,135,174414,2,0,P|277:123|336:138,1,100.62500191927,4|0,3:0|0:0,0:0:0:0:
156,224,174767,1,8,1:0:0:0:
329,134,174944,1,4,3:0:0:0:
159,62,175120,1,2,0:0:0:0:
242,321,175297,1,0,0:0:0:0:
54,223,175473,5,6,1:2:0:0:
240,101,175650,1,0,0:0:0:0:
167,361,175826,2,0,B|157:313|157:313|181:256,1,100.62500191927,2|0,3:2|0:0,0:0:0:0:
325,60,176179,2,0,B|335:108|335:108|311:165,1,100.62500191927,8|0,1:0|0:0,0:0:0:0:
101,57,176532,1,4,3:0:0:0:
101,57,176708,1,0,0:0:0:0:
206,187,176885,6,0,L|318:178,1,100.62500191927,6|0,1:2|0:0,0:0:0:0:
106,308,177238,2,0,L|-6:299,1,100.62500191927,4|0,3:0|0:0,0:0:0:0:
173,359,177591,2,0,P|188:311|174:264,1,100.62500191927,10|0,1:2|0:0,0:0:0:0:
34,125,177944,1,2,0:0:0:0:
106,308,178120,1,4,3:0:0:0:
234,193,178297,6,0,B|184:176|184:176|132:188,1,100.62500191927,12|0,3:0|0:0,0:0:0:0:
316,264,178650,1,2,0:0:0:0:
244,81,178826,1,0,0:0:0:0:
219,322,179003,1,8,1:0:0:0:
244,81,179179,1,4,3:0:0:0:
399,208,179356,1,12,3:0:0:0:
184,30,179532,1,0,0:0:0:0:
297,271,179708,5,2,0:0:0:0:
297,271,179885,2,0,L|301:210,1,50.3125009596348,2|0,0:0|0:0,0:0:0:0:
441,101,180061,2,0,L|407:80,4,25.1562504798174,4|0|0|0|0,3:0|0:0|0:0|0:0|0:0,0:0:0:0:
229,195,180414,1,8,1:0:0:0:
419,87,180591,1,0,0:0:0:0:
375,279,180767,2,0,L|381:306,4,25.1562504798174,2|0|0|0|0,0:0|0:0|0:0|0:0|0:0,0:0:0:0:
246,226,181032,1,0,0:0:0:0:
228,212,181120,6,0,B|175:189|175:189|33:207,2,166.249995560646,12|2|0,3:0|2:0|1:0,0:0:0:0:
116,109,182002,1,0,0:0:0:0:
116,109,182179,2,0,L|127:14,1,83.1249977803231,4|0,3:0|0:0,0:0:0:0:
311,114,182532,6,0,B|364:137|364:137|506:119,2,166.249995560646,2|4|0,0:0|3:0|1:0,0:0:0:0:
423,217,183414,1,4,3:0:0:0:
423,217,183591,2,0,L|412:312,1,83.1249977803231,2|0,0:0|3:0,0:0:0:0:
297,93,183944,6,0,B|247:76|247:76|183:89,1,100.62500191927,14|0,1:2|0:0,0:0:0:0:
52,247,184297,2,0,B|102:264|102:264|166:251,1,100.62500191927,2|0,0:0|0:0,0:0:0:0:
201,86,184650,1,14,1:3:0:0:
149,255,184826,1,0,0:0:0:0:
223,12,185002,1,6,3:0:0:0:
124,329,185179,1,2,3:2:0:0:
174,170,185355,5,2,3:2:0:0:
174,170,185532,1,2,3:0:0:0:
331,237,185708,2,0,P|287:249|228:234,1,100.62500191927,4|0,3:0|0:0,0:0:0:0:
408,148,186061,1,8,1:0:0:0:
235,238,186238,1,2,0:0:0:0:
405,310,186414,1,2,0:0:0:0:
322,51,186591,1,0,0:0:0:0:
241,369,186767,6,0,L|176:360,1,65.6250025033952,6|0,1:2|0:0,0:0:0:0:
39,323,187120,2,0,L|104:314,1,65.6250025033952,0|0,0:0|0:0,0:0:0:0:
156,191,187473,1,2,0:0:0:0:
180,274,187650,1,2,0:0:0:0:
72,207,187826,2,0,P|73:172|85:143,1,65.6250025033952,4|0,3:0|0:0,0:0:0:0:
243,179,188179,6,0,L|239:212,1,32.8125012516976,2|0,0:0|0:0,0:0:0:0:
156,191,188356,2,0,L|160:158,1,32.8125012516976,2|0,0:0|0:0,0:0:0:0:
327,201,188532,2,0,L|318:266,1,65.6250025033952,4|0,3:0|0:0,0:0:0:0:
395,382,188885,1,0,1:0:0:0:
398,296,189061,1,0,0:0:0:0:
256,325,189238,2,0,P|283:344|315:352,1,65.6250025033952,2|0,0:0|0:0,0:0:0:0:
460,236,189591,6,0,P|433:217|401:209,1,65.6250025033952,12|0,3:0|0:0,0:0:0:0:
317,266,189944,2,0,L|308:201,1,65.6250025033952,2|0,0:0|0:0,0:0:0:0:
246,83,190297,1,0,1:0:0:0:
325,117,190473,1,2,0:0:0:0:
223,205,190650,2,0,B|191:213|191:213|159:205,1,65.6250025033952,4|0,3:0|0:0,0:0:0:0:
106,100,191003,6,0,P|109:116|111:133,1,32.8125012516976,2|0,0:0|0:0,0:0:0:0:
68,243,191179,2,0,P|70:227|74:211,1,32.8125012516976,2|0,0:0|0:0,0:0:0:0:
223,205,191356,2,0,L|288:214,1,65.6250025033952,4|0,3:0|0:0,0:0:0:0:
402,280,191708,1,2,1:2:0:0:
318,295,191885,1,0,0:0:0:0:
400,194,192061,2,0,P|442:204|468:224,1,65.6250025033952,2|4,0:0|3:0,0:0:0:0:
411,345,192414,6,0,L|402:280,1,65.6250025033952,12|0,3:0|0:0,0:0:0:0:
288,214,192767,2,0,L|297:149,1,65.6250025033952,2|0,0:0|0:0,0:0:0:0:
356,31,193120,1,0,1:0:0:0:
376,115,193297,1,2,0:0:0:0:
247,79,193473,2,0,B|215:71|215:71|183:79,1,65.6250025033952,4|0,3:0|0:0,0:0:0:0:
126,182,193826,6,0,L|130:149,1,32.8125012516976,2|0,0:0|0:0,0:0:0:0:
95,39,194003,2,0,L|91:72,1,32.8125012516976,2|0,0:0|0:0,0:0:0:0:
215,159,194179,2,0,L|206:224,1,65.6250025033952,4|0,3:0|0:0,0:0:0:0:
173,345,194532,1,2,1:2:0:0:
133,268,194708,1,0,0:0:0:0:
288,247,194885,2,0,L|353:256,1,65.6250025033952,2|0,0:0|0:0,0:0:0:0:
466,309,195238,6,0,P|437:324|405:325,1,65.6250025033952,12|0,3:0|0:0,0:0:0:0:
409,191,195591,2,0,L|474:200,1,65.6250025033952,2|0,0:0|0:0,0:0:0:0:
353,256,195944,1,0,1:0:0:0:
325,175,196120,1,2,0:0:0:0:
242,277,196297,2,0,P|209:276|180:261,1,65.6250025033952,4|0,3:0|0:0,0:0:0:0:
129,161,196650,6,0,L|127:194,1,32.8125012516976,2|0,0:0|0:0,0:0:0:0:
94,305,196826,2,0,L|97:273,1,32.8125012516976,2|0,0:0|0:0,0:0:0:0:
212,181,197003,2,0,L|221:51,1,131.25000500679,2|2,0:0|0:0,0:0:0:0:
353,8,197532,1,2,0:0:0:0:
303,78,197708,1,2,0:0:0:0:
303,78,198061,6,0,P|357:94|421:60,1,131.25000500679,6|0,1:2|0:0,0:0:0:0:
488,9,198591,1,4,3:0:0:0:
502,145,198767,2,0,L|493:210,1,65.6250025033952,8|0,1:0|0:0,0:0:0:0:
353,264,199120,2,0,P|380:245|412:238,1,65.6250025033952,4|0,3:0|0:0,0:0:0:0:
496,354,199473,5,2,0:0:0:0:
416,324,199650,1,0,0:0:0:0:
289,374,199826,2,0,L|354:383,1,65.6250025033952,4|0,3:0|0:0,0:0:0:0:
412,238,200179,2,0,B|428:174|428:174|412:110,1,131.25000500679,8|0,2:0|0:0,0:0:0:0:
448,32,200708,1,0,3:0:0:0:
328,127,200885,5,6,1:2:0:0:
328,127,201238,2,0,L|263:118,1,65.6250025033952,0|2,0:0|3:0,0:0:0:0:
303,210,201591,2,0,L|238:201,1,65.6250025033952,8|0,1:0|3:0,0:0:0:0:
278,293,201944,2,0,L|213:284,1,65.6250025033952,4|0,3:0|0:0,0:0:0:0:
89,212,202297,6,0,L|154:221,1,65.6250025033952,2|0,3:2|0:0,0:0:0:0:
167,355,202650,2,0,P|143:333|130:304,1,65.6250025033952,4|0,3:0|0:0,0:0:0:0:
238,201,203003,2,0,L|369:219,1,131.25000500679,8|2,1:0|0:0,0:0:0:0:
368,219,203708,6,0,B|355:159|355:159|348:117|373:91,1,131.25000500679,6|0,1:2|0:0,0:0:0:0:
447,55,204238,1,4,3:0:0:0:
311,32,204414,2,0,L|246:41,1,65.6250025033952,8|2,1:0|3:0,0:0:0:0:
126,97,204767,2,0,L|191:106,1,65.6250025033952,4|0,3:0|0:0,0:0:0:0:
284,218,205120,5,2,3:2:0:0:
202,192,205297,1,0,0:0:0:0:
332,147,205473,2,0,P|358:175|368:203,1,65.6250025033952,4|0,3:0|0:0,0:0:0:0:
283,346,205826,2,0,B|303:282|263:282|283:218,1,131.25000500679,8|0,2:0|0:0,0:0:0:0:
332,147,206356,1,0,3:0:0:0:
202,192,206532,5,6,1:2:0:0:
202,192,206885,2,0,P|175:174|141:168,1,65.6250025033952,0|2,0:0|3:0,0:0:0:0:
142,254,207238,2,0,P|109:251|77:263,1,65.6250025033952,8|0,1:0|0:0,0:0:0:0:
121,337,207591,2,0,P|91:351|69:377,1,65.6250025033952,4|0,3:0|0:0,0:0:0:0:
204,314,207944,6,0,L|269:323,1,65.6250025033952,2|0,3:2|0:0,0:0:0:0:
398,257,208297,2,0,L|333:266,1,65.6250025033952,4|0,3:0|0:0,0:0:0:0:
469,305,208650,2,0,P|483:263|441:183,1,131.25000500679,8|2,1:0|0:0,0:0:0:0:
448,187,209356,6,0,P|436:144|452:92,1,87.5,6|0,1:2|0:0,0:0:0:0:
371,245,209708,1,8,2:0:0:0:
512,143,209885,1,2,3:0:0:0:
371,245,210061,2,0,P|383:288|367:340,1,87.5,8|0,2:0|0:0,0:0:0:0:
229,383,210414,2,0,P|217:340|233:288,1,87.5,4|0,3:0|0:0,0:0:0:0:
286,190,210767,6,0,L|173:174,1,87.5,8|0,1:0|0:0,0:0:0:0:
356,112,211120,2,0,L|243:96,1,87.5,8|0,1:3|0:0,0:0:0:0:
292,206,211473,2,0,L|179:190,1,87.5,8|0,2:0|0:0,0:0:0:0:
362,128,211826,2,0,L|249:112,1,87.5,8|0,0:0|0:0,0:0:0:0:
81,88,212179,5,6,1:2:0:0:
81,88,212532,2,0,L|87:208,1,87.5,8|2,0:0|3:0,0:0:0:0:
178,227,212885,2,0,L|184:347,1,87.5,8|0,2:0|2:0,0:0:0:0:
96,73,213238,2,0,L|102:193,1,87.5,4|0,3:0|0:0,0:0:0:0:
196,236,213591,6,0,L|282:223,1,87.5,8|0,1:0|0:0,0:0:0:0:
318,140,213944,2,0,L|404:127,1,87.5,4|0,3:0|0:0,0:0:0:0:
215,246,214297,2,0,L|301:233,1,87.5,8|0,1:0|0:0,0:0:0:0:
337,150,214650,2,0,L|423:137,1,87.5,8|0,0:0|0:0,0:0:0:0:
308,317,215003,6,0,B|293:274|293:274|301:231,1,87.5,6|0,1:2|0:0,0:0:0:0:
430,114,215356,1,8,0:0:0:0:
378,271,215532,1,2,3:0:0:0:
293,59,215708,2,0,L|203:44,1,87.5,8|0,0:0|0:0,0:0:0:0:
341,154,216061,2,0,L|251:139,1,87.5,4|0,3:0|0:0,0:0:0:0:
99,243,216414,6,0,L|107:337,1,87.5,8|0,1:0|0:0,0:0:0:0:
174,174,216767,2,0,L|182:268,1,87.5,4|0,3:0|0:0,0:0:0:0:
87,255,217120,2,0,L|95:349,1,87.5,8|0,0:0|0:0,0:0:0:0:
162,186,217473,2,0,L|170:280,1,87.5,8|0,0:0|0:0,0:0:0:0:
146,10,217826,5,6,1:2:0:0:
146,10,218179,1,8,0:0:0:0:
231,139,218356,1,0,0:0:0:0:
146,10,218532,1,8,0:0:0:0:
125,189,218708,1,0,0:0:0:0:
276,75,218885,2,0,P|226:60|186:77,1,87.5,4|0,3:0|0:0,0:0:0:0:
80,252,219238,6,0,P|130:267|170:250,1,87.5,8|0,1:0|0:0,0:0:0:0:
261,316,219591,2,0,P|311:301|351:318,1,87.5,4|0,3:0|0:0,0:0:0:0:
87,265,219944,2,0,P|137:280|177:263,1,87.5,8|0,0:0|0:0,0:0:0:0:
268,329,220297,2,0,P|318:314|358:331,1,87.5,8|0,0:0|0:0,0:0:0:0:
467,125,220650,6,0,B|478:169|478:169|466:215,1,87.5,6|0,1:2|0:0,0:0:0:0:
349,325,221003,1,8,1:0:0:0:
260,168,221179,2,0,L|226:158,2,21.875,2|0|2,3:0|0:0|3:0,0:0:0:0:
337,217,221356,2,0,L|346:124,1,87.5,8|0,1:0|0:0,0:0:0:0:
246,298,221708,1,8,1:0:0:0:
345,129,221885,1,2,3:0:0:0:
425,268,222061,5,10,1:2:0:0:
204,163,222238,1,2,3:0:0:0:
424,98,222414,1,8,1:0:0:0:
339,338,222591,1,2,3:0:0:0:
204,163,222767,2,0,L|194:282,1,87.5,4|0,3:0|0:0,0:0:0:0:
125,91,223120,1,4,1:3:0:0:
125,91,223297,1,2,3:0:0:0:
288,199,223473,6,0,L|393:186,1,87.5,10|0,1:2|0:0,0:0:0:0:
194,281,223826,1,8,1:0:0:0:
210,129,224003,2,0,L|244:119,2,21.875,2|0|2,3:0|0:0|3:0,0:0:0:0:
133,178,224180,2,0,L|124:85,1,87.5,8|0,1:0|0:0,0:0:0:0:
194,281,224532,1,8,1:0:0:0:
124,90,224708,1,2,3:0:0:0:
37,221,224885,5,10,1:2:0:0:
272,154,225061,1,2,3:0:0:0:
28,91,225238,1,8,1:0:0:0:
96,315,225414,1,0,1:0:0:0:
272,154,225591,2,0,L|264:253,1,87.5,8|2,1:0|3:0,0:0:0:0:
380,80,225944,2,0,L|442:68,2,58.3333333333333,8|2|2,1:0|3:0|3:0,0:0:0:0:
272,154,226297,5,14,1:2:0:0:
380,80,226473,1,10,3:0:0:0:
181,59,226650,1,8,1:0:0:0:
253,234,226826,1,2,3:0:0:0:
316,5,227003,1,10,1:2:0:0:
79,101,227179,1,6,3:0:0:0:
316,5,227356,1,8,1:0:0:0:
238,135,227532,1,2,3:0:0:0:
107,7,227708,5,10,1:2:0:0:
310,197,227885,1,6,3:0:0:0:
43,277,228061,1,10,1:2:0:0:
248,101,228238,1,10,3:0:0:0:
190,379,228414,1,10,1:2:0:0:
126,114,228591,1,6,3:0:0:0:
190,379,228767,5,6,1:3:0:0:
269,62,228944,1,10,3:0:0:0:
507,222,229120,5,14,3:0:0:0:
475,244,229208,1,0,0:0:0:0:
437,256,229296,1,2,3:0:0:0:
398,254,229384,1,0,0:0:0:0:
362,239,229473,2,0,P|356:202|361:184,1,43.75,2|0,1:2|0:0,0:0:0:0:
265,20,229650,2,0,P|271:57|266:75,1,43.75,2|0,1:3|0:0,0:0:0:0:
21,169,229826,5,2,3:2:0:0:
52,147,229914,1,0,0:0:0:0:
90,135,230002,1,2,3:0:0:0:
129,137,230090,1,0,0:0:0:0:
165,152,230179,2,0,P|171:189|166:207,1,43.75,2|0,1:2|0:0,0:0:0:0:
263,371,230356,2,0,P|256:333|261:315,1,43.75,2|0,1:2|0:0,0:0:0:0:
357,196,230532,6,0,L|421:189,2,58.3333333333333,2|2|2,1:3|3:0|3:0,0:0:0:0:
170,194,230885,2,0,L|106:201,2,58.3333333333333,2|2|2,3:0|3:0|3:0,0:0:0:0:
257,328,231238,5,2,0:0:0:0:
307,67,231591,1,2,0:0:0:0:
